  0
SECTION
  2
HEADER
  9
$ACADVER
  1
AC1009
  9
$INSBASE
 10
0.0
 20
0.0
 30
0.0
  9
$EXTMIN
 10
66.810156221510738
 20
-0.7318077712765824
 30
0.0
  9
$EXTMAX
 10
302.48519299036968
 20
229.70104371282531
 30
0.0
  9
$LIMMIN
 10
0.0
 20
0.0
  9
$LIMMAX
 10
420.0
 20
297.0
  9
$ORTHOMODE
 70
     0
  9
$REGENMODE
 70
     1
  9
$FILLMODE
 70
     1
  9
$QTEXTMODE
 70
     0
  9
$MIRRTEXT
 70
     1
  9
$DRAGMODE
 70
     2
  9
$LTSCALE
 40
1.0
  9
$OSMODE
 70
    39
  9
$ATTMODE
 70
     1
  9
$TEXTSIZE
 40
2.5
  9
$TRACEWID
 40
1.0
  9
$TEXTSTYLE
  7
STANDARD
  9
$CLAYER
  8
0
  9
$CELTYPE
  6
BYLAYER
  9
$CECOLOR
 62
   256
  9
$DIMSCALE
 40
1.0
  9
$DIMASZ
 40
2.5
  9
$DIMEXO
 40
0.625
  9
$DIMDLI
 40
3.75
  9
$DIMRND
 40
0.0
  9
$DIMDLE
 40
0.0
  9
$DIMEXE
 40
1.25
  9
$DIMTP
 40
0.0
  9
$DIMTM
 40
0.0
  9
$DIMTXT
 40
2.5
  9
$DIMCEN
 40
2.5
  9
$DIMTSZ
 40
0.0
  9
$DIMTOL
 70
     0
  9
$DIMLIM
 70
     0
  9
$DIMTIH
 70
     0
  9
$DIMTOH
 70
     0
  9
$DIMSE1
 70
     0
  9
$DIMSE2
 70
     0
  9
$DIMTAD
 70
     1
  9
$DIMZIN
 70
     8
  9
$DIMBLK
  1

  9
$DIMASO
 70
     1
  9
$DIMSHO
 70
     1
  9
$DIMPOST
  1

  9
$DIMAPOST
  1

  9
$DIMALT
 70
     0
  9
$DIMALTD
 70
     3
  9
$DIMALTF
 40
0.03937007874016
  9
$DIMLFAC
 40
1.0
  9
$DIMTOFL
 70
     1
  9
$DIMTVP
 40
0.0
  9
$DIMTIX
 70
     0
  9
$DIMSOXD
 70
     0
  9
$DIMSAH
 70
     0
  9
$DIMBLK1
  1

  9
$DIMBLK2
  1

  9
$DIMSTYLE
  2
ISO-25
  9
$DIMCLRD
 70
     0
  9
$DIMCLRE
 70
     0
  9
$DIMCLRT
 70
     0
  9
$DIMTFAC
 40
1.0
  9
$DIMGAP
 40
0.625
  9
$LUNITS
 70
     2
  9
$LUPREC
 70
     4
  9
$SKETCHINC
 40
1.0
  9
$FILLETRAD
 40
10.0
  9
$AUNITS
 70
     0
  9
$AUPREC
 70
     0
  9
$MENU
  1
.
  9
$ELEVATION
 40
0.0
  9
$PELEVATION
 40
0.0
  9
$THICKNESS
 40
0.0
  9
$LIMCHECK
 70
     0
  9
$BLIPMODE
 70
     0
  9
$CHAMFERA
 40
10.0
  9
$CHAMFERB
 40
10.0
  9
$SKPOLY
 70
     0
  9
$TDCREATE
 40
2454873.669344224
  9
$TDUPDATE
 40
2455105.69437662
  9
$TDINDWG
 40
0.1665411574
  9
$TDUSRTIMER
 40
0.1665411574
  9
$USRTIMER
 70
     1
  9
$ANGBASE
 50
0.0
  9
$ANGDIR
 70
     0
  9
$PDMODE
 70
     0
  9
$PDSIZE
 40
0.0
  9
$PLINEWID
 40
0.0
  9
$COORDS
 70
     2
  9
$SPLFRAME
 70
     0
  9
$SPLINETYPE
 70
     6
  9
$SPLINESEGS
 70
     8
  9
$ATTDIA
 70
     0
  9
$ATTREQ
 70
     1
  9
$HANDLING
 70
 22529
  9
$HANDSEED
  5
187
  9
$SURFTAB1
 70
     6
  9
$SURFTAB2
 70
     6
  9
$SURFTYPE
 70
     6
  9
$SURFU
 70
     6
  9
$SURFV
 70
     6
  9
$UCSNAME
  2

  9
$UCSORG
 10
0.0
 20
0.0
 30
0.0
  9
$UCSXDIR
 10
1.0
 20
0.0
 30
0.0
  9
$UCSYDIR
 10
0.0
 20
1.0
 30
0.0
  9
$PUCSNAME
  2

  9
$PUCSORG
 10
0.0
 20
0.0
 30
0.0
  9
$PUCSXDIR
 10
1.0
 20
0.0
 30
0.0
  9
$PUCSYDIR
 10
0.0
 20
1.0
 30
0.0
  9
$USERI1
 70
     0
  9
$USERI2
 70
     0
  9
$USERI3
 70
     0
  9
$USERI4
 70
     0
  9
$USERI5
 70
     0
  9
$USERR1
 40
0.0
  9
$USERR2
 40
0.0
  9
$USERR3
 40
0.0
  9
$USERR4
 40
0.0
  9
$USERR5
 40
0.0
  9
$WORLDVIEW
 70
     1
  9
$SHADEDGE
 70
     3
  9
$SHADEDIF
 70
    70
  9
$TILEMODE
 70
     1
  9
$MAXACTVP
 70
    64
  9
$PLIMCHECK
 70
     0
  9
$PEXTMIN
 10
1.144338676220513
 20
2.391762241006858
 30
-0.0015258207003583
  9
$PEXTMAX
 10
288.44975390501378
 20
201.0559707003888
 30
0.0000000349246037
  9
$PLIMMIN
 10
-3.17498779296875
 20
-3.1749999523162842
  9
$PLIMMAX
 10
293.85684204101562
 20
206.7348358631134
  9
$UNITMODE
 70
     0
  9
$VISRETAIN
 70
     1
  9
$PLINEGEN
 70
     0
  9
$PSLTSCALE
 70
     1
  0
ENDSEC
  0
SECTION
  2
TABLES
  0
TABLE
  2
VPORT
 70
     1
  0
VPORT
  2
*ACTIVE
 70
     0
 10
0.0
 20
0.0
 11
1.0
 21
1.0
 12
163.72100508230059
 22
118.28584653063329
 13
0.0
 23
0.0
 14
10.0
 24
10.0
 15
10.0
 25
10.0
 16
0.0
 26
0.0
 36
1.0
 17
0.0
 27
0.0
 37
0.0
 40
234.50475803002621
 41
1.710651828298887
 42
50.0
 43
0.0
 44
0.0
 50
0.0
 51
0.0
 71
     0
 72
   100
 73
     1
 74
     3
 75
     0
 76
     0
 77
     0
 78
     0
  0
ENDTAB
  0
TABLE
  2
LTYPE
 70
     2
  0
LTYPE
  2
CONTINUOUS
 70
     0
  3
Solid line
 72
    65
 73
     0
 40
0.0
  0
LTYPE
  2
CENTER
 70
     0
  3
Center ____ _ ____ _ ____ _ ____ _ ____ _ ____
 72
    65
 73
     4
 40
50.799999999999997
 49
31.75
 49
-6.3499999999999988
 49
6.3499999999999988
 49
-6.3499999999999988
  0
ENDTAB
  0
TABLE
  2
LAYER
 70
     5
  0
LAYER
  2
0
 70
     0
 62
     7
  6
CONTINUOUS
  0
LAYER
  2
基準線
 70
     0
 62
     1
  6
CENTER
  0
LAYER
  2
図形
 70
     0
 62
     7
  6
CONTINUOUS
  0
LAYER
  2
寸法
 70
     0
 62
     5
  6
CONTINUOUS
  0
LAYER
  2
DEFPOINTS
 70
     0
 62
     7
  6
CONTINUOUS
  0
ENDTAB
  0
TABLE
  2
STYLE
 70
     5
  0
STYLE
  2
STANDARD
 70
     0
 40
0.0
 41
1.0
 50
0.0
 71
     0
 42
2.5
  3
txt
  4

  0
STYLE
  2
NISSIN5
 70
     0
 40
5.0
 41
1.0
 50
0.0
 71
     0
 42
3.5
  3
txt
  4

  0
STYLE
  2
NISSIN3_5
 70
     0
 40
3.5
 41
1.0
 50
0.0
 71
     0
 42
3.5
  3
txt
  4

  0
STYLE
  2
NISSIN3
 70
     0
 40
3.0
 41
1.0
 50
0.0
 71
     0
 42
4.0
  3
txt
  4

  0
STYLE
  2
NISSIN2
 70
     0
 40
2.0
 41
1.0
 50
0.0
 71
     0
 42
4.0
  3
txt
  4

  0
ENDTAB
  0
TABLE
  2
VIEW
 70
     0
  0
ENDTAB
  0
TABLE
  2
UCS
 70
     0
  0
ENDTAB
  0
TABLE
  2
APPID
 70
     1
  0
APPID
  2
ACAD
 70
     0
  0
ENDTAB
  0
TABLE
  2
DIMSTYLE
 70
     2
  0
DIMSTYLE
  2
ISO-25
 70
     0
  3

  4

  5

  6

  7

 40
1.0
 41
2.5
 42
0.625
 43
3.75
 44
1.25
 45
0.0
 46
0.0
 47
0.0
 48
0.0
140
2.5
141
2.5
142
0.0
143
0.03937007874016
144
1.0
145
0.0
146
1.0
147
0.625
 71
     0
 72
     0
 73
     0
 74
     0
 75
     0
 76
     0
 77
     1
 78
     8
170
     0
171
     3
172
     1
173
     0
174
     0
175
     0
176
     0
177
     0
178
     0
  0
DIMSTYLE
  2
NISSINSTYLE
 70
     0
  3

  4

  5

  6

  7

 40
1.0
 41
3.0
 42
2.0
 43
3.75
 44
3.0
 45
0.0
 46
0.0
 47
0.0
 48
0.0
140
3.5
141
3.0
142
0.0
143
0.03937007874016
144
1.0
145
0.0
146
1.0
147
0.625
 71
     0
 72
     0
 73
     0
 74
     0
 75
     0
 76
     0
 77
     1
 78
     8
170
     0
171
     3
172
     1
173
     0
174
     0
175
     0
176
     0
177
     0
178
     0
  0
ENDTAB
  0
ENDSEC
  0
SECTION
  2
BLOCKS
  0
BLOCK
  8
0
  2
$MODEL_SPACE
 70
     0
 10
0.0
 20
0.0
 30
0.0
  3
$MODEL_SPACE
  1

  0
ENDBLK
  5
9
  8
0
  0
BLOCK
 67
     1
  8
0
  2
$PAPER_SPACE
 70
     0
 10
0.0
 20
0.0
 30
0.0
  3
$PAPER_SPACE
  1

  0
ENDBLK
  5
E
 67
     1
  8
0
  0
BLOCK
  8
0
  2
*D0
 70
     1
 10
0.0
 20
0.0
 30
0.0
  3
*D0
  1

  0
LINE
  5
8B
  8
寸法
 62
     0
 10
81.342414633176645
 20
77.701043712825367
 30
0.0
 11
81.342414633176645
 21
108.701026923022
 31
0.0
  0
LINE
  5
8C
  8
寸法
 62
     0
 10
181.34241463317659
 20
77.70104371282531
 30
0.0
 11
181.34241463317659
 21
108.701026923022
 31
0.0
  0
LINE
  5
8D
  8
寸法
 62
     0
 10
84.342414633176645
 20
105.701026923022
 30
0.0
 11
178.34241463317659
 21
105.701026923022
 31
0.0
  0
SOLID
  5
8E
  8
寸法
 62
     0
 10
84.342414633176645
 20
106.201026923022
 30
0.0
 11
84.342414633176645
 21
105.201026923022
 31
0.0
 12
81.342414633176645
 22
105.701026923022
 32
0.0
 13
81.342414633176645
 23
105.701026923022
 33
0.0
  0
SOLID
  5
8F
  8
寸法
 62
     0
 10
178.34241463317659
 20
106.201026923022
 30
0.0
 11
178.34241463317659
 21
105.201026923022
 31
0.0
 12
181.34241463317659
 22
105.701026923022
 32
0.0
 13
181.34241463317659
 23
105.701026923022
 33
0.0
  0
INSERT
  5
90
  8
0
  2
*U11
 10
0.0
 20
0.0
 30
0.0
  0
POINT
  5
91
  8
DEFPOINTS
 62
     0
 10
81.342414633176645
 20
75.701043712825367
 30
0.0
  0
POINT
  5
92
  8
DEFPOINTS
 62
     0
 10
181.34241463317659
 20
75.70104371282531
 30
0.0
  0
POINT
  5
93
  8
DEFPOINTS
 62
     0
 10
181.34241463317659
 20
105.701026923022
 30
0.0
  0
ENDBLK
  5
95
  8
0
  0
BLOCK
  8
0
  2
*D1
 70
     1
 10
0.0
 20
0.0
 30
0.0
  3
*D1
  1

  0
LINE
  5
7C
  8
寸法
 62
     0
 10
89.342414633176645
 20
77.701043712825353
 30
0.0
 11
89.342414633176645
 21
98.694188567856642
 31
0.0
  0
LINE
  5
7D
  8
寸法
 62
     0
 10
173.34241463317659
 20
77.701043712825296
 30
0.0
 11
173.34241463317659
 21
98.694188567856642
 31
0.0
  0
LINE
  5
7E
  8
寸法
 62
     0
 10
92.342414633176645
 20
95.694188567856656
 30
0.0
 11
170.34241463317659
 21
95.694188567856656
 31
0.0
  0
SOLID
  5
7F
  8
寸法
 62
     0
 10
92.342414633176645
 20
96.194188567856642
 30
0.0
 11
92.342414633176645
 21
95.194188567856642
 31
0.0
 12
89.342414633176645
 22
95.694188567856656
 32
0.0
 13
89.342414633176645
 23
95.694188567856656
 33
0.0
  0
SOLID
  5
80
  8
寸法
 62
     0
 10
170.34241463317659
 20
96.194188567856642
 30
0.0
 11
170.34241463317659
 21
95.194188567856642
 31
0.0
 12
173.34241463317659
 22
95.694188567856656
 32
0.0
 13
173.34241463317659
 23
95.694188567856656
 33
0.0
  0
INSERT
  5
81
  8
0
  2
*U10
 10
0.0
 20
0.0
 30
0.0
  0
POINT
  5
82
  8
DEFPOINTS
 62
     0
 10
89.342414633176645
 20
75.701043712825353
 30
0.0
  0
POINT
  5
83
  8
DEFPOINTS
 62
     0
 10
173.34241463317659
 20
75.701043712825296
 30
0.0
  0
POINT
  5
84
  8
DEFPOINTS
 62
     0
 10
173.34241463317659
 20
95.694188567856656
 30
0.0
  0
ENDBLK
  5
86
  8
0
  0
BLOCK
  8
0
  2
*D2
 70
     1
 10
0.0
 20
0.0
 30
0.0
  3
*D2
  1

  0
LINE
  5
6D
  8
寸法
 62
     0
 10
97.342414633176645
 20
77.701043712825367
 30
0.0
 11
97.342414633176645
 21
88.690195179768693
 31
0.0
  0
LINE
  5
6E
  8
寸法
 62
     0
 10
165.34241463317659
 20
77.70104371282531
 30
0.0
 11
165.34241463317659
 21
88.690195179768693
 31
0.0
  0
LINE
  5
6F
  8
寸法
 62
     0
 10
100.3424146331766
 20
85.690195179768693
 30
0.0
 11
162.34241463317659
 21
85.690195179768693
 31
0.0
  0
SOLID
  5
70
  8
寸法
 62
     0
 10
100.3424146331766
 20
86.190195179768693
 30
0.0
 11
100.3424146331766
 21
85.190195179768693
 31
0.0
 12
97.342414633176645
 22
85.690195179768693
 32
0.0
 13
97.342414633176645
 23
85.690195179768693
 33
0.0
  0
SOLID
  5
71
  8
寸法
 62
     0
 10
162.34241463317659
 20
86.190195179768693
 30
0.0
 11
162.34241463317659
 21
85.190195179768693
 31
0.0
 12
165.34241463317659
 22
85.690195179768693
 32
0.0
 13
165.34241463317659
 23
85.690195179768693
 33
0.0
  0
INSERT
  5
72
  8
0
  2
*U9
 10
0.0
 20
0.0
 30
0.0
  0
POINT
  5
73
  8
DEFPOINTS
 62
     0
 10
97.342414633176645
 20
75.701043712825367
 30
0.0
  0
POINT
  5
74
  8
DEFPOINTS
 62
     0
 10
165.34241463317659
 20
75.70104371282531
 30
0.0
  0
POINT
  5
75
  8
DEFPOINTS
 62
     0
 10
165.34241463317659
 20
85.690195179768693
 30
0.0
  0
ENDBLK
  5
77
  8
0
  0
BLOCK
  8
0
  2
*D3
 70
     1
 10
0.0
 20
0.0
 30
0.0
  3
*D3
  1

  0
LINE
  5
3A
  8
寸法
 62
     0
 10
79.342414633176645
 20
75.701043712825367
 30
0.0
 11
68.343785663135122
 21
75.701043712825367
 31
0.0
  0
LINE
  5
3B
  8
寸法
 62
     0
 10
79.342414633176645
 20
53.701043712825367
 30
0.0
 11
68.343785663135122
 21
53.701043712825367
 31
0.0
  0
LINE
  5
3C
  8
寸法
 62
     0
 10
71.343785663135122
 20
72.701043712825367
 30
0.0
 11
71.343785663135122
 21
56.701043712825367
 31
0.0
  0
SOLID
  5
3D
  8
寸法
 62
     0
 10
70.843785663135122
 20
72.701043712825367
 30
0.0
 11
71.843785663135122
 21
72.701043712825367
 31
0.0
 12
71.343785663135122
 22
75.701043712825367
 32
0.0
 13
71.343785663135122
 23
75.701043712825367
 33
0.0
  0
SOLID
  5
3E
  8
寸法
 62
     0
 10
70.843785663135122
 20
56.701043712825367
 30
0.0
 11
71.843785663135122
 21
56.701043712825367
 31
0.0
 12
71.343785663135122
 22
53.701043712825367
 32
0.0
 13
71.343785663135122
 23
53.701043712825367
 33
0.0
  0
TEXT
  5
3F
  8
0
 62
     0
 10
70.718785663135108
 20
62.444698535160398
 30
0.0
 40
3.5
  1
22
 50
90.0
  7
NISSIN3_5
  0
POINT
  5
40
  8
DEFPOINTS
 62
     0
 10
81.342414633176645
 20
75.701043712825367
 30
0.0
  0
POINT
  5
42
  8
DEFPOINTS
 62
     0
 10
81.342414633176645
 20
53.70104371282536
 30
0.0
  0
POINT
  5
43
  8
DEFPOINTS
 62
     0
 10
71.343785663135122
 20
53.701043712825367
 30
0.0
  0
ENDBLK
  5
45
  8
0
  0
BLOCK
  8
0
  2
*D4
 70
     1
 10
0.0
 20
0.0
 30
0.0
  3
*D4
  1

  0
LINE
  5
54
  8
寸法
 62
     0
 10
167.95303798309561
 20
69.713520249293722
 30
0.0
 11
165.86603522644211
 21
73.328315059353741
 31
0.0
  0
ARC
  5
55
  8
寸法
 62
     0
 10
177.1978456218184
 20
53.701043712825303
 30
0.0
 40
19.663620790752152
 50
128.74988809268481
 51
171.25011190731561
  0
SOLID
  5
56
  8
寸法
 62
     0
 10
164.60765071307091
 20
69.449100730390242
 30
0.0
 11
165.17225683301871
 21
68.623740245924438
 31
0.0
 12
167.36603522644219
 22
70.730238848000425
 32
0.0
 13
167.36603522644219
 23
70.730238848000425
 33
0.0
  0
SOLID
  5
57
  8
寸法
 62
     0
 10
158.2616169367887
 20
56.654160832841498
 30
0.0
 11
157.2645307299876
 21
56.730443833615489
 31
0.0
 12
157.53422483106621
 22
53.701043712825339
 32
0.0
 13
157.53422483106621
 23
53.701043712825339
 33
0.0
  0
TEXT
  5
58
  8
0
 62
     0
 10
157.6248465382119
 20
60.376856425024052
 30
0.0
 40
3.0
  1
60°
 50
60.000000000000263
  7
NISSIN3
  0
POINT
  5
59
  8
DEFPOINTS
 62
     0
 10
162.13463818346381
 20
66.340575518695346
 30
0.0
  0
POINT
  5
5A
  8
DEFPOINTS
 62
     0
 10
168.95303798309561
 20
67.981469441724855
 30
0.0
  0
POINT
  5
5B
  8
DEFPOINTS
 62
     0
 10
181.3424146331765
 20
53.70104371282531
 30
0.0
  0
POINT
  5
5C
  8
DEFPOINTS
 62
     0
 10
81.342414633176645
 20
53.701043712825353
 30
0.0
  0
POINT
  5
5D
  8
DEFPOINTS
 62
     0
 10
176.3530379830957
 20
55.164293465715261
 30
0.0
  0
ENDBLK
  5
5F
  8
0
  0
BLOCK
  8
0
  2
*U5
 70
     1
 10
0.0
 20
0.0
 30
0.0
  3
*U5
  1

  0
TEXT
  5
149
  8
0
 10
167.1926519448881
 20
21.79704757824598
 30
0.0
 40
5.0
  1
MODEL []DR-LA100
  7
NISSIN2
  0
TEXT
  5
14A
  8
0
 10
167.16727123422831
 20
13.46371424491265
 30
0.0
 40
5.0
  1
NISSIN ELECTRONIC CO.,LTD.
  7
NISSIN2
  0
ENDBLK
  5
14C
  8
0
  0
BLOCK
  8
0
  2
*X6
 70
     1
 10
0.0
 20
0.0
 30
0.0
  3
*X6
  1

  0
LINE
  5
14E
  8
0
 62
     0
 10
85.131940136567408
 20
53.70104371282536
 30
0.0
 11
86.631940136567422
 21
55.201043712825381
 31
0.0
  0
LINE
  5
14F
  8
0
 62
     0
 10
95.141812076032835
 20
68.201043712825353
 30
0.0
 11
96.1448248617518
 21
69.204056498544332
 31
0.0
  0
LINE
  5
150
  8
0
 62
     0
 10
81.342414633176645
 20
54.401646269969163
 30
0.0
 11
83.042410633176743
 21
56.101642269969282
 31
0.0
  0
LINE
  5
151
  8
0
 62
     0
 10
91.342414633176617
 20
68.891774330503736
 30
0.0
 11
96.142414633176656
 21
73.691774330503733
 31
0.0
  0
LINE
  5
152
  8
0
 62
     0
 10
96.451684015498273
 20
74.001043712825364
 30
0.0
 11
97.342414633176645
 21
74.891774330503736
 31
0.0
  0
LINE
  5
153
  8
0
 62
     0
 10
81.342414633176617
 20
58.891774330503743
 30
0.0
 11
83.842414633176645
 21
61.391774330503758
 31
0.0
  0
LINE
  5
154
  8
0
 62
     0
 10
87.661555954963674
 20
69.701043712825367
 30
0.0
 11
87.842414633176546
 21
69.881902391038238
 31
0.0
  0
LINE
  5
155
  8
0
 62
     0
 10
90.842414633176631
 20
72.881902391038324
 30
0.0
 11
93.661555954963674
 21
75.701043712825367
 31
0.0
  0
LINE
  5
156
  8
0
 62
     0
 10
81.342414633176617
 20
63.381902391038309
 30
0.0
 11
83.842414633176617
 21
65.881902391038324
 31
0.0
  0
LINE
  5
157
  8
0
 62
     0
 10
81.342414633176617
 20
67.872030451572897
 30
0.0
 11
87.842414633176617
 21
74.372030451572869
 31
0.0
  0
LINE
  5
158
  8
0
 62
     0
 10
81.342414633176617
 20
72.36215851210747
 30
0.0
 11
84.681299833894514
 21
75.701043712825367
 31
0.0
  0
ENDBLK
  5
15A
  8
0
  0
BLOCK
  8
0
  2
*X7
 70
     1
 10
0.0
 20
0.0
 30
0.0
  3
*X7
  1

  0
LINE
  5
15C
  8
0
 62
     0
 10
179.38512698750719
 20
53.701043712825282
 30
0.0
 11
181.34241463317659
 21
55.658331358494621
 31
0.0
  0
LINE
  5
15D
  8
0
 62
     0
 10
177.02158002914081
 20
55.827624814993378
 30
0.0
 11
178.39499892697259
 21
57.20104371282531
 31
0.0
  0
LINE
  5
15E
  8
0
 62
     0
 10
178.84241463317659
 20
57.648459419029223
 30
0.0
 11
181.3424146331765
 21
60.148459419029223
 31
0.0
  0
LINE
  5
15F
  8
0
 62
     0
 10
174.8949989269727
 20
53.70104371282531
 30
0.0
 11
176.3653666240177
 21
55.171411409870302
 31
0.0
  0
LINE
  5
160
  8
0
 62
     0
 10
178.84241463317659
 20
62.138587479563853
 30
0.0
 11
181.34241463317659
 21
64.638587479563796
 31
0.0
  0
LINE
  5
161
  8
0
 62
     0
 10
178.8424146331765
 20
66.628715540098383
 30
0.0
 11
181.34241463317659
 21
69.128715540098383
 31
0.0
  0
LINE
  5
162
  8
0
 62
     0
 10
177.4246147453689
 20
69.701043712825367
 30
0.0
 11
181.34241463317659
 21
73.618843600632985
 31
0.0
  0
LINE
  5
163
  8
0
 62
     0
 10
174.84241463317659
 20
71.608971661167487
 30
0.0
 11
178.9344866848343
 21
75.701043712825282
 31
0.0
  0
LINE
  5
164
  8
0
 62
     0
 10
167.16550085145349
 20
68.422185939979045
 30
0.0
 11
171.84241463317659
 21
73.099099721702089
 31
0.0
  0
LINE
  5
165
  8
0
 62
     0
 10
166.54241463317649
 20
72.289227782236679
 30
0.0
 11
169.95423056376521
 21
75.701043712825282
 31
0.0
  0
LINE
  5
166
  8
0
 62
     0
 10
165.34241463317659
 20
71.089227782236691
 30
0.0
 11
165.6542305637652
 21
71.401043712825313
 31
0.0
  0
LINE
  5
167
  8
0
 62
     0
 10
165.34241463317659
 20
75.579355842771236
 30
0.0
 11
165.46410250323061
 21
75.70104371282531
 31
0.0
  0
ENDBLK
  5
169
  8
0
  0
BLOCK
  8
0
  2
*D8
 70
     1
 10
0.0
 20
0.0
 30
0.0
  3
*D8
  1

  0
LINE
  5
16B
  8
寸法
 62
     0
 10
167.95303798309561
 20
69.713520249293722
 30
0.0
 11
165.86603522644211
 21
73.328315059353741
 31
0.0
  0
ARC
  5
16C
  8
寸法
 62
     0
 10
177.1978456218184
 20
53.701043712825303
 30
0.0
 40
19.663620790752152
 50
128.74988809268481
 51
171.25011190731561
  0
SOLID
  5
16D
  8
寸法
 62
     0
 10
164.60765071307091
 20
69.449100730390242
 30
0.0
 11
165.17225683301871
 21
68.623740245924438
 31
0.0
 12
167.36603522644219
 22
70.730238848000425
 32
0.0
 13
167.36603522644219
 23
70.730238848000425
 33
0.0
  0
SOLID
  5
16E
  8
寸法
 62
     0
 10
158.2616169367887
 20
56.654160832841526
 30
0.0
 11
157.2645307299876
 21
56.730443833615489
 31
0.0
 12
157.53422483106621
 22
53.701043712825332
 32
0.0
 13
157.53422483106621
 23
53.701043712825332
 33
0.0
  0
TEXT
  8
0
  40
3
  5
186
  62
0
  72
0
  71
0
 10
158.328
 20
60.6954
 30
0.000000
  1
60°
  7
NISSIN3
  0
POINT
  5
170
  8
DEFPOINTS
 62
     0
 10
162.13463818346381
 20
66.340575518695346
 30
0.0
  0
POINT
  5
171
  8
DEFPOINTS
 62
     0
 10
168.95303798309561
 20
67.981469441724855
 30
0.0
  0
POINT
  5
172
  8
DEFPOINTS
 62
     0
 10
181.3424146331765
 20
53.70104371282531
 30
0.0
  0
POINT
  5
173
  8
DEFPOINTS
 62
     0
 10
81.342414633176645
 20
53.701043712825353
 30
0.0
  0
POINT
  5
174
  8
DEFPOINTS
 62
     0
 10
176.3530379830957
 20
55.164293465715261
 30
0.0
  0
ENDBLK
  5
176
  8
0
  0
BLOCK
  8
0
  2
*U9
 70
     1
 10
0.0
 20
0.0
 30
0.0
  3
*U9
  1

  0
TEXT
  5
178
  8
0
 62
     0
 10
128.05561260271969
 20
86.315195179768693
 30
0.0
 40
3.5
  1
\U+2205
  7
NISSIN3_5
  0
TEXT
  5
179
  8
0
 62
     0
 10
130.32972427784659
 20
86.315195179768693
 30
0.0
 40
3.5
  1
68
  7
NISSIN3_5
  0
ENDBLK
  5
17B
  8
0
  0
BLOCK
  8
0
  2
*U10
 70
     1
 10
0.0
 20
0.0
 30
0.0
  3
*U10
  1

  0
TEXT
  5
17D
  8
0
 62
     0
 10
128.02007960779591
 20
96.319188567856656
 30
0.0
 40
3.5
  1
\U+2205
  7
NISSIN3_5
  0
TEXT
  5
17E
  8
0
 62
     0
 10
130.29419128292281
 20
96.319188567856656
 30
0.0
 40
3.5
  1
84
  7
NISSIN3_5
  0
ENDBLK
  5
180
  8
0
  0
BLOCK
  8
0
  2
*U11
 70
     1
 10
0.0
 20
0.0
 30
0.0
  3
*U11
  1

  0
TEXT
  5
182
  8
0
 62
     0
 10
126.89190701896339
 20
106.326026923022
 30
0.0
 40
3.5
  1
\U+2205
  7
NISSIN3_5
  0
TEXT
  5
183
  8
0
 62
     0
 10
129.1660186940903
 20
106.326026923022
 30
0.0
 40
3.5
  1
100
  7
NISSIN3_5
  0
ENDBLK
  5
185
  8
0
  0
ENDSEC
  0
SECTION
  2
ENTITIES
  0
INSERT
  5
26
  8
0
  2
*U5
 10
0.0
 20
0.0
 30
0.0
  0
LINE
  5
29
  8
図形
 10
208.9832774983378
 20
96.075007788416244
 30
0.0
 11
216.9035946331766
 21
96.073953712825485
 31
0.0
  0
LINE
  5
2A
  8
図形
 10
208.98656622093759
 20
92.878638628580873
 30
0.0
 11
216.9035946331766
 21
92.873923712825345
 31
0.0
  0
TEXT
  5
2B
  8
0
 10
202.30779963379689
 20
83.918810278007214
 30
0.0
 40
5.0
  1
L=500
  7
NISSIN5
  0
LINE
  5
2D
  8
図形
 10
207.34330658841611
 20
133.67230510009841
 30
0.0
 11
211.23238681387431
 21
137.56138532555661
 31
0.0
  0
LINE
  5
2E
  8
図形
 10
206.30540111285481
 20
140.8887399240401
 30
0.0
 11
210.41924229978099
 21
136.7482408114634
 31
0.0
  0
LINE
  5
2F
  8
図形
 10
214.55578868545109
 20
126.45982300306341
 30
0.0
 11
207.34330658841611
 21
133.67230510009841
 31
0.0
  0
LINE
  5
30
  8
基準線
 10
131.34241463317659
 20
121.7010437128253
 30
0.0
 11
131.34241463317659
 21
229.70104371282531
 31
0.0
  0
CIRCLE
  5
33
  8
図形
 10
131.3424146331767
 20
175.70104371282531
 30
0.0
 40
50.0
  0
CIRCLE
  5
34
  8
図形
 10
131.3424146331767
 20
175.70104371282531
 30
0.0
 40
34.0
  0
DIMENSION
  5
35
  8
寸法
  2
*D3
 10
71.343785663135122
 20
53.701043712825367
 30
0.0
 11
68.968785663135094
 21
64.701043712825381
 31
0.0
 13
81.342414633176645
 23
75.701043712825367
 33
0.0
 14
81.342414633176645
 24
53.70104371282536
 34
0.0
 50
270.0
1001
ACAD
1000
DSTYLE
1002
{
1070
   340
1005
38
1002
}
  0
INSERT
  5
46
  8
図形
  6
CONTINUOUS
  2
*X6
 10
0.0
 20
0.0
 30
0.0
1001
ACAD
1000
HATCH
1002
{
1070
    19
1000
ANSI31
1040
1.0
1040
0.0
1000
ASC_BOUNDS
1070
     3
1070
     1
1070
     8
1005
4C
1005
69
1005
4B
1005
A4
1005
A3
1005
A2
1005
9E
1005
9F
1070
     1
1070
    11
1005
B6
1005
B4
1005
9D
1005
4A
1005
A1
1005
49
1005
A0
1005
48
1005
69
1005
47
1005
97
1070
     1
1070
    13
1005
BC
1005
BF
1005
BE
1005
BD
1005
BB
1005
9C
1005
98
1005
BA
1005
B4
1005
B5
1005
97
1005
C1
1005
C0
1000
ASC_SEEDPOINT
1011
92.535831224568156
1021
1.0880469684439822E+186
1031
3.1360818654734433E+203
1021
73.751013019988306
1031
0.0
1000
R14_HATCH_DATA
1000
46
1011
1.0
1021
1.0880469684439822E+186
1031
3.1360818654734433E+203
1021
0.0
1031
0.0
1011
0.0
1021
1.0880469684439822E+186
1031
3.1360818654734433E+203
1021
1.0
1031
0.0
1011
0.0
1021
1.0880469684439822E+186
1031
3.1360818654734433E+203
1021
0.0
1031
1.0
1040
0.0
1010
0.0
1020
0.0
1030
1.0
1000
ANSI31
1070
     0
1070
     1
1071
        3
1071
        7
1070
     0
1070
     1
1071
       14
1040
96.142414633176656
1040
74.001043712825364
1040
97.342414633176645
1040
74.001043712825364
1040
97.342414633176645
1040
75.701043712825353
1040
90.842414633176645
1040
75.701043712825353
1040
90.842414633176645
1040
69.701043712825367
1040
91.342414633176645
1040
69.701043712825367
1040
91.342414633176645
1040
68.201043712825367
1040
93.284848330406305
1040
68.201043712825367
1040
93.302414633176824
1040
68.23146944172494
1040
93.355113541488166
1040
68.201043712825367
1040
95.342414633176631
1040
68.201043712825353
1040
97.342414633176645
1040
70.701043712825381
1040
97.342414633176645
1040
71.401043712825356
1040
96.142414633176656
1040
71.401043712825356
1071
       13
1005
C0
1005
C1
1005
97
1005
B5
1005
B4
1005
BA
1005
98
1005
9C
1005
BB
1005
BD
1005
BE
1005
BF
1005
BC
1071
        7
1070
     0
1070
     1
1071
       11
1040
87.842414633176631
1040
75.701043712825339
1040
81.342414633176645
1040
75.701043712825367
1040
81.342414633176645
1040
53.70104371282536
1040
83.042410633176928
1040
53.70104371282536
1040
83.042410633176658
1040
57.70104371282526
1040
83.242416633176845
1040
57.801043712825262
1040
83.242416633176845
1040
58.201038712825287
1040
83.842414633176645
1040
58.547448712825272
1040
83.842414633176645
1040
59.547448712825371
1040
83.842414633176645
1040
69.701043712825367
1040
87.842414633176574
1040
69.701043712825367
1071
       11
1005
97
1005
47
1005
69
1005
48
1005
A0
1005
49
1005
A1
1005
4A
1005
9D
1005
B4
1005
B6
1071
        7
1070
     0
1070
     1
1071
        9
1040
87.842414633176645
1040
55.201043712825367
1040
86.356645100130677
1040
55.201043712825367
1040
86.335427335068914
1040
55.164293465715318
1040
86.271774039883596
1040
55.201043712825367
1040
85.842414633176645
1040
55.201043712825367
1040
85.342414633176645
1040
57.201043712825367
1040
84.642418633176433
1040
57.201043712825367
1040
84.642418633176689
1040
53.70104371282536
1040
87.842414633176645
1040
53.70104371282536
1071
        8
1005
9F
1005
9E
1005
A2
1005
A3
1005
A4
1005
4B
1005
69
1005
4C
1070
     0
1070
     1
1040
0.0
1040
1.0
1070
     0
1070
     1
1040
0.7853981633974483
1040
0.0
1040
0.0
1040
-2.2450640302672871
1040
2.245064030267288
1070
     0
1040
0.0956781378692284
1071
        3
1040
92.535831224568156
1040
73.751013019988306
1040
0.0
1040
84.014858171512174
1040
70.880668883911369
1040
0.0
1040
85.450977658331098
1040
54.998097884998572
1040
0.0
1002
}
  0
LINE
  5
47
  8
図形
 10
81.342414633176645
 20
53.70104371282536
 30
0.0
 11
81.342414633176645
 21
75.701043712825367
 31
0.0
1001
ACAD
1000
ASC_BOUNDS
1002
{
1070
    19
1005
46
1002
}
  0
LINE
  5
48
  8
図形
 10
83.042410633176658
 20
57.701043712825367
 30
0.0
 11
83.042410633176928
 21
53.70104371282536
 31
0.0
1001
ACAD
1000
ASC_BOUNDS
1002
{
1070
    19
1005
46
1002
}
  0
LINE
  5
49
  8
図形
 10
83.242416633176845
 20
58.20103871282538
 30
0.0
 11
83.242416633177072
 21
53.70104371282536
 31
0.0
1001
ACAD
1000
ASC_BOUNDS
1002
{
1070
    19
1005
46
1002
}
  0
LINE
  5
4A
  8
基準線
 10
83.842414633176645
 20
59.547448712825371
 30
0.0
 11
83.842414633176645
 21
52.701043712825367
 31
0.0
1001
ACAD
1000
ASC_BOUNDS
1002
{
1070
    19
1005
46
1002
}
  0
LINE
  5
4B
  8
図形
 10
84.642418633176462
 20
57.201043712825367
 30
0.0
 11
84.642418633176703
 21
53.70104371282536
 31
0.0
1001
ACAD
1000
ASC_BOUNDS
1002
{
1070
    19
1005
46
1002
}
  0
LINE
  5
4C
  8
図形
 10
87.842414633176645
 20
53.70104371282536
 30
0.0
 11
87.842414633176645
 21
55.201043712825367
 31
0.0
1001
ACAD
1000
ASC_BOUNDS
1002
{
1070
    19
1005
46
1002
}
  0
LINE
  5
4D
  8
図形
 10
84.442412633176787
 20
57.201043712825367
 30
0.0
 11
84.442412633176787
 21
53.70104371282536
 31
0.0
  0
INSERT
  5
4E
  8
図形
  6
CONTINUOUS
  2
*X7
 10
0.0
 20
0.0
 30
0.0
1001
ACAD
1000
HATCH
1002
{
1070
    19
1000
ANSI31
1040
1.0
1040
0.0
1000
ASC_BOUNDS
1070
     2
1070
     1
1070
    13
1005
E8
1005
C7
1005
E9
1005
C8
1005
DC
1005
DD
1005
E1
1005
DF
1005
E0
1005
DE
1005
E2
1005
E3
1005
96
1070
     1
1070
    12
1005
63
1005
69
1005
60
1005
C9
1005
D4
1005
D3
1005
C6
1005
F0
1005
EE
1005
C7
1005
E7
1005
96
1000
ASC_SEEDPOINT
1011
177.43278918465529
1021
1.0880469684439822E+186
1031
3.1360818654734433E+203
1021
72.213041937320483
1031
0.0
1000
R14_HATCH_DATA
1000
4E
1011
1.0
1021
1.0880469684439822E+186
1031
3.1360818654734433E+203
1021
0.0
1031
0.0
1011
0.0
1021
1.0880469684439822E+186
1031
3.1360818654734433E+203
1021
1.0
1031
0.0
1011
0.0
1021
1.0880469684439822E+186
1031
3.1360818654734433E+203
1021
0.0
1031
1.0
1040
0.0
1010
0.0
1020
0.0
1030
1.0
1000
ANSI31
1070
     0
1070
     1
1071
        2
1071
        7
1070
     0
1070
     1
1071
       13
1040
178.84241463317659
1040
69.701043712825324
1040
178.84241463317659
1040
57.20104371282531
1040
177.34241463317659
1040
57.20104371282531
1040
176.87520888183269
1040
55.20104371282531
1040
176.41669127828101
1040
55.20104371282531
1040
176.3530379830957
1040
55.164293465715282
1040
176.3318202180339
1040
55.201043712825303
1040
174.84241463317659
1040
55.20104371282531
1040
174.84241463317659
1040
53.701043712825317
1040
181.34241463317659
1040
53.70104371282531
1040
181.34241463317659
1040
75.70104371282531
1040
174.84241463317659
1040
75.70104371282531
1040
174.84241463317659
1040
69.70104371282531
1071
       12
1005
96
1005
E7
1005
C7
1005
EE
1005
F0
1005
C6
1005
D3
1005
D4
1005
C9
1005
60
1005
69
1005
63
1071
        7
1070
     0
1070
     1
1071
       14
1040
171.84241463317659
1040
75.70104371282531
1040
165.34241463317659
1040
75.70104371282531
1040
165.34241463317659
1040
74.001043712825322
1040
166.54241463317661
1040
74.001043712825322
1040
166.54241463317661
1040
71.401043712825285
1040
165.34241463317659
1040
71.401043712825299
1040
165.34241463317659
1040
70.701043712825268
1040
167.34241463317659
1040
68.20104371282531
1040
169.33335177667649
1040
68.20104371282531
1040
169.38605068498791
1040
68.231469441724869
1040
169.40361698775831
1040
68.20104371282531
1040
171.34241463317659
1040
68.201043712825296
1040
171.34241463317659
1040
69.70104371282531
1040
171.84241463317659
1040
69.70104371282531
1071
       13
1005
96
1005
E3
1005
E2
1005
DE
1005
E0
1005
DF
1005
E1
1005
DD
1005
DC
1005
C8
1005
E9
1005
C7
1005
E8
1070
     0
1070
     1
1040
0.0
1040
1.0
1070
     0
1070
     1
1040
0.7853981633974483
1040
-280.60483217886201
1040
-74.019438973985302
1040
-2.2450640302672871
1040
2.245064030267288
1070
     0
1040
0.2510880156141258
1071
        4
1040
177.43278918465529
1040
72.213041937320483
1040
0.0
1040
172.4077151540354
1040
72.464130408224875
1040
0.0
1040
178.18655102232279
1040
73.217394106797485
1040
0.0
1040
169.6439246815527
1040
72.966306207273249
1040
0.0
1002
}
  0
DIMENSION
  5
4F
  8
寸法
  2
*D8
 10
176.3530379830957
 20
55.164293465715268
 30
0.0
 11
158.32834650360121
 21
64.59535410820132
 31
0.0
 70
     2
 13
181.34241463317659
 23
53.70104371282531
 33
0.0
 14
81.342414633176645
 24
53.70104371282536
 34
0.0
 15
168.95303798309561
 25
67.981469441724855
 35
0.0
 16
162.13463818346381
 26
66.340575518695346
 36
0.0
1001
ACAD
1000
DSTYLE
1002
{
1070
   271
1070
     0
1070
   340
1005
52
1002
}
  0
LINE
  5
60
  8
図形
 10
174.84241463317659
 20
53.70104371282531
 30
0.0
 11
174.84241463317659
 21
55.20104371282531
 31
0.0
1001
ACAD
1000
ASC_BOUNDS
1002
{
1070
    19
1005
4E
1002
}
  0
ARC
  5
61
  8
図形
 10
171.53534652947161
 20
56.308779838582353
 30
0.0
 40
1.55
 50
119.9999999999997
 51
299.99999999999972
  0
LINE
  5
62
  8
図形
 10
174.90842274082499
 20
56.466440462716427
 30
0.0
 11
172.3103465294717
 21
54.966440462716442
 31
0.0
  0
LINE
  5
63
  8
図形
 10
181.34241463317659
 20
75.70104371282531
 30
0.0
 11
181.34241463317659
 21
53.70104371282531
 31
0.0
1001
ACAD
1000
ASC_BOUNDS
1002
{
1070
    19
1005
4E
1002
}
  0
LINE
  5
64
  8
図形
 10
181.34241463317659
 20
53.70104371282531
 30
0.0
 11
181.34241463317659
 21
75.70104371282531
 31
0.0
  0
LINE
  5
65
  8
図形
 10
181.34241463317659
 20
53.70104371282531
 30
0.0
 11
181.34241463317659
 21
75.70104371282531
 31
0.0
1001
ACAD
1000
ASC_BOUNDS
1002
{
1070
    19
1002
}
  0
LINE
  5
66
  8
図形
 10
87.780042577339586
 20
56.466440462716491
 30
0.0
 11
90.378118788692916
 21
54.966440462716491
 31
0.0
  0
ARC
  5
67
  8
図形
 10
91.15311878869295
 20
56.308779838582382
 30
0.0
 40
1.55
 50
240.00000000000031
 51
60.000000000000242
  0
LINE
  5
68
  8
基準線
 10
131.34241463317659
 20
79.70104371282531
 30
0.0
 11
131.34241463317659
 21
49.70104371282531
 31
0.0
  0
LINE
  5
69
  8
図形
 10
181.34241463317659
 20
53.70104371282531
 30
0.0
 11
81.342414633176645
 21
53.70104371282536
 31
0.0
1001
ACAD
1000
ASC_BOUNDS
1002
{
1070
    19
1005
4E
1005
46
1005
46
1002
}
  0
LINE
  5
6A
  8
図形
 10
95.342414633176645
 20
68.201043712825367
 30
0.0
 11
167.34241463317659
 21
68.20104371282531
 31
0.0
  0
DIMENSION
  5
6B
  8
寸法
  2
*D2
 10
165.34241463317659
 20
85.690195179768693
 30
0.0
 11
131.34241463317659
 21
88.065195179768693
 31
0.0
  1
%%c<>
 13
97.342414633176645
 23
75.701043712825367
 33
0.0
 14
165.34241463317659
 24
75.70104371282531
 34
0.0
1001
ACAD
1000
DSTYLE
1002
{
1070
   340
1005
38
1002
}
  0
DIMENSION
  5
78
  8
寸法
  2
*D1
 10
173.34241463317659
 20
95.694188567856656
 30
0.0
 11
131.34241463317659
 21
98.069188567856642
 31
0.0
  1
%%c<>
 13
89.342414633176645
 23
75.701043712825353
 33
0.0
 14
173.34241463317659
 24
75.701043712825296
 34
0.0
1001
ACAD
1000
DSTYLE
1002
{
1070
   340
1005
38
1002
}
  0
DIMENSION
  5
87
  8
寸法
  2
*D0
 10
181.34241463317659
 20
105.701026923022
 30
0.0
 11
131.34241463317659
 21
108.076026923022
 31
0.0
  1
%%c<>
 13
81.342414633176645
 23
75.701043712825367
 33
0.0
 14
181.34241463317659
 24
75.70104371282531
 34
0.0
1001
ACAD
1000
DSTYLE
1002
{
1070
   340
1005
38
1002
}
  0
LINE
  5
96
  8
図形
 10
131.34241463317659
 20
75.70104371282531
 30
0.0
 11
181.34241463317659
 21
75.70104371282531
 31
0.0
1001
ACAD
1000
ASC_BOUNDS
1002
{
1070
    19
1005
4E
1005
4E
1002
}
  0
LINE
  5
97
  8
図形
 10
81.342414633176645
 20
75.701043712825367
 30
0.0
 11
131.34241463317659
 21
75.70104371282531
 31
0.0
1001
ACAD
1000
ASC_BOUNDS
1002
{
1070
    19
1005
46
1005
46
1002
}
  0
LINE
  5
98
  8
図形
 10
95.342414633176645
 20
68.201043712825367
 30
0.0
 11
91.342414633176645
 21
68.201043712825367
 31
0.0
1001
ACAD
1000
ASC_BOUNDS
1002
{
1070
    19
1005
46
1002
}
  0
ARC
  5
99
  8
図形
 10
93.15311878869295
 20
59.772881453720181
 30
0.0
 40
1.55
 50
240.00000000000031
 51
60.000000000000242
  0
LINE
  5
9A
  8
図形
 10
93.330042577339555
 20
66.079322444723744
 30
0.0
 11
95.928118788692927
 21
64.579322444723744
 31
0.0
  0
ARC
  5
9B
  8
図形
 10
95.153118788692964
 20
63.23698306885791
 30
0.0
 40
1.55
 50
240.00000000000031
 51
60.000000000000242
  0
LINE
  5
9C
  8
図形
 10
93.302414633176795
 20
68.231469441724926
 30
0.0
 11
85.902414633176647
 21
55.414293465715332
 31
0.0
1001
ACAD
1000
ASC_BOUNDS
1002
{
1070
    19
1005
46
1002
}
  0
LINE
  5
9D
  8
図形
 10
83.842414633176645
 20
69.701043712825367
 30
0.0
 11
83.842414633176645
 21
57.201043712825367
 31
0.0
1001
ACAD
1000
ASC_BOUNDS
1002
{
1070
    19
1005
46
1002
}
  0
LINE
  5
9E
  8
図形
 10
93.735427335069005
 20
67.981469441724926
 30
0.0
 11
86.335427335068914
 21
55.164293465715332
 31
0.0
1001
ACAD
1000
ASC_BOUNDS
1002
{
1070
    19
1005
46
1002
}
  0
LINE
  5
9F
  8
図形
 10
87.842414633176645
 20
55.201043712825367
 30
0.0
 11
85.842414633176645
 21
55.201043712825367
 31
0.0
1001
ACAD
1000
ASC_BOUNDS
1002
{
1070
    19
1005
46
1002
}
  0
LINE
  5
A0
  8
図形
 10
83.042410633176885
 20
57.701043712825367
 30
0.0
 11
83.242416633177072
 21
57.801043712825361
 31
0.0
1001
ACAD
1000
ASC_BOUNDS
1002
{
1070
    19
1005
46
1002
}
  0
LINE
  5
A1
  8
図形
 10
83.242416633177015
 20
58.20103871282538
 30
0.0
 11
83.842414633176816
 21
58.547448712825371
 31
0.0
1001
ACAD
1000
ASC_BOUNDS
1002
{
1070
    19
1005
46
1002
}
  0
LINE
  5
A2
  8
図形
 10
86.335427335068914
 20
55.164293465715332
 30
0.0
 11
85.902414633176647
 21
55.414293465715332
 31
0.0
1001
ACAD
1000
ASC_BOUNDS
1002
{
1070
    19
1005
46
1002
}
  0
LINE
  5
A3
  8
図形
 10
85.842414633176645
 20
55.201043712825367
 30
0.0
 11
85.342414633176645
 21
57.201043712825367
 31
0.0
1001
ACAD
1000
ASC_BOUNDS
1002
{
1070
    19
1005
46
1002
}
  0
LINE
  5
A4
  8
図形
 10
83.842414633176645
 20
57.201043712825367
 30
0.0
 11
85.342414633176645
 21
57.201043712825367
 31
0.0
1001
ACAD
1000
ASC_BOUNDS
1002
{
1070
    19
1005
46
1002
}
  0
LINE
  5
A5
  8
図形
 10
83.842414633176915
 20
58.20103871282538
 30
0.0
 11
83.242416633177015
 21
58.20103871282538
 31
0.0
  0
LINE
  5
A6
  8
0
 10
83.042410633176587
 20
57.701043712825239
 30
0.0
 11
83.842414633176475
 21
57.701043712825303
 31
0.0
  0
LINE
  5
A7
  8
図形
 10
91.505042577339566
 20
62.918329720910549
 30
0.0
 11
89.605042577339574
 21
59.627433186529743
 31
0.0
  0
LINE
  5
A8
  8
図形
 10
89.330042577339597
 20
59.151119214448272
 30
0.0
 11
91.928118788692913
 21
57.651119214448272
 31
0.0
  0
LINE
  5
A9
  8
図形
 10
89.7800425773396
 20
59.930542077854227
 30
0.0
 11
92.378118788692916
 21
58.430542077854227
 31
0.0
  0
LINE
  5
AA
  8
図形
 10
87.605042577339589
 20
56.16333157139195
 30
0.0
 11
87.085427335068914
 21
56.463331571391961
 31
0.0
  0
LINE
  5
AB
  8
図形
 10
88.985427335068948
 20
59.754228105772818
 30
0.0
 11
89.505042577339566
 21
59.454228105772813
 31
0.0
  0
LINE
  5
AC
  8
図形
 10
89.605042577339574
 20
59.627433186529743
 30
0.0
 11
89.085427335068914
 21
59.92743318652969
 31
0.0
  0
LINE
  5
AD
  8
図形
 10
89.505042577339566
 20
59.454228105772813
 30
0.0
 11
87.605042577339589
 21
56.16333157139195
 31
0.0
  0
LINE
  5
AE
  8
図形
 10
90.985427335068934
 20
63.21832972091056
 30
0.0
 11
91.505042577339566
 21
62.918329720910549
 31
0.0
  0
LINE
  5
AF
  8
図形
 10
91.330042577339611
 20
62.615220829586008
 30
0.0
 11
93.928118788692927
 21
61.115220829586001
 31
0.0
  0
LINE
  5
B0
  8
図形
 10
91.7800425773396
 20
63.394643692991963
 30
0.0
 11
94.378118788692916
 21
61.894643692991963
 31
0.0
  0
LINE
  5
B1
  8
図形
 10
93.505042577339623
 20
66.382431336048285
 30
0.0
 11
92.985427335069005
 21
66.682431336048296
 31
0.0
  0
LINE
  5
B2
  8
図形
 10
93.505042577339623
 20
66.382431336048285
 30
0.0
 11
91.605042577339589
 21
63.091534801667422
 31
0.0
  0
LINE
  5
B3
  8
図形
 10
91.605042577339589
 20
63.091534801667422
 30
0.0
 11
91.085427335068971
 21
63.391534801667433
 31
0.0
  0
LINE
  5
B4
  8
図形
 10
83.842414633176645
 20
69.701043712825367
 30
0.0
 11
91.342414633176645
 21
69.701043712825367
 31
0.0
1001
ACAD
1000
ASC_BOUNDS
1002
{
1070
    19
1005
46
1005
46
1002
}
  0
LINE
  5
B5
  8
図形
 10
90.842414633176645
 20
75.701043712825367
 30
0.0
 11
90.842414633176645
 21
69.701043712825367
 31
0.0
1001
ACAD
1000
ASC_BOUNDS
1002
{
1070
    19
1005
46
1002
}
  0
LINE
  5
B6
  8
図形
 10
87.842414633176645
 20
75.701043712825367
 30
0.0
 11
87.842414633176588
 21
69.701043712825367
 31
0.0
1001
ACAD
1000
ASC_BOUNDS
1002
{
1070
    19
1005
46
1002
}
  0
LINE
  5
B7
  8
基準線
 10
89.342414633176645
 20
76.701043712825367
 30
0.0
 11
89.342414633176645
 21
68.701043712825367
 31
0.0
  0
LINE
  5
B8
  8
図形
 10
90.542414633176634
 20
75.701043712825367
 30
0.0
 11
90.542414633176577
 21
69.701043712825367
 31
0.0
  0
LINE
  5
B9
  8
図形
 10
88.1424146331766
 20
75.701043712825367
 30
0.0
 11
88.1424146331766
 21
69.701043712825367
 31
0.0
  0
LINE
  5
BA
  8
図形
 10
91.342414633176645
 20
69.701043712825367
 30
0.0
 11
91.342414633176645
 21
68.201043712825367
 31
0.0
1001
ACAD
1000
ASC_BOUNDS
1002
{
1070
    19
1005
46
1002
}
  0
LINE
  5
BB
  8
図形
 10
93.735427335069005
 20
67.981469441724926
 30
0.0
 11
93.302414633176795
 21
68.231469441724926
 31
0.0
1001
ACAD
1000
ASC_BOUNDS
1002
{
1070
    19
1005
46
1002
}
  0
LINE
  5
BC
  8
図形
 10
96.142414633176656
 20
74.001043712825364
 30
0.0
 11
96.142414633176656
 21
71.401043712825356
 31
0.0
1001
ACAD
1000
ASC_BOUNDS
1002
{
1070
    19
1005
46
1002
}
  0
LINE
  5
BD
  8
図形
 10
97.342414633176645
 20
70.701043712825367
 30
0.0
 11
95.342414633176645
 21
68.201043712825367
 31
0.0
1001
ACAD
1000
ASC_BOUNDS
1002
{
1070
    19
1005
46
1002
}
  0
LINE
  5
BE
  8
図形
 10
97.342414633176645
 20
71.401043712825356
 30
0.0
 11
97.342414633176645
 21
70.701043712825367
 31
0.0
1001
ACAD
1000
ASC_BOUNDS
1002
{
1070
    19
1005
46
1002
}
  0
LINE
  5
BF
  8
図形
 10
96.142414633176656
 20
71.401043712825356
 30
0.0
 11
97.342414633176645
 21
71.401043712825356
 31
0.0
1001
ACAD
1000
ASC_BOUNDS
1002
{
1070
    19
1005
46
1002
}
  0
LINE
  5
C0
  8
図形
 10
97.342414633176645
 20
74.001043712825364
 30
0.0
 11
96.142414633176656
 21
74.001043712825364
 31
0.0
1001
ACAD
1000
ASC_BOUNDS
1002
{
1070
    19
1005
46
1002
}
  0
LINE
  5
C1
  8
図形
 10
97.342414633176645
 20
75.701043712825367
 30
0.0
 11
97.342414633176645
 21
74.001043712825364
 31
0.0
1001
ACAD
1000
ASC_BOUNDS
1002
{
1070
    19
1005
46
1002
}
  0
LINE
  5
C2
  8
基準線
 10
128.84241463317659
 20
133.70104371282531
 30
0.0
 11
133.84241463317659
 21
133.70104371282531
 31
0.0
  0
CIRCLE
  5
C3
  8
図形
 10
131.3424146331767
 20
133.70104371282531
 30
0.0
 40
1.5
  0
CIRCLE
  5
C4
  8
図形
 10
131.3424146331767
 20
133.70104371282531
 30
0.0
 40
1.1999999999999991
  0
LINE
  5
C5
  8
基準線
 10
131.34241463317659
 20
136.20104371282531
 30
0.0
 11
131.34241463317659
 21
131.20104371282531
 31
0.0
  0
LINE
  5
C6
  8
図形
 10
176.87520888183269
 20
55.20104371282531
 30
0.0
 11
177.34241463317659
 21
57.20104371282531
 31
0.0
1001
ACAD
1000
ASC_BOUNDS
1002
{
1070
    19
1005
4E
1002
}
  0
LINE
  5
C7
  8
図形
 10
171.34241463317659
 20
69.70104371282531
 30
0.0
 11
178.84241463317659
 21
69.70104371282531
 31
0.0
1001
ACAD
1000
ASC_BOUNDS
1002
{
1070
    19
1005
4E
1005
4E
1002
}
  0
LINE
  5
C8
  8
図形
 10
176.786050684988
 20
55.414293465715268
 30
0.0
 11
169.38605068498791
 21
68.231469441724869
 31
0.0
1001
ACAD
1000
ASC_BOUNDS
1002
{
1070
    19
1005
4E
1002
}
  0
LINE
  5
C9
  8
図形
 10
168.95303798309561
 20
67.981469441724855
 30
0.0
 11
176.3530379830957
 21
55.164293465715268
 31
0.0
1001
ACAD
1000
ASC_BOUNDS
1002
{
1070
    19
1005
4E
1002
}
  0
LINE
  5
CA
  8
図形
 10
171.35842274082501
 20
62.615220829585951
 30
0.0
 11
168.76034652947169
 21
61.115220829585951
 31
0.0
  0
LINE
  5
CB
  8
図形
 10
170.90842274082499
 20
63.394643692991899
 30
0.0
 11
168.3103465294717
 21
61.894643692991913
 31
0.0
  0
ARC
  5
CC
  8
図形
 10
169.53534652947161
 20
59.772881453720139
 30
0.0
 40
1.55
 50
119.9999999999997
 51
299.99999999999972
  0
LINE
  5
CD
  8
図形
 10
169.35842274082509
 20
66.079322444723687
 30
0.0
 11
166.76034652947169
 21
64.579322444723687
 31
0.0
  0
ARC
  5
CE
  8
図形
 10
167.53534652947161
 20
63.236983068857882
 30
0.0
 40
1.55
 50
119.9999999999997
 51
299.99999999999972
  0
LINE
  5
CF
  8
図形
 10
171.18342274082511
 20
62.918329720910492
 30
0.0
 11
173.083422740825
 21
59.627433186529679
 31
0.0
  0
LINE
  5
D0
  8
図形
 10
173.083422740825
 20
59.627433186529679
 30
0.0
 11
173.6030379830957
 21
59.92743318652964
 31
0.0
  0
LINE
  5
D1
  8
図形
 10
173.35842274082501
 20
59.151119214448222
 30
0.0
 11
170.76034652947169
 21
57.651119214448208
 31
0.0
  0
LINE
  5
D2
  8
図形
 10
172.90842274082499
 20
59.93054207785417
 30
0.0
 11
170.3103465294717
 21
58.43054207785417
 31
0.0
  0
LINE
  5
D3
  8
図形
 10
174.87520888183261
 20
55.20104371282531
 30
0.0
 11
176.87520888183269
 21
55.20104371282531
 31
0.0
1001
ACAD
1000
ASC_BOUNDS
1002
{
1070
    19
1005
4E
1002
}
  0
LINE
  5
D4
  8
図形
 10
176.3530379830957
 20
55.164293465715268
 30
0.0
 11
176.786050684988
 21
55.414293465715268
 31
0.0
1001
ACAD
1000
ASC_BOUNDS
1002
{
1070
    19
1005
4E
1002
}
  0
LINE
  5
D5
  8
図形
 10
175.083422740825
 20
56.163331571391893
 30
0.0
 11
175.6030379830957
 21
56.463331571391898
 31
0.0
  0
LINE
  5
D6
  8
図形
 10
173.18342274082511
 20
59.454228105772764
 30
0.0
 11
175.083422740825
 21
56.163331571391893
 31
0.0
  0
LINE
  5
D7
  8
図形
 10
173.7030379830957
 20
59.754228105772768
 30
0.0
 11
173.18342274082511
 21
59.454228105772764
 31
0.0
  0
LINE
  5
D8
  8
図形
 10
171.7030379830957
 20
63.218329720910504
 30
0.0
 11
171.18342274082511
 21
62.918329720910492
 31
0.0
  0
LINE
  5
D9
  8
図形
 10
169.18342274082499
 20
66.382431336048228
 30
0.0
 11
169.70303798309561
 21
66.682431336048239
 31
0.0
  0
LINE
  5
DA
  8
図形
 10
169.18342274082499
 20
66.382431336048228
 30
0.0
 11
171.083422740825
 21
63.091534801667358
 31
0.0
  0
LINE
  5
DB
  8
図形
 10
171.083422740825
 20
63.091534801667358
 30
0.0
 11
171.6030379830957
 21
63.391534801667369
 31
0.0
  0
LINE
  5
DC
  8
図形
 10
168.95303798309561
 20
67.981469441724855
 30
0.0
 11
169.38605068498791
 21
68.231469441724869
 31
0.0
1001
ACAD
1000
ASC_BOUNDS
1002
{
1070
    19
1005
4E
1002
}
  0
LINE
  5
DD
  8
図形
 10
167.34241463317659
 20
68.20104371282531
 30
0.0
 11
171.34241463317659
 21
68.20104371282531
 31
0.0
1001
ACAD
1000
ASC_BOUNDS
1002
{
1070
    19
1005
4E
1002
}
  0
LINE
  5
DE
  8
図形
 10
166.54241463317661
 20
74.001043712825322
 30
0.0
 11
166.54241463317661
 21
71.401043712825299
 31
0.0
1001
ACAD
1000
ASC_BOUNDS
1002
{
1070
    19
1005
4E
1002
}
  0
LINE
  5
DF
  8
図形
 10
165.34241463317659
 20
71.401043712825299
 30
0.0
 11
165.34241463317659
 21
70.70104371282531
 31
0.0
1001
ACAD
1000
ASC_BOUNDS
1002
{
1070
    19
1005
4E
1002
}
  0
LINE
  5
E0
  8
図形
 10
166.54241463317661
 20
71.401043712825299
 30
0.0
 11
165.34241463317659
 21
71.401043712825299
 31
0.0
1001
ACAD
1000
ASC_BOUNDS
1002
{
1070
    19
1005
4E
1002
}
  0
LINE
  5
E1
  8
図形
 10
165.34241463317659
 20
70.70104371282531
 30
0.0
 11
167.34241463317659
 21
68.20104371282531
 31
0.0
1001
ACAD
1000
ASC_BOUNDS
1002
{
1070
    19
1005
4E
1002
}
  0
LINE
  5
E2
  8
図形
 10
165.34241463317659
 20
74.001043712825322
 30
0.0
 11
166.54241463317661
 21
74.001043712825322
 31
0.0
1001
ACAD
1000
ASC_BOUNDS
1002
{
1070
    19
1005
4E
1002
}
  0
LINE
  5
E3
  8
図形
 10
165.34241463317659
 20
75.70104371282531
 30
0.0
 11
165.34241463317659
 21
74.001043712825322
 31
0.0
1001
ACAD
1000
ASC_BOUNDS
1002
{
1070
    19
1005
4E
1002
}
  0
LINE
  5
E4
  8
図形
 10
174.54241463317661
 20
75.70104371282531
 30
0.0
 11
174.54241463317649
 21
69.70104371282531
 31
0.0
  0
LINE
  5
E5
  8
図形
 10
172.1424146331766
 20
75.70104371282531
 30
0.0
 11
172.1424146331766
 21
69.70104371282531
 31
0.0
  0
LINE
  5
E6
  8
基準線
 10
173.34241463317659
 20
76.70104371282531
 30
0.0
 11
173.34241463317659
 21
68.70104371282531
 31
0.0
  0
LINE
  5
E7
  8
図形
 10
174.84241463317659
 20
75.70104371282531
 30
0.0
 11
174.84241463317659
 21
69.70104371282531
 31
0.0
1001
ACAD
1000
ASC_BOUNDS
1002
{
1070
    19
1005
4E
1002
}
  0
LINE
  5
E8
  8
図形
 10
171.84241463317659
 20
75.70104371282531
 30
0.0
 11
171.84241463317659
 21
69.70104371282531
 31
0.0
1001
ACAD
1000
ASC_BOUNDS
1002
{
1070
    19
1005
4E
1002
}
  0
LINE
  5
E9
  8
図形
 10
171.34241463317659
 20
68.20104371282531
 30
0.0
 11
171.34241463317659
 21
69.70104371282531
 31
0.0
1001
ACAD
1000
ASC_BOUNDS
1002
{
1070
    19
1005
4E
1002
}
  0
LINE
  5
EA
  8
図形
 10
195.0943846331767
 20
85.478628797069916
 30
0.0
 11
195.0943846331767
 21
76.296933712825421
 31
0.0
  0
LINE
  5
EB
  8
図形
 10
198.68694463317721
 20
85.878638628580688
 30
0.0
 11
198.68694463317721
 21
76.70104371282531
 31
0.0
  0
ARC
  5
EC
  8
図形
 10
188.0869446331773
 20
76.70104371282531
 30
0.0
 40
10.6
 50
270.0
 51
0.0
  0
ARC
  5
ED
  8
図形
 10
188.0943846331767
 20
76.296933712825421
 30
0.0
 40
6.9999999999999973
 50
270.0
 51
0.0
  0
LINE
  5
EE
  8
図形
 10
178.84241463317659
 20
69.70104371282531
 30
0.0
 11
178.84241463317659
 21
57.20104371282531
 31
0.0
1001
ACAD
1000
ASC_BOUNDS
1002
{
1070
    19
1005
4E
1002
}
  0
LINE
  5
EF
  8
図形
 10
181.34241463317659
 20
66.101043712825344
 30
0.0
 11
188.0869446331773
 21
66.101043712825344
 31
0.0
  0
LINE
  5
F0
  8
図形
 10
178.84241463317659
 20
57.20104371282531
 30
0.0
 11
177.34241463317659
 21
57.20104371282531
 31
0.0
1001
ACAD
1000
ASC_BOUNDS
1002
{
1070
    19
1005
4E
1002
}
  0
LINE
  5
F1
  8
図形
 10
181.34241463317659
 20
69.296933712825421
 30
0.0
 11
188.0943846331767
 21
69.296933712825421
 31
0.0
  0
ARC
  5
F2
  8
図形
 10
205.69438463317681
 20
85.478628797069916
 30
0.0
 40
10.6
 50
90.0
 51
180.0
  0
ARC
  5
F3
  8
図形
 10
205.6869446331774
 20
85.878638628580688
 30
0.0
 40
7.0
 50
90.0
 51
180.0
  0
ARC
  5
F4
  8
図形
 10
209.88093463317679
 20
95.278633712825297
 30
0.0
 40
1.2000000000002089
 50
138.1900000000069
 51
221.80998999999801
  0
ARC
  5
F5
  8
図形
 10
205.79211463317671
 20
95.278633712825297
 30
0.0
 40
1.199999999999978
 50
318.1900000000021
 51
41.809997000001331
  0
ARC
  5
F6
  8
図形
 10
207.5809146331766
 20
95.278633712825297
 30
0.0
 40
1.200000000000039
 50
138.1900000000021
 51
221.8099900000004
  0
LINE
  5
F7
  8
図形
 10
206.68654622093769
 20
92.878638628580788
 30
0.0
 11
205.6869446331774
 21
92.878638628580788
 31
0.0
  0
ARC
  5
F8
  8
図形
 10
205.79211463317671
 20
93.678633712825444
 30
0.0
 40
1.199999999999978
 50
318.1900000000021
 51
41.809997000001331
  0
ARC
  5
F9
  8
図形
 10
208.0921346331767
 20
93.678633712825444
 30
0.0
 40
1.199999999999978
 50
318.1900000000021
 51
41.809997000001331
  0
ARC
  5
FA
  8
図形
 10
209.880842185239
 20
93.678669024508878
 30
0.0
 40
1.1999075525789289
 50
138.18831386179249
 51
221.81621077948009
  0
LINE
  5
FB
  8
図形
 10
206.68648304541591
 20
96.078628797069996
 30
0.0
 11
205.69438463317681
 21
96.078628797069996
 31
0.0
  0
ARC
  5
FC
  8
図形
 10
177.53816179170701
 20
141.66753319070349
 30
0.0
 40
6.9999999999999973
 50
225.0
 51
315.0
  0
ARC
  5
FD
  8
図形
 10
177.81864983860061
 20
141.95854298650039
 30
0.0
 40
10.6
 50
225.0
 51
315.0
  0
LINE
  5
FE
  8
図形
 10
165.56443951861709
 20
139.222089545329
 30
0.0
 11
170.32331795802321
 21
134.46321110592299
 31
0.0
  0
LINE
  5
FF
  8
図形
 10
167.8291245424025
 20
141.47707550339641
 30
0.0
 11
172.5884143234012
 21
136.71778572239759
 31
0.0
  0
ARC
  5
100
  8
図形
 10
196.7532687873977
 20
136.00300323753089
 30
0.0
 40
7.0
 50
44.999999999999993
 51
135.0
  0
ARC
  5
101
  8
図形
 10
196.47567999744669
 20
135.71489269867669
 30
0.0
 40
10.6
 50
44.999999999999993
 51
135.0
  0
LINE
  5
102
  8
図形
 10
191.8035213190918
 20
140.95275070583671
 30
0.0
 11
185.313981719178
 21
134.46321110592291
 31
0.0
  0
LINE
  5
103
  8
図形
 10
188.98034811686929
 20
143.21022457925409
 30
0.0
 11
182.4879092600128
 21
136.71778572239751
 31
0.0
  0
LINE
  5
104
  8
図形
 10
204.03688235065559
 20
138.63169043383169
 30
0.0
 11
208.1634585307109
 21
134.4924570423932
 31
0.0
  0
LINE
  5
105
  8
図形
 10
202.40984131689379
 20
140.24592564464649
 30
0.0
 11
201.7030162557036
 21
140.95275070583671
 31
0.0
  0
ARC
  5
106
  8
図形
 10
203.47443547476419
 20
142.57543708454361
 30
0.0
 40
1.1999999999999811
 50
273.18999999999772
 51
356.80999700000018
  0
ARC
  5
107
  8
図形
 10
204.73930808495061
 20
141.31056447435711
 30
0.0
 40
1.200000000000031
 50
93.189999999997752
 51
176.8099900000023
  0
ARC
  5
108
  8
図形
 10
206.36566782381519
 20
139.6842047354925
 30
0.0
 40
1.200000000000021
 50
93.189999999997752
 51
176.8099900000056
  0
ARC
  5
109
  8
図形
 10
202.34306462486589
 20
141.44406623464519
 30
0.0
 40
1.1999999999999891
 50
273.18999999999772
 51
356.80999700000018
  0
ARC
  5
10A
  8
図形
 10
205.23429697391691
 20
138.55283388559411
 30
0.0
 40
1.199999999999978
 50
93.18999999999933
 51
176.8099900000056
  0
ARC
  5
10B
  8
図形
 10
203.9694243637305
 20
139.8177064957805
 30
0.0
 40
1.1999999999999891
 50
273.18999999999772
 51
356.80999700000018
  0
LINE
  5
10C
  8
図形
 10
204.67253139292291
 20
142.50870506435541
 30
0.0
 11
203.9710118780242
 21
143.21022457925409
 31
0.0
  0
LINE
  5
10D
  8
基準線
 10
185.34241463317659
 20
175.70104371282531
 30
0.0
 11
77.342414633176645
 21
175.70104371282531
 31
0.0
  0
LINE
  5
10E
  8
基準線
 10
86.842414633176645
 20
175.70104371282531
 30
0.0
 11
91.842414633176645
 21
175.70104371282531
 31
0.0
  0
LINE
  5
10F
  8
基準線
 10
89.342414633176645
 20
178.20104371282531
 30
0.0
 11
89.342414633176645
 21
173.20104371282531
 31
0.0
  0
CIRCLE
  5
110
  8
図形
 10
89.342414633176645
 20
175.70104371282531
 30
0.0
 40
1.1999999999999991
  0
CIRCLE
  5
111
  8
図形
 10
89.342414633176645
 20
175.70104371282531
 30
0.0
 40
1.5
  0
CIRCLE
  5
112
  8
図形
 10
131.3424146331767
 20
217.70104371282531
 30
0.0
 40
1.1999999999999991
  0
CIRCLE
  5
113
  8
図形
 10
131.3424146331767
 20
217.70104371282531
 30
0.0
 40
1.5
  0
LINE
  5
114
  8
基準線
 10
131.34241463317659
 20
220.20104371282531
 30
0.0
 11
131.34241463317659
 21
215.20104371282531
 31
0.0
  0
LINE
  5
115
  8
基準線
 10
128.84241463317659
 20
217.70104371282531
 30
0.0
 11
133.84241463317659
 21
217.70104371282531
 31
0.0
  0
LINE
  5
116
  8
基準線
 10
173.34241463317659
 20
178.20104371282531
 30
0.0
 11
173.34241463317659
 21
173.20104371282531
 31
0.0
  0
CIRCLE
  5
117
  8
図形
 10
173.3424146331767
 20
175.70104371282531
 30
0.0
 40
1.1999999999999991
  0
LINE
  5
118
  8
基準線
 10
170.84241463317659
 20
175.70104371282531
 30
0.0
 11
175.84241463317659
 21
175.70104371282531
 31
0.0
  0
CIRCLE
  5
119
  8
図形
 10
173.3424146331767
 20
175.70104371282531
 30
0.0
 40
1.5
  0
LINE
  5
11A
  8
図形
 10
231.60356463317669
 20
99.973938712825429
 30
0.0
 11
221.60356463317669
 21
99.973938712825429
 31
0.0
  0
LINE
  5
11B
  8
図形
 10
231.60356463317669
 20
98.973938712825429
 30
0.0
 11
221.60356463317669
 21
98.973938712825429
 31
0.0
  0
LINE
  5
11C
  8
図形
 10
216.9035946331766
 20
91.973938712825415
 30
0.0
 11
227.1035646331768
 21
91.973938712825415
 31
0.0
  0
LINE
  5
11D
  8
図形
 10
216.9035946331766
 20
96.973938712825415
 30
0.0
 11
227.1035646331768
 21
96.973938712825344
 31
0.0
  0
LINE
  5
11E
  8
図形
 10
216.9035946331766
 20
96.973938712825415
 30
0.0
 11
216.9035946331766
 21
91.973938712825415
 31
0.0
  0
LINE
  5
11F
  8
図形
 10
221.60356463317669
 20
99.973938712825429
 30
0.0
 11
221.60356463317669
 21
98.973938712825429
 31
0.0
  0
LINE
  5
120
  8
図形
 10
225.60356463317669
 20
98.973938712825429
 30
0.0
 11
225.60356463317669
 21
96.973938712825344
 31
0.0
  0
LINE
  5
121
  8
図形
 10
232.1035646331768
 20
96.473938712825387
 30
0.0
 11
235.1035646331768
 21
96.473938712825387
 31
0.0
  0
LINE
  5
122
  8
図形
 10
227.1035646331768
 20
97.973938712825372
 30
0.0
 11
235.1035646331768
 21
97.973938712825344
 31
0.0
  0
LINE
  5
123
  8
図形
 10
232.1035646331766
 20
92.473938712825344
 30
0.0
 11
235.1035646331768
 21
92.473938712825387
 31
0.0
  0
LINE
  5
124
  8
図形
 10
227.1035646331768
 20
90.973938712825429
 30
0.0
 11
235.1035646331766
 21
90.973938712825429
 31
0.0
  0
LINE
  5
125
  8
図形
 10
227.1035646331768
 20
97.973938712825372
 30
0.0
 11
227.1035646331768
 21
90.973938712825429
 31
0.0
  0
LINE
  5
126
  8
図形
 10
232.1035646331768
 20
96.473938712825387
 30
0.0
 11
232.1035646331768
 21
92.473938712825344
 31
0.0
  0
LINE
  5
127
  8
図形
 10
226.6035646331768
 20
98.973938712825429
 30
0.0
 11
226.6035646331768
 21
96.973938712825344
 31
0.0
  0
LINE
  5
128
  8
図形
 10
231.60356463317669
 20
98.973938712825429
 30
0.0
 11
231.60356463317669
 21
99.973938712825429
 31
0.0
  0
LINE
  5
129
  8
図形
 10
235.1035646331768
 20
92.473938712825387
 30
0.0
 11
235.1035646331766
 21
90.973938712825429
 31
0.0
  0
LINE
  5
12A
  8
図形
 10
235.1035646331768
 20
97.973938712825344
 30
0.0
 11
235.1035646331768
 21
96.473938712825387
 31
0.0
  0
LINE
  5
12B
  8
図形
 10
221.4500515177487
 20
126.28306044990239
 30
0.0
 11
218.62163146407039
 21
123.45464039622399
 31
0.0
  0
LINE
  5
12C
  8
図形
 10
224.98558542368161
 20
125.5759395265802
 30
0.0
 11
219.32875238739251
 21
119.9191064902913
 31
0.0
  0
ARC
  5
12D
  8
図形
 10
215.08611877134101
 20
125.57596781085159
 30
0.0
 40
1.0
 50
135.0
 51
225.0
  0
LINE
  5
12E
  8
図形
 10
223.57137893237629
 20
124.16173303527481
 30
0.0
 11
214.3789766348153
 21
133.35413533283571
 31
0.0
  0
LINE
  5
12F
  8
図形
 10
219.1873168890196
 20
124.0203258211732
 30
0.0
 11
212.82338414261179
 21
130.3842585675809
 31
0.0
  0
LINE
  5
130
  8
図形
 10
219.75300231396869
 20
124.5860112461224
 30
0.0
 11
213.38906956756111
 21
130.94994399253011
 31
0.0
  0
LINE
  5
131
  8
図形
 10
220.74295887869789
 20
121.33331298159651
 30
0.0
 11
211.5505565811371
 21
130.52571527915731
 31
0.0
  0
LINE
  5
132
  8
図形
  6
CONTINUOUS
 10
214.37900491908681
 20
124.868853958597
 30
0.0
 11
219.32875238739251
 21
119.9191064902913
 31
0.0
  0
LINE
  5
133
  8
図形
 10
222.86427215118971
 20
124.8688398164614
 30
0.0
 11
220.03585209751131
 21
122.0404197627831
 31
0.0
  0
LINE
  5
134
  8
図形
 10
211.23238681387431
 20
137.56138532555661
 30
0.0
 11
218.44486891090929
 21
130.34890322852161
 31
0.0
  0
LINE
  5
135
  8
図形
 10
220.3186806678502
 20
125.15168960000381
 30
0.0
 11
213.95474792144259
 21
131.51562234641159
 31
0.0
  0
LINE
  5
136
  8
図形
 10
220.88436609279941
 20
125.7173750249531
 30
0.0
 11
214.52043334639171
 21
132.0813077713608
 31
0.0
  0
LINE
  5
137
  8
図形
 10
218.44486891090929
 20
130.34890322852161
 30
0.0
 11
217.91453882501929
 21
129.81857314263161
 31
0.0
  0
LINE
  5
138
  8
図形
 10
212.25769871766261
 20
129.81857314263161
 30
0.0
 11
215.08611877134109
 21
132.64699319631001
 31
0.0
  0
LINE
  5
139
  8
図形
 10
211.5505565811371
 20
130.52571527915731
 30
0.0
 11
214.3789766348153
 21
133.35413533283571
 31
0.0
  0
LINE
  5
13A
  8
図形
 10
214.55578868545109
 20
126.45982300306341
 30
0.0
 11
215.08611877134101
 21
126.99015308895341
 31
0.0
  0
LINE
  5
13B
  8
図形
 10
214.37902613229011
 20
126.28306044990239
 30
0.0
 11
214.55578868545109
 21
126.45982300306341
 31
0.0
  0
ARC
  5
13C
  8
図形
 10
219.32872410312109
 20
129.81857314263181
 30
0.0
 40
1.0
 50
45.000000000001123
 51
135.0
  0
LINE
  5
13D
  8
図形
 10
220.0358379553756
 20
130.52568699488589
 30
0.0
 11
224.98558542368161
 21
125.5759395265802
 31
0.0
  0
LINE
  5
13E
  8
図形
 10
218.62163146407019
 20
130.52566578168259
 30
0.0
 11
218.44486891090921
 21
130.34890322852161
 31
0.0
  0
LINE
  5
13F
  8
図形
 10
218.62163146407039
 20
130.5256657816827
 30
0.0
 11
218.44486891090929
 21
130.34890322852161
 31
0.0
  0
ENDSEC
  0
EOF
