  0
SECTION
  2
HEADER
  9
$ACADVER
  1
AC1009
  9
$INSBASE
 10
0.0
 20
0.0
 30
0.0
  9
$EXTMIN
 10
361.79931570338277
 20
106.7384599024394
 30
0.0
  9
$EXTMAX
 10
643.15209552584099
 20
349.16114315075572
 30
0.0
  9
$LIMMIN
 10
0.0
 20
0.0
  9
$LIMMAX
 10
420.0
 20
297.0
  9
$ORTHOMODE
 70
     0
  9
$REGENMODE
 70
     1
  9
$FILLMODE
 70
     1
  9
$QTEXTMODE
 70
     0
  9
$MIRRTEXT
 70
     1
  9
$DRAGMODE
 70
     2
  9
$LTSCALE
 40
1.0
  9
$OSMODE
 70
    39
  9
$ATTMODE
 70
     1
  9
$TEXTSIZE
 40
2.5
  9
$TRACEWID
 40
1.0
  9
$TEXTSTYLE
  7
STANDARD
  9
$CLAYER
  8
0
  9
$CELTYPE
  6
BYLAYER
  9
$CECOLOR
 62
   256
  9
$DIMSCALE
 40
1.0
  9
$DIMASZ
 40
2.5
  9
$DIMEXO
 40
0.625
  9
$DIMDLI
 40
3.75
  9
$DIMRND
 40
0.0
  9
$DIMDLE
 40
0.0
  9
$DIMEXE
 40
1.25
  9
$DIMTP
 40
0.0
  9
$DIMTM
 40
0.0
  9
$DIMTXT
 40
2.5
  9
$DIMCEN
 40
2.5
  9
$DIMTSZ
 40
0.0
  9
$DIMTOL
 70
     0
  9
$DIMLIM
 70
     0
  9
$DIMTIH
 70
     0
  9
$DIMTOH
 70
     0
  9
$DIMSE1
 70
     0
  9
$DIMSE2
 70
     0
  9
$DIMTAD
 70
     1
  9
$DIMZIN
 70
     8
  9
$DIMBLK
  1

  9
$DIMASO
 70
     1
  9
$DIMSHO
 70
     1
  9
$DIMPOST
  1

  9
$DIMAPOST
  1

  9
$DIMALT
 70
     0
  9
$DIMALTD
 70
     3
  9
$DIMALTF
 40
0.03937007874016
  9
$DIMLFAC
 40
1.0
  9
$DIMTOFL
 70
     1
  9
$DIMTVP
 40
0.0
  9
$DIMTIX
 70
     0
  9
$DIMSOXD
 70
     0
  9
$DIMSAH
 70
     0
  9
$DIMBLK1
  1

  9
$DIMBLK2
  1

  9
$DIMSTYLE
  2
ISO-25
  9
$DIMCLRD
 70
     0
  9
$DIMCLRE
 70
     0
  9
$DIMCLRT
 70
     0
  9
$DIMTFAC
 40
1.0
  9
$DIMGAP
 40
0.625
  9
$LUNITS
 70
     2
  9
$LUPREC
 70
     4
  9
$SKETCHINC
 40
1.0
  9
$FILLETRAD
 40
10.0
  9
$AUNITS
 70
     0
  9
$AUPREC
 70
     0
  9
$MENU
  1
.
  9
$ELEVATION
 40
0.0
  9
$PELEVATION
 40
0.0
  9
$THICKNESS
 40
0.0
  9
$LIMCHECK
 70
     0
  9
$BLIPMODE
 70
     0
  9
$CHAMFERA
 40
10.0
  9
$CHAMFERB
 40
10.0
  9
$SKPOLY
 70
     0
  9
$TDCREATE
 40
2454873.669344224
  9
$TDUPDATE
 40
2455383.6500985068
  9
$TDINDWG
 40
0.3862636921
  9
$TDUSRTIMER
 40
0.3862636921
  9
$USRTIMER
 70
     1
  9
$ANGBASE
 50
0.0
  9
$ANGDIR
 70
     0
  9
$PDMODE
 70
     0
  9
$PDSIZE
 40
0.0
  9
$PLINEWID
 40
0.0
  9
$COORDS
 70
     2
  9
$SPLFRAME
 70
     0
  9
$SPLINETYPE
 70
     6
  9
$SPLINESEGS
 70
     8
  9
$ATTDIA
 70
     0
  9
$ATTREQ
 70
     1
  9
$HANDLING
 70
 22529
  9
$HANDSEED
  5
17E
  9
$SURFTAB1
 70
     6
  9
$SURFTAB2
 70
     6
  9
$SURFTYPE
 70
     6
  9
$SURFU
 70
     6
  9
$SURFV
 70
     6
  9
$UCSNAME
  2

  9
$UCSORG
 10
0.0
 20
0.0
 30
0.0
  9
$UCSXDIR
 10
1.0
 20
0.0
 30
0.0
  9
$UCSYDIR
 10
0.0
 20
1.0
 30
0.0
  9
$PUCSNAME
  2

  9
$PUCSORG
 10
0.0
 20
0.0
 30
0.0
  9
$PUCSXDIR
 10
1.0
 20
0.0
 30
0.0
  9
$PUCSYDIR
 10
0.0
 20
1.0
 30
0.0
  9
$USERI1
 70
     0
  9
$USERI2
 70
     0
  9
$USERI3
 70
     0
  9
$USERI4
 70
     0
  9
$USERI5
 70
     0
  9
$USERR1
 40
0.0
  9
$USERR2
 40
0.0
  9
$USERR3
 40
0.0
  9
$USERR4
 40
0.0
  9
$USERR5
 40
0.0
  9
$WORLDVIEW
 70
     1
  9
$SHADEDGE
 70
     3
  9
$SHADEDIF
 70
    70
  9
$TILEMODE
 70
     1
  9
$MAXACTVP
 70
    64
  9
$PLIMCHECK
 70
     0
  9
$PEXTMIN
 10
1.144338676220513
 20
2.391762241006858
 30
-0.0015258207003583
  9
$PEXTMAX
 10
288.44975390501378
 20
201.0559707003888
 30
0.0000000349246037
  9
$PLIMMIN
 10
-3.17498779296875
 20
-3.1749999523162842
  9
$PLIMMAX
 10
293.85684204101562
 20
206.7348358631134
  9
$UNITMODE
 70
     0
  9
$VISRETAIN
 70
     1
  9
$PLINEGEN
 70
     0
  9
$PSLTSCALE
 70
     1
  0
ENDSEC
  0
SECTION
  2
TABLES
  0
TABLE
  2
VPORT
 70
     1
  0
VPORT
  2
*ACTIVE
 70
     0
 10
0.0
 20
0.0
 11
1.0
 21
1.0
 12
451.22432213746578
 22
230.4930059473827
 13
0.0
 23
0.0
 14
10.0
 24
10.0
 15
10.0
 25
10.0
 16
0.0
 26
0.0
 36
1.0
 17
0.0
 27
0.0
 37
0.0
 40
261.25187204782083
 41
1.710651828298887
 42
50.0
 43
0.0
 44
0.0
 50
0.0
 51
0.0
 71
     0
 72
   100
 73
     1
 74
     3
 75
     0
 76
     0
 77
     0
 78
     0
  0
ENDTAB
  0
TABLE
  2
LTYPE
 70
     2
  0
LTYPE
  2
CONTINUOUS
 70
     0
  3
Solid line
 72
    65
 73
     0
 40
0.0
  0
LTYPE
  2
CENTER
 70
     0
  3
Center ____ _ ____ _ ____ _ ____ _ ____ _ ____
 72
    65
 73
     4
 40
50.799999999999997
 49
31.75
 49
-6.3499999999999988
 49
6.3499999999999988
 49
-6.3499999999999988
  0
ENDTAB
  0
TABLE
  2
LAYER
 70
     5
  0
LAYER
  2
0
 70
     0
 62
     7
  6
CONTINUOUS
  0
LAYER
  2
基準線
 70
     0
 62
     1
  6
CENTER
  0
LAYER
  2
図形
 70
     0
 62
     7
  6
CONTINUOUS
  0
LAYER
  2
寸法
 70
     0
 62
     5
  6
CONTINUOUS
  0
LAYER
  2
DEFPOINTS
 70
     0
 62
     7
  6
CONTINUOUS
  0
ENDTAB
  0
TABLE
  2
STYLE
 70
     5
  0
STYLE
  2
STANDARD
 70
     0
 40
0.0
 41
1.0
 50
0.0
 71
     0
 42
2.5
  3
txt
  4

  0
STYLE
  2
NISSIN5
 70
     0
 40
5.0
 41
1.0
 50
0.0
 71
     0
 42
3.5
  3
txt
  4

  0
STYLE
  2
NISSIN3_5
 70
     0
 40
3.5
 41
1.0
 50
0.0
 71
     0
 42
3.5
  3
txt
  4

  0
STYLE
  2
NISSIN3
 70
     0
 40
3.0
 41
1.0
 50
0.0
 71
     0
 42
4.0
  3
txt
  4

  0
STYLE
  2
NISSIN2
 70
     0
 40
2.0
 41
1.0
 50
0.0
 71
     0
 42
4.0
  3
txt
  4

  0
ENDTAB
  0
TABLE
  2
VIEW
 70
     0
  0
ENDTAB
  0
TABLE
  2
UCS
 70
     0
  0
ENDTAB
  0
TABLE
  2
APPID
 70
     1
  0
APPID
  2
ACAD
 70
     0
  0
ENDTAB
  0
TABLE
  2
DIMSTYLE
 70
     3
  0
DIMSTYLE
  2
ISO-25
 70
     0
  3

  4

  5

  6

  7

 40
1.0
 41
2.5
 42
0.625
 43
3.75
 44
1.25
 45
0.0
 46
0.0
 47
0.0
 48
0.0
140
2.5
141
2.5
142
0.0
143
0.03937007874016
144
1.0
145
0.0
146
1.0
147
0.625
 71
     0
 72
     0
 73
     0
 74
     0
 75
     0
 76
     0
 77
     1
 78
     8
170
     0
171
     3
172
     1
173
     0
174
     0
175
     0
176
     0
177
     0
178
     0
  0
DIMSTYLE
  2
NISSINSTYLE
 70
     0
  3

  4

  5

  6

  7

 40
1.0
 41
3.0
 42
2.0
 43
3.75
 44
3.0
 45
0.0
 46
0.0
 47
0.0
 48
0.0
140
3.5
141
3.0
142
0.0
143
0.03937007874016
144
1.0
145
0.0
146
1.0
147
0.625
 71
     0
 72
     0
 73
     0
 74
     0
 75
     0
 76
     0
 77
     1
 78
     8
170
     0
171
     3
172
     1
173
     0
174
     0
175
     0
176
     0
177
     0
178
     0
  0
DIMSTYLE
  2
JIS
 70
     0
  3

  4

  5

  6

  7

 40
1.0
 41
2.5
 42
1.0
 43
7.0
 44
1.0
 45
0.0
 46
0.0
 47
0.0
 48
0.0
140
2.5
141
0.0
142
0.0
143
0.0394
144
1.0
145
0.0
146
1.0
147
0.0
 71
     0
 72
     0
 73
     0
 74
     0
 75
     0
 76
     0
 77
     1
 78
     8
170
     0
171
     2
172
     1
173
     0
174
     1
175
     1
176
     0
177
     0
178
     0
  0
ENDTAB
  0
ENDSEC
  0
SECTION
  2
BLOCKS
  0
BLOCK
  8
0
  2
$MODEL_SPACE
 70
     0
 10
0.0
 20
0.0
 30
0.0
  3
$MODEL_SPACE
  1

  0
ENDBLK
  5
9
  8
0
  0
BLOCK
 67
     1
  8
0
  2
$PAPER_SPACE
 70
     0
 10
0.0
 20
0.0
 30
0.0
  3
$PAPER_SPACE
  1

  0
ENDBLK
  5
E
 67
     1
  8
0
  0
BLOCK
  8
0
  2
*D0
 70
     1
 10
0.0
 20
0.0
 30
0.0
  3
*D0
  1

  0
LINE
  5
4B
  8
寸法
 62
     0
 10
496.33125863466643
 20
176.16114315075561
 30
0.0
 11
496.33125863466643
 21
207.09352493528681
 31
0.0
  0
LINE
  5
4C
  8
寸法
 62
     0
 10
376.33125863466643
 20
176.16114315075569
 30
0.0
 11
376.33125863466643
 21
207.09352493528681
 31
0.0
  0
LINE
  5
4D
  8
寸法
 62
     0
 10
493.33125863466648
 20
204.09352493528681
 30
0.0
 11
379.33125863466643
 21
204.09352493528681
 31
0.0
  0
SOLID
  5
4E
  8
寸法
 62
     0
 10
493.33125863466648
 20
204.59352493528681
 30
0.0
 11
493.33125863466648
 21
203.59352493528681
 31
0.0
 12
496.33125863466643
 22
204.09352493528681
 32
0.0
 13
496.33125863466643
 23
204.09352493528681
 33
0.0
  0
SOLID
  5
4F
  8
寸法
 62
     0
 10
379.33125863466643
 20
204.59352493528681
 30
0.0
 11
379.33125863466643
 21
203.59352493528681
 31
0.0
 12
376.33125863466643
 22
204.09352493528681
 32
0.0
 13
376.33125863466643
 23
204.09352493528681
 33
0.0
  0
INSERT
  5
50
  8
0
  2
*U7
 10
0.0
 20
0.0
 30
0.0
  0
POINT
  5
51
  8
DEFPOINTS
 62
     0
 10
496.33125863466643
 20
174.16114315075561
 30
0.0
  0
POINT
  5
52
  8
DEFPOINTS
 62
     0
 10
376.33125863466643
 20
174.16114315075569
 30
0.0
  0
POINT
  5
53
  8
DEFPOINTS
 62
     0
 10
376.33125863466643
 20
204.09352493528681
 30
0.0
  0
ENDBLK
  5
55
  8
0
  0
BLOCK
  8
0
  2
*D1
 70
     1
 10
0.0
 20
0.0
 30
0.0
  3
*D1
  1

  0
LINE
  5
3C
  8
寸法
 62
     0
 10
386.33125863466648
 20
176.16114315075569
 30
0.0
 11
386.33125863466648
 21
197.09535445671071
 31
0.0
  0
LINE
  5
3D
  8
寸法
 62
     0
 10
486.33125863466648
 20
176.16114315075561
 30
0.0
 11
486.33125863466648
 21
197.09535445671071
 31
0.0
  0
LINE
  5
3E
  8
寸法
 62
     0
 10
389.33125863466643
 20
194.09535445671071
 30
0.0
 11
483.33125863466643
 21
194.09535445671071
 31
0.0
  0
SOLID
  5
3F
  8
寸法
 62
     0
 10
389.33125863466643
 20
194.59535445671071
 30
0.0
 11
389.33125863466643
 21
193.59535445671071
 31
0.0
 12
386.33125863466648
 22
194.09535445671071
 32
0.0
 13
386.33125863466648
 23
194.09535445671071
 33
0.0
  0
SOLID
  5
40
  8
寸法
 62
     0
 10
483.33125863466643
 20
194.59535445671071
 30
0.0
 11
483.33125863466643
 21
193.59535445671071
 31
0.0
 12
486.33125863466648
 22
194.09535445671071
 32
0.0
 13
486.33125863466648
 23
194.09535445671071
 33
0.0
  0
INSERT
  5
41
  8
0
  2
*U6
 10
0.0
 20
0.0
 30
0.0
  0
POINT
  5
42
  8
DEFPOINTS
 62
     0
 10
386.33125863466648
 20
174.16114315075569
 30
0.0
  0
POINT
  5
43
  8
DEFPOINTS
 62
     0
 10
486.33125863466648
 20
174.16114315075561
 30
0.0
  0
POINT
  5
44
  8
DEFPOINTS
 62
     0
 10
486.33125863466648
 20
194.09535445671071
 30
0.0
  0
ENDBLK
  5
46
  8
0
  0
BLOCK
  8
0
  2
*D2
 70
     1
 10
0.0
 20
0.0
 30
0.0
  3
*D2
  1

  0
LINE
  5
2E
  8
寸法
 62
     0
 10
392.33125863466648
 20
176.16114315075569
 30
0.0
 11
392.33125863466648
 21
187.15758389456701
 31
0.0
  0
LINE
  5
2F
  8
寸法
 62
     0
 10
480.33125863466643
 20
176.16114315075561
 30
0.0
 11
480.33125863466643
 21
187.15758389456701
 31
0.0
  0
LINE
  5
30
  8
寸法
 62
     0
 10
395.33125863466643
 20
184.15758389456701
 30
0.0
 11
477.33125863466648
 21
184.15758389456701
 31
0.0
  0
SOLID
  5
31
  8
寸法
 62
     0
 10
395.33125863466643
 20
184.65758389456701
 30
0.0
 11
395.33125863466643
 21
183.6575838945671
 31
0.0
 12
392.33125863466648
 22
184.15758389456701
 32
0.0
 13
392.33125863466648
 23
184.15758389456701
 33
0.0
  0
SOLID
  5
32
  8
寸法
 62
     0
 10
477.33125863466648
 20
184.65758389456701
 30
0.0
 11
477.33125863466648
 21
183.6575838945671
 31
0.0
 12
480.33125863466643
 22
184.15758389456701
 32
0.0
 13
480.33125863466643
 23
184.15758389456701
 33
0.0
  0
INSERT
  5
33
  8
0
  2
*U5
 10
0.0
 20
0.0
 30
0.0
  0
POINT
  5
34
  8
DEFPOINTS
 62
     0
 10
392.33125863466648
 20
174.16114315075569
 30
0.0
  0
POINT
  5
36
  8
DEFPOINTS
 62
     0
 10
480.33125863466643
 20
174.16114315075561
 30
0.0
  0
POINT
  5
37
  8
DEFPOINTS
 62
     0
 10
480.33125863466643
 20
184.15758389456701
 30
0.0
  0
ENDBLK
  5
39
  8
0
  0
BLOCK
  8
0
  2
*D3
 70
     1
 10
0.0
 20
0.0
 30
0.0
  3
*D3
  1

  0
LINE
  5
73
  8
寸法
 62
     0
 10
374.44561139452111
 20
174.16114315075569
 30
0.0
 11
363.33294514500727
 21
174.16114315075569
 31
0.0
  0
LINE
  5
74
  8
寸法
 62
     0
 10
374.33125863466643
 20
153.16114315075569
 30
0.0
 11
363.33294514500727
 21
153.16114315075569
 31
0.0
  0
LINE
  5
75
  8
寸法
 62
     0
 10
366.33294514500727
 20
171.16114315075569
 30
0.0
 11
366.33294514500727
 21
156.16114315075569
 31
0.0
  0
SOLID
  5
76
  8
寸法
 62
     0
 10
365.83294514500727
 20
171.16114315075569
 30
0.0
 11
366.83294514500727
 21
171.16114315075569
 31
0.0
 12
366.33294514500727
 22
174.16114315075569
 32
0.0
 13
366.33294514500727
 23
174.16114315075569
 33
0.0
  0
SOLID
  5
77
  8
寸法
 62
     0
 10
365.83294514500727
 20
156.16114315075569
 30
0.0
 11
366.83294514500727
 21
156.16114315075569
 31
0.0
 12
366.33294514500727
 22
153.16114315075569
 32
0.0
 13
366.33294514500727
 23
153.16114315075569
 33
0.0
  0
TEXT
  5
78
  8
0
 62
     0
 10
365.70794514500722
 20
161.57780981742241
 30
0.0
 40
3.5
  1
21
 50
90.0
  7
NISSIN3_5
  0
POINT
  5
79
  8
DEFPOINTS
 62
     0
 10
376.44561139452111
 20
174.16114315075569
 30
0.0
  0
POINT
  5
7A
  8
DEFPOINTS
 62
     0
 10
376.33125863466643
 20
153.16114315075569
 30
0.0
  0
POINT
  5
7B
  8
DEFPOINTS
 62
     0
 10
366.33294514500727
 20
153.16114315075569
 30
0.0
  0
ENDBLK
  5
7D
  8
0
  0
BLOCK
  8
0
  2
*D4
 70
     1
 10
0.0
 20
0.0
 30
0.0
  3
*D4
  1

  0
LINE
  5
63
  8
寸法
 62
     0
 10
483.53703000060619
 20
169.6431939583245
 30
0.0
 11
481.74874587501449
 21
172.74059292221821
 31
0.0
  0
ARC
  5
64
  8
寸法
 62
     0
 10
493.0529464711534
 20
153.16114315075561
 30
0.0
 40
19.60840119227765
 50
128.77457702626239
 51
171.22542297373801
  0
SOLID
  5
65
  8
寸法
 62
     0
 10
480.49063744890668
 20
168.86078432466539
 30
0.0
 11
481.05542138097729
 21
168.03554550464111
 31
0.0
 12
483.24874587501438
 22
170.14251671086501
 32
0.0
 13
483.24874587501438
 23
170.14251671086501
 33
0.0
  0
SOLID
  5
66
  8
寸法
 62
     0
 10
474.17257362148928
 20
156.11410348444639
 30
0.0
 11
473.17550387312389
 21
156.19060130725671
 31
0.0
 12
473.44454527887581
 22
153.16114315075561
 32
0.0
 13
473.44454527887581
 23
153.16114315075561
 33
0.0
  0
TEXT
  5
67
  8
0
 62
     0
 10
473.20173560510722
 20
159.24463972355539
 30
0.0
 40
3.0
  1
60°
 50
60.000000000000341
  7
NISSIN3
  0
POINT
  5
68
  8
DEFPOINTS
 62
     0
 10
478.03203969936152
 20
165.76518048291439
 30
0.0
  0
POINT
  5
69
  8
DEFPOINTS
 62
     0
 10
484.53703000060631
 20
167.91114315075561
 30
0.0
  0
POINT
  5
6A
  8
DEFPOINTS
 62
     0
 10
384.33125863466643
 20
153.16114315075561
 30
0.0
  0
POINT
  5
6B
  8
DEFPOINTS
 62
     0
 10
488.33125863466643
 20
153.16114315075561
 30
0.0
  0
POINT
  5
6C
  8
DEFPOINTS
 62
     0
 10
491.89824593277422
 20
155.16114315075561
 30
0.0
  0
ENDBLK
  5
6E
  8
0
  0
BLOCK
  8
0
  2
*U5
 70
     1
 10
0.0
 20
0.0
 30
0.0
  3
*U5
  1

  0
TEXT
  5
141
  8
0
 62
     0
 10
431.91459196799968
 20
184.78258389456701
 30
0.0
 40
3.5
  1
\U+2205
  7
NISSIN3_5
  0
TEXT
  5
142
  8
0
 62
     0
 10
435.08125863466643
 20
184.78258389456701
 30
0.0
 40
3.5
  1
88
  7
NISSIN3_5
  0
ENDBLK
  5
144
  8
0
  0
BLOCK
  8
0
  2
*U6
 70
     1
 10
0.0
 20
0.0
 30
0.0
  3
*U6
  1

  0
TEXT
  5
146
  8
0
 62
     0
 10
430.58125863466643
 20
194.72035445671071
 30
0.0
 40
3.5
  1
\U+2205
  7
NISSIN3_5
  0
TEXT
  5
147
  8
0
 62
     0
 10
433.74792530133323
 20
194.72035445671071
 30
0.0
 40
3.5
  1
100
  7
NISSIN3_5
  0
ENDBLK
  5
149
  8
0
  0
BLOCK
  8
0
  2
*U7
 70
     1
 10
0.0
 20
0.0
 30
0.0
  3
*U7
  1

  0
TEXT
  5
14B
  8
0
 62
     0
 10
430.58125863466643
 20
204.71852493528681
 30
0.0
 40
3.5
  1
\U+2205
  7
NISSIN3_5
  0
TEXT
  5
14C
  8
0
 62
     0
 10
433.74792530133323
 20
204.71852493528681
 30
0.0
 40
3.5
  1
120
  7
NISSIN3_5
  0
ENDBLK
  5
14E
  8
0
  0
BLOCK
  8
0
  2
*U8
 70
     1
 10
0.0
 20
0.0
 30
0.0
  3
*U8
  1

  0
TEXT
  5
150
  8
0
 10
493.81569262542928
 20
115.2361635524273
 30
0.0
 40
5.0
  1
MODEL []DR-LA120N
  7
NISSIN2
  0
TEXT
  5
151
  8
0
 10
493.81569262542928
 20
106.902830219094
 30
0.0
 40
5.0
  1
NISSIN ELECTRONIC CO.,LTD.
  7
NISSIN2
  0
ENDBLK
  5
153
  8
0
  0
BLOCK
  8
0
  2
*D9
 70
     1
 10
0.0
 20
0.0
 30
0.0
  3
*D9
  1

  0
LINE
  5
155
  8
寸法
 62
     0
 10
483.53703000060619
 20
169.6431939583245
 30
0.0
 11
481.74874587501449
 21
172.74059292221821
 31
0.0
  0
ARC
  5
156
  8
寸法
 62
     0
 10
493.0529464711534
 20
153.16114315075561
 30
0.0
 40
19.60840119227765
 50
128.77457702626239
 51
171.22542297373801
  0
SOLID
  5
157
  8
寸法
 62
     0
 10
480.49063744890668
 20
168.86078432466539
 30
0.0
 11
481.05542138097729
 21
168.03554550464111
 31
0.0
 12
483.24874587501438
 22
170.14251671086501
 32
0.0
 13
483.24874587501438
 23
170.14251671086501
 33
0.0
  0
SOLID
  5
158
  8
寸法
 62
     0
 10
474.17257362148928
 20
156.11410348444639
 30
0.0
 11
473.17550387312389
 21
156.19060130725671
 31
0.0
 12
473.44454527887581
 22
153.16114315075561
 32
0.0
 13
473.44454527887581
 23
153.16114315075561
 33
0.0
  0
TEXT
  8
0
  40
3
  5
17D
  62
0
  72
0
  71
0
 10
474.231
 20
160.128
 30
0.000000
  1
60°
  7
NISSIN3
  0
POINT
  5
15A
  8
DEFPOINTS
 62
     0
 10
478.03203969936152
 20
165.76518048291439
 30
0.0
  0
POINT
  5
15B
  8
DEFPOINTS
 62
     0
 10
484.53703000060631
 20
167.91114315075561
 30
0.0
  0
POINT
  5
15C
  8
DEFPOINTS
 62
     0
 10
384.33125863466643
 20
153.16114315075561
 30
0.0
  0
POINT
  5
15D
  8
DEFPOINTS
 62
     0
 10
488.33125863466643
 20
153.16114315075561
 30
0.0
  0
POINT
  5
15E
  8
DEFPOINTS
 62
     0
 10
491.89824593277422
 20
155.16114315075561
 30
0.0
  0
ENDBLK
  5
160
  8
0
  0
BLOCK
  8
0
  2
*X10
 70
     1
 10
0.0
 20
0.0
 30
0.0
  3
*X10
  1

  0
LINE
  5
162
  8
0
 62
     0
 10
382.15767423801913
 20
153.16114315075569
 30
0.0
 11
384.15767423801913
 21
155.16114315075569
 31
0.0
  0
LINE
  5
163
  8
0
 62
     0
 10
391.6675461774845
 20
167.16114315075561
 30
0.0
 11
392.33125863466648
 21
167.82485560793759
 31
0.0
  0
LINE
  5
164
  8
0
 62
     0
 10
377.6675461774845
 20
153.16114315075569
 30
0.0
 11
380.33125863466643
 21
155.82485560793751
 31
0.0
  0
LINE
  5
165
  8
0
 62
     0
 10
388.17741811694992
 20
168.16114315075561
 30
0.0
 11
391.33125863466648
 21
171.31498366847219
 31
0.0
  0
LINE
  5
166
  8
0
 62
     0
 10
392.17741811694992
 20
172.16114315075561
 30
0.0
 11
392.33125863466648
 21
172.31498366847219
 31
0.0
  0
LINE
  5
167
  8
0
 62
     0
 10
376.33125863466643
 20
156.31498366847211
 30
0.0
 11
378.33125863466648
 21
158.31498366847211
 31
0.0
  0
LINE
  5
168
  8
0
 62
     0
 10
383.68729005641541
 20
168.16114315075569
 30
0.0
 11
384.83125863466648
 21
169.30511172900671
 31
0.0
  0
LINE
  5
169
  8
0
 62
     0
 10
387.83125863466643
 20
172.30511172900671
 30
0.0
 11
389.68729005641541
 21
174.16114315075569
 31
0.0
  0
LINE
  5
16A
  8
0
 62
     0
 10
376.33125863466643
 20
160.80511172900671
 30
0.0
 11
378.33125863466643
 21
162.80511172900671
 31
0.0
  0
LINE
  5
16B
  8
0
 62
     0
 10
376.33125863466631
 20
165.2952397895412
 30
0.0
 11
384.83125863466648
 21
173.79523978954131
 31
0.0
  0
LINE
  5
16C
  8
0
 62
     0
 10
376.33125863466643
 20
169.7853678500758
 30
0.0
 11
380.7070339353462
 21
174.16114315075569
 31
0.0
  0
ENDBLK
  5
16E
  8
0
  0
BLOCK
  8
0
  2
*X11
 70
     1
 10
0.0
 20
0.0
 30
0.0
  3
*X11
  1

  0
LINE
  5
170
  8
0
 62
     0
 10
494.41087575138351
 20
153.16114315075561
 30
0.0
 11
496.33125863466643
 21
155.08152603403849
 31
0.0
  0
LINE
  5
171
  8
0
 62
     0
 10
492.33125863466643
 20
155.57165409457309
 30
0.0
 11
493.920747690849
 21
157.16114315075561
 31
0.0
  0
LINE
  5
172
  8
0
 62
     0
 10
494.33125863466648
 20
157.57165409457309
 30
0.0
 11
496.33125863466643
 21
159.57165409457309
 31
0.0
  0
LINE
  5
173
  8
0
 62
     0
 10
489.920747690849
 20
153.16114315075561
 30
0.0
 11
491.92074769084888
 21
155.16114315075561
 31
0.0
  0
LINE
  5
174
  8
0
 62
     0
 10
494.33125863466648
 20
162.06178215510769
 30
0.0
 11
496.33125863466631
 21
164.06178215510769
 31
0.0
  0
LINE
  5
175
  8
0
 62
     0
 10
494.33125863466648
 20
166.55191021564229
 30
0.0
 11
496.33125863466631
 21
168.55191021564221
 31
0.0
  0
LINE
  5
176
  8
0
 62
     0
 10
490.45036350924522
 20
167.16114315075561
 30
0.0
 11
496.33125863466631
 21
173.04203827617681
 31
0.0
  0
LINE
  5
177
  8
0
 62
     0
 10
487.83125863466631
 20
169.03216633671141
 30
0.0
 11
492.96023544871059
 21
174.16114315075569
 31
0.0
  0
LINE
  5
178
  8
0
 62
     0
 10
487.83125863466631
 20
173.52229439724599
 30
0.0
 11
488.47010738817602
 21
174.16114315075561
 31
0.0
  0
LINE
  5
179
  8
0
 62
     0
 10
481.47010738817602
 20
167.16114315075561
 30
0.0
 11
484.83125863466631
 21
170.52229439724599
 31
0.0
  0
LINE
  5
17A
  8
0
 62
     0
 10
481.33125863466643
 20
171.51242245778059
 30
0.0
 11
483.97997932764139
 21
174.16114315075561
 31
0.0
  0
ENDBLK
  5
17C
  8
0
  0
ENDSEC
  0
SECTION
  2
ENTITIES
  0
LINE
  5
27
  8
図形
 10
510.08322863466651
 20
181.93872823500021
 30
0.0
 11
510.08322863466651
 21
172.75703315075569
 31
0.0
  0
LINE
  5
29
  8
図形
 10
513.67578863466701
 20
182.33873806651101
 30
0.0
 11
513.67578863466701
 21
173.16114315075561
 31
0.0
  0
DIMENSION
  5
2A
  8
寸法
  2
*D2
 10
480.33125863466643
 20
184.15758389456701
 30
0.0
 11
436.33125863466648
 21
186.53258389456701
 31
0.0
  1
%%c<>
 13
392.33125863466648
 23
174.16114315075569
 33
0.0
 14
480.33125863466643
 24
174.16114315075561
 34
0.0
1001
ACAD
1000
DSTYLE
1002
{
1070
   340
1005
2C
1002
}
  0
DIMENSION
  5
3A
  8
寸法
  2
*D1
 10
486.33125863466648
 20
194.09535445671071
 30
0.0
 11
436.33125863466648
 21
196.47035445671071
 31
0.0
  1
%%c<>
 13
386.33125863466648
 23
174.16114315075569
 33
0.0
 14
486.33125863466648
 24
174.16114315075561
 34
0.0
1001
ACAD
1000
DSTYLE
1002
{
1070
   340
1005
2C
1002
}
  0
DIMENSION
  5
47
  8
寸法
  2
*D0
 10
376.33125863466643
 20
204.09352493528681
 30
0.0
 11
436.33125863466648
 21
206.46852493528681
 31
0.0
  1
%%c<>
 13
496.33125863466643
 23
174.16114315075561
 33
0.0
 14
376.33125863466643
 24
174.16114315075569
 34
0.0
1001
ACAD
1000
DSTYLE
1002
{
1070
   340
1005
2C
1002
}
  0
LINE
  5
56
  8
基準線
 10
486.33125863466648
 20
166.16114315075561
 30
0.0
 11
486.33125863466648
 21
176.16114315075561
 31
0.0
  0
LINE
  5
59
  8
基準線
 10
436.33125863466648
 20
177.16114315075561
 30
0.0
 11
436.33125863466648
 21
150.16114315075561
 31
0.0
  0
LINE
  5
5A
  8
基準線
 10
386.33125863466648
 20
166.16114315075561
 30
0.0
 11
386.33125863466648
 21
176.16114315075569
 31
0.0
  0
INSERT
  5
5B
  8
0
  2
*U8
 10
0.0
 20
0.0
 30
0.0
  0
LINE
  5
5D
  8
図形
 10
392.33125863466648
 20
167.16114315075561
 30
0.0
 11
480.33125863466643
 21
167.16114315075561
 31
0.0
  0
DIMENSION
  5
5E
  8
寸法
  2
*D9
 10
491.89824593277422
 20
155.16114315075561
 30
0.0
 11
474.2312689280019
 21
164.0278437468944
 31
0.0
 70
     2
 13
384.33125863466643
 23
153.16114315075569
 33
0.0
 14
488.33125863466643
 24
153.16114315075561
 34
0.0
 15
484.53703000060631
 25
167.91114315075561
 35
0.0
 16
478.03203969936152
 26
165.76518048291439
 36
0.0
1001
ACAD
1000
DSTYLE
1002
{
1070
   271
1070
     0
1070
   340
1005
61
1002
}
  0
LINE
  5
6F
  8
図形
 10
384.33125863466643
 20
153.16114315075569
 30
0.0
 11
488.33125863466643
 21
153.16114315075561
 31
0.0
  0
LINE
  5
70
  8
図形
 10
376.33125863466643
 20
174.16114315075569
 30
0.0
 11
436.33125863466648
 21
174.16114315075561
 31
0.0
1001
ACAD
1000
ASC_BOUNDS
1002
{
1070
    19
1005
7E
1005
7E
1002
}
  0
DIMENSION
  5
71
  8
寸法
  2
*D3
 10
366.33294514500727
 20
153.16114315075569
 30
0.0
 11
363.95794514500722
 21
163.66114315075581
 31
0.0
 13
376.44561139452111
 23
174.16114315075569
 33
0.0
 14
376.33125863466643
 24
153.16114315075569
 34
0.0
 50
270.0
1001
ACAD
1000
DSTYLE
1002
{
1070
   340
1005
2C
1002
}
  0
INSERT
  5
7E
  8
図形
  6
CONTINUOUS
  2
*X10
 10
0.0
 20
0.0
 30
0.0
1001
ACAD
1000
HATCH
1002
{
1070
    19
1000
ANSI31
1040
1.0
1040
0.0
1000
ASC_BOUNDS
1070
     2
1070
     1
1070
    10
1005
A7
1005
A6
1005
97
1005
99
1005
96
1005
93
1005
A2
1005
70
1005
A9
1005
A8
1070
     1
1070
    12
1005
A4
1005
93
1005
94
1005
95
1005
83
1005
8E
1005
8F
1005
90
1005
87
1005
88
1005
84
1005
70
1000
ASC_SEEDPOINT
1011
381.65601071482013
1021
-0.0
1031
0.0
1021
170.80707592309091
1031
0.0
1000
R14_HATCH_DATA
1000
7E
1011
1.0
1021
-0.0
1031
0.0
1021
0.0
1031
0.0
1011
0.0
1021
-0.0
1031
0.0
1021
1.0
1031
0.0
1011
0.0
1021
-0.0
1031
0.0
1021
0.0
1031
1.0
1040
0.0
1010
0.0
1020
0.0
1030
1.0
1000
ANSI31
1070
     0
1070
     1
1071
        2
1071
        7
1070
     0
1070
     1
1071
       12
1040
384.83125863466648
1040
174.16114315075569
1040
376.33125863466643
1040
174.16114315075569
1040
376.33125863466643
1040
153.16114315075569
1040
384.33125863466643
1040
153.16114315075569
1040
384.33125863466643
1040
155.16114315075569
1040
380.33125863466648
1040
155.16114315075569
1040
380.33125863466648
1040
157.16114315075569
1040
378.33125863466648
1040
157.16114315075569
1040
378.33125863466648
1040
167.16114315075561
1040
382.33125863466648
1040
167.16114315075561
1040
382.33125863466648
1040
168.16114315075561
1040
384.83125863466648
1040
168.16114315075561
1071
       12
1005
70
1005
84
1005
88
1005
87
1005
90
1005
8F
1005
8E
1005
83
1005
95
1005
94
1005
93
1005
A4
1071
        7
1070
     0
1070
     1
1071
       10
1040
391.33125863466648
1040
172.16114315075561
1040
392.33125863466648
1040
172.16114315075561
1040
392.33125863466648
1040
174.16114315075569
1040
387.83125863466643
1040
174.16114315075569
1040
387.83125863466643
1040
168.16114315075561
1040
389.33125863466643
1040
168.16114315075561
1040
389.33125863466643
1040
167.16114315075561
1040
392.33125863466648
1040
167.16114315075561
1040
392.33125863466648
1040
169.16114315075561
1040
391.33125863466643
1040
169.16114315075561
1071
       10
1005
A8
1005
A9
1005
70
1005
A2
1005
93
1005
96
1005
99
1005
97
1005
A6
1005
A7
1070
     0
1070
     1
1040
0.0
1040
1.0
1070
     0
1070
     1
1040
0.7853981633974483
1040
0.0
1040
0.0
1040
-2.2450640302672871
1040
2.245064030267288
1070
     0
1040
0.0948564873132518
1071
        2
1040
381.65601071482013
1040
170.80707592309091
1040
0.0
1040
390.76824238479401
1040
172.13506687370869
1040
0.0
1002
}
  0
LINE
  5
7F
  8
図形
 10
387.69247456683428
 20
168.16114315075561
 30
0.0
 11
380.33125863466648
 21
155.41114315075569
 31
0.0
  0
LINE
  5
80
  8
図形
 10
388.1254872687266
 20
167.91114315075561
 30
0.0
 11
380.76427133655869
 21
155.16114315075569
 31
0.0
  0
LINE
  5
81
  8
図形
 10
386.23388657882953
 20
163.43479464822161
 30
0.0
 11
384.33388657882949
 21
160.14389811384069
 31
0.0
  0
ARC
  5
82
  8
図形
 10
387.88196279018268
 20
160.28934638103109
 30
0.0
 40
1.55
 50
240.0000000000002
 51
60.000000000000227
  0
LINE
  5
83
  8
図形
 10
378.33125863466648
 20
167.16114315075561
 30
0.0
 11
378.33125863466648
 21
157.16114315075569
 31
0.0
1001
ACAD
1000
ASC_BOUNDS
1002
{
1070
    19
1005
7E
1002
}
  0
LINE
  5
84
  8
図形
 10
376.33125863466643
 20
153.16114315075569
 30
0.0
 11
376.33125863466643
 21
174.16114315075569
 31
0.0
1001
ACAD
1000
ASC_BOUNDS
1002
{
1070
    19
1005
7E
1002
}
  0
LINE
  5
85
  8
図形
 10
384.0588865788294
 20
159.66758414175931
 30
0.0
 11
386.65696279018277
 21
158.16758414175931
 31
0.0
  0
LINE
  5
86
  8
図形
 10
382.50888657882939
 20
156.9829053900275
 30
0.0
 11
385.10696279018271
 21
155.4829053900275
 31
0.0
  0
LINE
  5
87
  8
図形
 10
384.33125863466643
 20
153.16114315075569
 30
0.0
 11
384.33125863466643
 21
155.16114315075569
 31
0.0
1001
ACAD
1000
ASC_BOUNDS
1002
{
1070
    19
1005
7E
1002
}
  0
LINE
  5
88
  8
図形
 10
376.33125863466643
 20
153.16114315075569
 30
0.0
 11
384.33125863466643
 21
153.16114315075569
 31
0.0
1001
ACAD
1000
ASC_BOUNDS
1002
{
1070
    19
1005
7E
1002
}
  0
LINE
  5
89
  8
図形
 10
383.7142713365588
 20
160.27069303308389
 30
0.0
 11
384.23388657882941
 21
159.9706930330839
 31
0.0
  0
LINE
  5
8A
  8
図形
 10
384.33388657882949
 20
160.14389811384069
 30
0.0
 11
383.8142713365587
 21
160.44389811384079
 31
0.0
  0
LINE
  5
8B
  8
図形
 10
380.76427133655869
 20
155.16114315075569
 30
0.0
 11
380.33125863466648
 21
155.41114315075569
 31
0.0
  0
LINE
  5
8C
  8
図形
 10
382.33388657882938
 20
156.67979649870301
 30
0.0
 11
381.81427133655882
 21
156.979796498703
 31
0.0
  0
LINE
  5
8D
  8
図形
 10
384.23388657882941
 20
159.9706930330839
 30
0.0
 11
382.33388657882938
 21
156.67979649870301
 31
0.0
  0
LINE
  5
8E
  8
図形
 10
380.33125863466648
 20
157.16114315075569
 30
0.0
 11
378.33125863466648
 21
157.16114315075569
 31
0.0
1001
ACAD
1000
ASC_BOUNDS
1002
{
1070
    19
1005
7E
1002
}
  0
LINE
  5
8F
  8
図形
 10
380.33125863466648
 20
155.16114315075569
 30
0.0
 11
380.33125863466648
 21
157.16114315075569
 31
0.0
1001
ACAD
1000
ASC_BOUNDS
1002
{
1070
    19
1005
7E
1002
}
  0
LINE
  5
90
  8
図形
 10
384.33125863466643
 20
155.16114315075569
 30
0.0
 11
380.33125863466648
 21
155.16114315075569
 31
0.0
1001
ACAD
1000
ASC_BOUNDS
1002
{
1070
    19
1005
7E
1002
}
  0
ARC
  5
91
  8
図形
 10
385.88196279018268
 20
156.82524476589339
 30
0.0
 40
1.55
 50
240.0000000000002
 51
60.000000000000227
  0
LINE
  5
92
  8
図形
 10
384.5088865788295
 20
160.4470070051652
 30
0.0
 11
387.10696279018282
 21
158.94700700516529
 31
0.0
  0
LINE
  5
93
  8
図形
 10
389.33125863466643
 20
168.16114315075561
 30
0.0
 11
382.33125863466648
 21
168.16114315075561
 31
0.0
1001
ACAD
1000
ASC_BOUNDS
1002
{
1070
    19
1005
7E
1005
7E
1002
}
  0
LINE
  5
94
  8
図形
 10
382.33125863466648
 20
168.16114315075561
 30
0.0
 11
382.33125863466648
 21
167.16114315075561
 31
0.0
1001
ACAD
1000
ASC_BOUNDS
1002
{
1070
    19
1005
7E
1002
}
  0
LINE
  5
95
  8
図形
 10
382.33125863466648
 20
167.16114315075561
 30
0.0
 11
378.33125863466648
 21
167.16114315075561
 31
0.0
1001
ACAD
1000
ASC_BOUNDS
1002
{
1070
    19
1005
7E
1002
}
  0
LINE
  5
96
  8
図形
 10
389.33125863466643
 20
167.16114315075561
 30
0.0
 11
389.33125863466643
 21
168.16114315075561
 31
0.0
1001
ACAD
1000
ASC_BOUNDS
1002
{
1070
    19
1005
7E
1002
}
  0
LINE
  5
97
  8
図形
 10
392.33125863466648
 20
169.16114315075561
 30
0.0
 11
392.33125863466648
 21
167.16114315075561
 31
0.0
1001
ACAD
1000
ASC_BOUNDS
1002
{
1070
    19
1005
7E
1002
}
  0
ARC
  5
98
  8
図形
 10
389.88196279018268
 20
163.75344799616889
 30
0.0
 40
1.55
 50
240.0000000000002
 51
60.000000000000227
  0
LINE
  5
99
  8
図形
 10
392.33125863466648
 20
167.16114315075561
 30
0.0
 11
389.33125863466643
 21
167.16114315075561
 31
0.0
1001
ACAD
1000
ASC_BOUNDS
1002
{
1070
    19
1005
7E
1002
}
  0
LINE
  5
9A
  8
図形
 10
386.33388657882949
 20
163.60799972897851
 30
0.0
 11
385.81427133655882
 21
163.9079997289785
 31
0.0
  0
LINE
  5
9B
  8
図形
 10
385.7142713365588
 20
163.73479464822159
 30
0.0
 11
386.23388657882953
 21
163.43479464822161
 31
0.0
  0
LINE
  5
9C
  8
図形
 10
386.50888657882939
 20
163.911108620303
 30
0.0
 11
389.10696279018282
 21
162.411108620303
 31
0.0
  0
LINE
  5
9D
  8
図形
 10
388.23388657882958
 20
166.8988962633594
 30
0.0
 11
387.7142713365588
 21
167.19889626335939
 31
0.0
  0
LINE
  5
9E
  8
図形
 10
388.23388657882958
 20
166.8988962633594
 30
0.0
 11
386.33388657882949
 21
163.60799972897851
 31
0.0
  0
LINE
  5
9F
  8
図形
 10
386.05888657882952
 20
163.13168575689701
 30
0.0
 11
388.65696279018277
 21
161.63168575689701
 31
0.0
  0
LINE
  5
A0
  8
図形
 10
388.05888657882952
 20
166.59578737203481
 30
0.0
 11
390.65696279018277
 21
165.09578737203481
 31
0.0
  0
LINE
  5
A1
  8
図形
 10
388.1254872687266
 20
167.91114315075561
 30
0.0
 11
387.69247456683428
 21
168.16114315075561
 31
0.0
  0
LINE
  5
A2
  8
図形
 10
387.83125863466643
 20
168.16114315075561
 30
0.0
 11
387.83125863466643
 21
174.16114315075561
 31
0.0
1001
ACAD
1000
ASC_BOUNDS
1002
{
1070
    19
1005
7E
1002
}
  0
LINE
  5
A3
  8
図形
 10
387.53125863466641
 20
168.16114315075561
 30
0.0
 11
387.53125863466641
 21
174.16114315075561
 31
0.0
1001
ACAD
1000
ASC_BOUNDS
1002
{
1070
    19
1002
}
  0
LINE
  5
A4
  8
図形
 10
384.83125863466648
 20
168.16114315075561
 30
0.0
 11
384.83125863466648
 21
174.16114315075561
 31
0.0
1001
ACAD
1000
ASC_BOUNDS
1002
{
1070
    19
1005
7E
1002
}
  0
LINE
  5
A5
  8
図形
 10
385.13125863466649
 20
168.16114315075561
 30
0.0
 11
385.13125863466649
 21
174.16114315075561
 31
0.0
1001
ACAD
1000
ASC_BOUNDS
1002
{
1070
    19
1002
}
  0
LINE
  5
A6
  8
図形
 10
391.33125863466643
 20
169.16114315075561
 30
0.0
 11
392.33125863466648
 21
169.16114315075561
 31
0.0
1001
ACAD
1000
ASC_BOUNDS
1002
{
1070
    19
1005
7E
1002
}
  0
LINE
  5
A7
  8
図形
 10
391.33125863466643
 20
172.16114315075561
 30
0.0
 11
391.33125863466643
 21
169.16114315075561
 31
0.0
1001
ACAD
1000
ASC_BOUNDS
1002
{
1070
    19
1005
7E
1002
}
  0
LINE
  5
A8
  8
図形
 10
392.33125863466648
 20
172.16114315075561
 30
0.0
 11
391.33125863466643
 21
172.16114315075561
 31
0.0
1001
ACAD
1000
ASC_BOUNDS
1002
{
1070
    19
1005
7E
1002
}
  0
LINE
  5
A9
  8
図形
 10
392.33125863466648
 20
174.16114315075561
 30
0.0
 11
392.33125863466648
 21
172.16114315075561
 31
0.0
1001
ACAD
1000
ASC_BOUNDS
1002
{
1070
    19
1005
7E
1002
}
  0
LINE
  5
AA
  8
図形
 10
436.33125863466648
 20
174.16114315075561
 30
0.0
 11
496.33125863466643
 21
174.16114315075561
 31
0.0
1001
ACAD
1000
ASC_BOUNDS
1002
{
1070
    19
1005
AD
1005
AD
1002
}
  0
LINE
  5
AB
  8
図形
 10
496.33125863466643
 20
165.75703315075569
 30
0.0
 11
503.08322863466663
 21
165.75703315075569
 31
0.0
  0
LINE
  5
AC
  8
図形
 10
496.33125863466643
 20
162.56114315075561
 30
0.0
 11
503.07578863466711
 21
162.56114315075561
 31
0.0
  0
INSERT
  5
AD
  8
図形
  6
CONTINUOUS
  2
*X11
 10
0.0
 20
0.0
 30
0.0
1001
ACAD
1000
HATCH
1002
{
1070
    19
1000
ANSI31
1040
1.0
1040
0.0
1000
ASC_BOUNDS
1070
     2
1070
     1
1070
    12
1005
B1
1005
B8
1005
B7
1005
B9
1005
C2
1005
C1
1005
AE
1005
D5
1005
D4
1005
C5
1005
DA
1005
AA
1070
     1
1070
    10
1005
D3
1005
C5
1005
CA
1005
CC
1005
CB
1005
CF
1005
D0
1005
D1
1005
D2
1005
AA
1000
ASC_SEEDPOINT
1011
483.84507957610538
1021
-0.0
1031
0.0
1021
172.7654916614045
1031
0.0
1000
R14_HATCH_DATA
1000
AD
1011
1.0
1021
-0.0
1031
0.0
1021
0.0
1031
0.0
1011
0.0
1021
-0.0
1031
0.0
1021
1.0
1031
0.0
1011
0.0
1021
-0.0
1031
0.0
1021
0.0
1031
1.0
1040
0.0
1010
0.0
1020
0.0
1030
1.0
1000
ANSI31
1070
     0
1070
     1
1071
        2
1071
        7
1070
     0
1070
     1
1071
       10
1040
484.83125863466631
1040
174.16114315075561
1040
480.33125863466643
1040
174.16114315075561
1040
480.33125863466643
1040
172.16114315075561
1040
481.33125863466648
1040
172.16114315075569
1040
481.33125863466648
1040
169.16114315075561
1040
480.33125863466643
1040
169.16114315075561
1040
480.33125863466643
1040
167.16114315075561
1040
483.33125863466643
1040
167.16114315075561
1040
483.33125863466643
1040
168.16114315075561
1040
484.83125863466643
1040
168.16114315075561
1071
       10
1005
AA
1005
D2
1005
D1
1005
D0
1005
CF
1005
CB
1005
CC
1005
CA
1005
C5
1005
D3
1071
        7
1070
     0
1070
     1
1071
       12
1040
496.33125863466643
1040
174.16114315075561
1040
487.83125863466643
1040
174.16114315075561
1040
487.83125863466643
1040
168.16114315075561
1040
490.33125863466648
1040
168.16114315075561
1040
490.33125863466648
1040
167.16114315075561
1040
494.33125863466648
1040
167.16114315075561
1040
494.33125863466648
1040
157.16114315075561
1040
492.33125863466643
1040
157.16114315075561
1040
492.33125863466643
1040
155.16114315075561
1040
488.33125863466643
1040
155.16114315075561
1040
488.33125863466643
1040
153.16114315075561
1040
496.33125863466643
1040
153.16114315075561
1071
       12
1005
AA
1005
DA
1005
C5
1005
D4
1005
D5
1005
AE
1005
C1
1005
C2
1005
B9
1005
B7
1005
B8
1005
B1
1070
     0
1070
     1
1040
0.0
1040
1.0
1070
     0
1070
     1
1040
0.7853981633974483
1040
0.0
1040
0.0
1040
-2.2450640302672871
1040
2.245064030267288
1070
     0
1040
0.1327638185930044
1071
        2
1040
483.84507957610538
1040
172.7654916614045
1040
0.0
1040
492.74612481914039
1040
171.17232535054791
1040
0.0
1002
}
  0
LINE
  5
AE
  8
図形
 10
494.33125863466648
 20
167.16114315075561
 30
0.0
 11
494.33125863466648
 21
157.16114315075561
 31
0.0
1001
ACAD
1000
ASC_BOUNDS
1002
{
1070
    19
1005
AD
1002
}
  0
LINE
  5
AF
  8
図形
 10
484.97004270249852
 20
168.16114315075561
 30
0.0
 11
492.33125863466643
 21
155.41114315075561
 31
0.0
  0
LINE
  5
B0
  8
図形
 10
484.53703000060631
 20
167.91114315075561
 30
0.0
 11
491.89824593277422
 21
155.16114315075561
 31
0.0
  0
LINE
  5
B1
  8
図形
 10
496.33125863466643
 20
153.16114315075561
 30
0.0
 11
496.33125863466643
 21
174.16114315075561
 31
0.0
1001
ACAD
1000
ASC_BOUNDS
1002
{
1070
    19
1005
AD
1002
}
  0
LINE
  5
B2
  8
図形
 10
496.33125863466643
 20
154.16114315075561
 30
0.0
 11
496.33125863466643
 21
174.16114315075561
 31
0.0
  0
LINE
  5
B3
  8
図形
 10
496.33125863466643
 20
174.16114315075561
 30
0.0
 11
496.33125863466643
 21
154.16114315075561
 31
0.0
  0
LINE
  5
B4
  8
図形
 10
486.44568987402567
 20
163.4052472756253
 30
0.0
 11
488.34568987402582
 21
160.11435074124441
 31
0.0
  0
ARC
  5
B5
  8
図形
 10
484.7976136626724
 20
160.2597990084349
 30
0.0
 40
1.55
 50
119.9999999999997
 51
299.99999999999972
  0
ARC
  5
B6
  8
図形
 10
486.7976136626724
 20
156.7956973932971
 30
0.0
 40
1.55
 50
119.9999999999997
 51
299.99999999999972
  0
LINE
  5
B7
  8
図形
 10
488.33125863466643
 20
153.16114315075561
 30
0.0
 11
488.33125863466643
 21
155.16114315075561
 31
0.0
1001
ACAD
1000
ASC_BOUNDS
1002
{
1070
    19
1005
AD
1002
}
  0
LINE
  5
B8
  8
図形
 10
496.33125863466643
 20
153.16114315075561
 30
0.0
 11
488.33125863466643
 21
153.16114315075561
 31
0.0
1001
ACAD
1000
ASC_BOUNDS
1002
{
1070
    19
1005
AD
1002
}
  0
LINE
  5
B9
  8
図形
 10
488.33125863466643
 20
155.16114315075561
 30
0.0
 11
492.33125863466643
 21
155.16114315075561
 31
0.0
1001
ACAD
1000
ASC_BOUNDS
1002
{
1070
    19
1005
AD
1002
}
  0
LINE
  5
BA
  8
図形
 10
490.17068987402581
 20
156.95335801743121
 30
0.0
 11
487.5726136626725
 21
155.45335801743121
 31
0.0
  0
LINE
  5
BB
  8
図形
 10
490.34568987402582
 20
156.6502491261067
 30
0.0
 11
490.86530511629638
 21
156.95024912610671
 31
0.0
  0
LINE
  5
BC
  8
図形
 10
488.44568987402579
 20
159.94114566048751
 30
0.0
 11
490.34568987402582
 21
156.6502491261067
 31
0.0
  0
LINE
  5
BD
  8
図形
 10
488.62068987402569
 20
159.63803676916299
 30
0.0
 11
486.02261366267243
 21
158.13803676916299
 31
0.0
  0
LINE
  5
BE
  8
図形
 10
488.96530511629641
 20
160.24114566048749
 30
0.0
 11
488.44568987402579
 21
159.94114566048751
 31
0.0
  0
LINE
  5
BF
  8
図形
 10
488.1706898740257
 20
160.41745963256889
 30
0.0
 11
485.57261366267238
 21
158.91745963256889
 31
0.0
  0
LINE
  5
C0
  8
図形
 10
488.34568987402582
 20
160.11435074124441
 30
0.0
 11
488.8653051162965
 21
160.41435074124439
 31
0.0
  0
LINE
  5
C1
  8
図形
 10
492.33125863466643
 20
157.16114315075561
 30
0.0
 11
494.33125863466648
 21
157.16114315075561
 31
0.0
1001
ACAD
1000
ASC_BOUNDS
1002
{
1070
    19
1005
AD
1002
}
  0
LINE
  5
C2
  8
図形
 10
492.33125863466643
 20
155.16114315075561
 30
0.0
 11
492.33125863466643
 21
157.16114315075561
 31
0.0
1001
ACAD
1000
ASC_BOUNDS
1002
{
1070
    19
1005
AD
1002
}
  0
LINE
  5
C3
  8
図形
 10
491.89824593277422
 20
155.16114315075561
 30
0.0
 11
492.33125863466643
 21
155.41114315075561
 31
0.0
  0
LINE
  5
C4
  8
図形
 10
484.53703000060631
 20
167.91114315075561
 30
0.0
 11
484.97004270249852
 21
168.16114315075561
 31
0.0
  0
LINE
  5
C5
  8
図形
 10
483.33125863466643
 20
168.16114315075561
 30
0.0
 11
490.33125863466648
 21
168.16114315075561
 31
0.0
1001
ACAD
1000
ASC_BOUNDS
1002
{
1070
    19
1005
AD
1005
AD
1002
}
  0
LINE
  5
C6
  8
図形
 10
486.6206898740258
 20
163.1021383843007
 30
0.0
 11
484.02261366267243
 21
161.6021383843007
 31
0.0
  0
LINE
  5
C7
  8
図形
 10
486.17068987402581
 20
163.88156124770671
 30
0.0
 11
483.5726136626725
 21
162.38156124770671
 31
0.0
  0
LINE
  5
C8
  8
図形
 10
484.44568987402567
 20
166.86934889076301
 30
0.0
 11
484.96530511629641
 21
167.16934889076299
 31
0.0
  0
LINE
  5
C9
  8
図形
 10
484.44568987402567
 20
166.86934889076301
 30
0.0
 11
486.34568987402571
 21
163.57845235638209
 31
0.0
  0
LINE
  5
CA
  8
図形
 10
483.33125863466643
 20
167.16114315075561
 30
0.0
 11
483.33125863466643
 21
168.16114315075561
 31
0.0
1001
ACAD
1000
ASC_BOUNDS
1002
{
1070
    19
1005
AD
1002
}
  0
LINE
  5
CB
  8
図形
 10
480.33125863466643
 20
169.16114315075561
 30
0.0
 11
480.33125863466643
 21
167.16114315075561
 31
0.0
1001
ACAD
1000
ASC_BOUNDS
1002
{
1070
    19
1005
AD
1002
}
  0
LINE
  5
CC
  8
図形
 10
480.33125863466643
 20
167.16114315075561
 30
0.0
 11
483.33125863466643
 21
167.16114315075561
 31
0.0
1001
ACAD
1000
ASC_BOUNDS
1002
{
1070
    19
1005
AD
1002
}
  0
ARC
  5
CD
  8
図形
 10
482.79761366267229
 20
163.7239006235726
 30
0.0
 40
1.55
 50
119.9999999999997
 51
299.99999999999972
  0
LINE
  5
CE
  8
図形
 10
484.62068987402569
 20
166.56623999943841
 30
0.0
 11
482.02261366267243
 21
165.06623999943841
 31
0.0
  0
LINE
  5
CF
  8
図形
 10
481.33125863466648
 20
169.16114315075561
 30
0.0
 11
480.33125863466643
 21
169.16114315075561
 31
0.0
1001
ACAD
1000
ASC_BOUNDS
1002
{
1070
    19
1005
AD
1002
}
  0
LINE
  5
D0
  8
図形
 10
481.33125863466648
 20
172.16114315075561
 30
0.0
 11
481.33125863466648
 21
169.16114315075561
 31
0.0
1001
ACAD
1000
ASC_BOUNDS
1002
{
1070
    19
1005
AD
1002
}
  0
LINE
  5
D1
  8
図形
 10
480.33125863466643
 20
172.16114315075561
 30
0.0
 11
481.33125863466648
 21
172.16114315075561
 31
0.0
1001
ACAD
1000
ASC_BOUNDS
1002
{
1070
    19
1005
AD
1002
}
  0
LINE
  5
D2
  8
図形
 10
480.33125863466643
 20
174.16114315075561
 30
0.0
 11
480.33125863466643
 21
172.16114315075561
 31
0.0
1001
ACAD
1000
ASC_BOUNDS
1002
{
1070
    19
1005
AD
1002
}
  0
LINE
  5
D3
  8
図形
 10
484.83125863466643
 20
168.16114315075561
 30
0.0
 11
484.83125863466643
 21
174.16114315075561
 31
0.0
1001
ACAD
1000
ASC_BOUNDS
1002
{
1070
    19
1005
AD
1002
}
  0
LINE
  5
D4
  8
図形
 10
490.33125863466648
 20
168.16114315075561
 30
0.0
 11
490.33125863466648
 21
167.16114315075561
 31
0.0
1001
ACAD
1000
ASC_BOUNDS
1002
{
1070
    19
1005
AD
1002
}
  0
LINE
  5
D5
  8
図形
 10
490.33125863466648
 20
167.16114315075561
 30
0.0
 11
494.33125863466648
 21
167.16114315075561
 31
0.0
1001
ACAD
1000
ASC_BOUNDS
1002
{
1070
    19
1005
AD
1002
}
  0
LINE
  5
D6
  8
図形
 10
486.96530511629641
 20
163.70524727562531
 30
0.0
 11
486.44568987402567
 21
163.4052472756253
 31
0.0
  0
LINE
  5
D7
  8
図形
 10
486.34568987402571
 20
163.57845235638209
 30
0.0
 11
486.86530511629638
 21
163.8784523563821
 31
0.0
  0
LINE
  5
D8
  8
図形
 10
485.13125863466638
 20
168.16114315075561
 30
0.0
 11
485.13125863466638
 21
174.16114315075561
 31
0.0
1001
ACAD
1000
ASC_BOUNDS
1002
{
1070
    19
1002
}
  0
LINE
  5
D9
  8
図形
 10
487.53125863466641
 20
168.16114315075561
 30
0.0
 11
487.53125863466641
 21
174.16114315075561
 31
0.0
1001
ACAD
1000
ASC_BOUNDS
1002
{
1070
    19
1002
}
  0
LINE
  5
DA
  8
図形
 10
487.83125863466643
 20
168.16114315075561
 30
0.0
 11
487.83125863466643
 21
174.16114315075561
 31
0.0
1001
ACAD
1000
ASC_BOUNDS
1002
{
1070
    19
1005
AD
1002
}
  0
ARC
  5
DB
  8
図形
 10
503.07578863466711
 20
173.16114315075561
 30
0.0
 40
10.6
 50
270.0
 51
0.0
  0
ARC
  5
DC
  8
図形
 10
503.08322863466663
 20
172.75703315075569
 30
0.0
 40
6.9999999999999973
 50
270.0
 51
0.0
  0
TEXT
  5
DD
  8
0
 10
517.62659287386543
 20
180.37890971593751
 30
0.0
 40
5.0
  1
L=500
  7
NISSIN5
  0
LINE
  5
DE
  8
図形
 10
519.40469325034462
 20
235.0579598868583
 30
0.0
 11
523.29377347580282
 21
238.9470401123165
 31
0.0
  0
LINE
  5
DF
  8
図形
 10
526.61717534737966
 20
227.84547778982329
 30
0.0
 11
519.40469325034462
 21
235.0579598868583
 31
0.0
  0
CIRCLE
  5
E0
  8
図形
 10
436.33125863466648
 20
284.16114315075572
 30
0.0
 40
60.0
  0
LINE
  5
E1
  8
基準線
 10
436.33125863466648
 20
219.16114315075561
 30
0.0
 11
436.33125863466648
 21
349.16114315075572
 31
0.0
  0
CIRCLE
  5
E2
  8
図形
 10
436.33125863466648
 20
284.16114315075572
 30
0.0
 40
44.0
  0
LINE
  5
E3
  8
基準線
 10
486.33125863466648
 20
286.66114315075561
 30
0.0
 11
486.33125863466648
 21
281.66114315075561
 31
0.0
  0
CIRCLE
  5
E4
  8
図形
 10
486.33125863466648
 20
284.16114315075561
 30
0.0
 40
1.5
  0
CIRCLE
  5
E5
  8
図形
 10
486.33125863466648
 20
284.16114315075561
 30
0.0
 40
1.1999999999999991
  0
CIRCLE
  5
E6
  8
図形
 10
386.33125863466648
 20
284.16114315075561
 30
0.0
 40
1.1999999999999991
  0
CIRCLE
  5
E7
  8
図形
 10
386.33125863466648
 20
284.16114315075561
 30
0.0
 40
1.5
  0
LINE
  5
E8
  8
基準線
 10
386.33125863466648
 20
286.66114315075561
 30
0.0
 11
386.33125863466648
 21
281.66114315075561
 31
0.0
  0
ARC
  5
E9
  8
図形
 10
520.68322863466665
 20
181.93872823500021
 30
0.0
 40
10.6
 50
90.0
 51
180.0
  0
ARC
  5
EA
  8
図形
 10
520.67578863466724
 20
182.33873806651101
 30
0.0
 40
7.0
 50
90.0
 51
180.0
  0
ARC
  5
EB
  8
図形
 10
520.7809586346666
 20
191.73873315075559
 30
0.0
 40
1.199999999999978
 50
318.1900000000021
 51
41.809997000001331
  0
ARC
  5
EC
  8
図形
 10
522.56975863466653
 20
191.73873315075559
 30
0.0
 40
1.200000000000039
 50
138.1900000000021
 51
221.8099900000004
  0
LINE
  5
ED
  8
図形
 10
521.67532704690575
 20
192.53872823500021
 30
0.0
 11
520.68322863466665
 21
192.53872823500021
 31
0.0
  0
LINE
  5
EE
  8
図形
 10
521.67539022242761
 20
189.33873806651101
 30
0.0
 11
520.67578863466724
 21
189.33873806651101
 31
0.0
  0
ARC
  5
EF
  8
図形
 10
520.7809586346666
 20
190.13873315075571
 30
0.0
 40
1.199999999999978
 50
318.1900000000021
 51
41.809997000001331
  0
LINE
  5
F0
  8
基準線
 10
433.83125863466643
 20
234.16114315075561
 30
0.0
 11
438.83125863466643
 21
234.16114315075561
 31
0.0
  0
LINE
  5
F1
  8
基準線
 10
436.33125863466648
 20
236.66114315075561
 30
0.0
 11
436.33125863466648
 21
231.66114315075561
 31
0.0
  0
CIRCLE
  5
F2
  8
図形
 10
436.33125863466648
 20
234.16114315075569
 30
0.0
 40
1.1999999999999991
  0
CIRCLE
  5
F3
  8
図形
 10
436.33125863466648
 20
234.16114315075569
 30
0.0
 40
1.5
  0
LINE
  5
F4
  8
図形
 10
503.86490798102039
 20
242.33840549259651
 30
0.0
 11
497.3753683811064
 21
235.8488658926828
 31
0.0
  0
LINE
  5
F5
  8
図形
 10
501.04173477879789
 20
244.59587936601389
 30
0.0
 11
494.54929592194128
 21
238.10344050915739
 31
0.0
  0
LINE
  5
F6
  8
図形
 10
479.89051120433101
 20
242.86273029015629
 30
0.0
 11
484.64980098532982
 21
238.10344050915751
 31
0.0
  0
ARC
  5
F7
  8
図形
 10
489.59954845363558
 20
243.05318797746341
 30
0.0
 40
6.9999999999999973
 50
225.0
 51
315.0
  0
ARC
  5
F8
  8
図形
 10
489.88003650052912
 20
243.34419777326019
 30
0.0
 40
10.6
 50
225.0
 51
315.0
  0
LINE
  5
F9
  8
図形
 10
477.62582618054557
 20
240.607744332089
 30
0.0
 11
482.38470461995172
 21
235.84886589268291
 31
0.0
  0
ARC
  5
FA
  8
図形
 10
515.53582213669267
 20
243.96109187130341
 30
0.0
 40
1.1999999999999811
 50
273.18999999999772
 51
356.80999700000018
  0
ARC
  5
FB
  8
図形
 10
516.80069474687912
 20
242.69621926111691
 30
0.0
 40
1.200000000000031
 50
93.189999999997752
 51
176.8099900000023
  0
ARC
  5
FC
  8
図形
 10
508.81465544932621
 20
237.38865802429069
 30
0.0
 40
7.0
 50
44.999999999999993
 51
135.0
  0
LINE
  5
FD
  8
図形
 10
516.09826901258396
 20
240.01734522059149
 30
0.0
 11
520.22484519263935
 21
235.87811182915311
 31
0.0
  0
ARC
  5
FE
  8
図形
 10
517.29568363584542
 20
239.93848867235391
 30
0.0
 40
1.199999999999978
 50
93.18999999999933
 51
176.8099900000056
  0
ARC
  5
FF
  8
図形
 10
516.03081102565898
 20
241.2033612825403
 30
0.0
 40
1.1999999999999891
 50
273.18999999999772
 51
356.80999700000018
  0
LINE
  5
100
  8
図形
 10
514.47122797882218
 20
241.63158043140641
 30
0.0
 11
513.76440291763208
 21
242.33840549259659
 31
0.0
  0
ARC
  5
101
  8
図形
 10
514.40445128679426
 20
242.82972102140499
 30
0.0
 40
1.1999999999999891
 50
273.18999999999772
 51
356.80999700000018
  0
ARC
  5
102
  8
図形
 10
518.42705448574372
 20
241.0698595222523
 30
0.0
 40
1.200000000000021
 50
93.189999999997752
 51
176.8099900000056
  0
LINE
  5
103
  8
図形
 10
518.36678777478346
 20
242.2743947107999
 30
0.0
 11
522.48062896170939
 21
238.13389559822321
 31
0.0
  0
ARC
  5
104
  8
図形
 10
508.53706665937523
 20
237.10054748543661
 30
0.0
 40
10.6
 50
44.999999999999993
 51
135.0
  0
LINE
  5
105
  8
図形
 10
516.73391805485142
 20
243.8943598511153
 30
0.0
 11
516.03239853995274
 21
244.59587936601389
 31
0.0
  0
LINE
  5
106
  8
基準線
 10
501.33125863466643
 20
284.16114315075561
 30
0.0
 11
371.33125863466643
 21
284.16114315075572
 31
0.0
  0
LINE
  5
107
  8
基準線
 10
383.83125863466643
 20
284.16114315075561
 30
0.0
 11
388.83125863466643
 21
284.16114315075561
 31
0.0
  0
LINE
  5
108
  8
基準線
 10
433.83125863466643
 20
334.16114315075572
 30
0.0
 11
438.83125863466643
 21
334.16114315075572
 31
0.0
  0
LINE
  5
109
  8
基準線
 10
436.33125863466648
 20
336.66114315075572
 30
0.0
 11
436.33125863466648
 21
331.66114315075572
 31
0.0
  0
CIRCLE
  5
10A
  8
図形
 10
436.33125863466648
 20
334.16114315075572
 30
0.0
 40
1.5
  0
CIRCLE
  5
10B
  8
図形
 10
436.33125863466648
 20
334.16114315075572
 30
0.0
 40
1.1999999999999991
  0
LINE
  5
10C
  8
基準線
 10
483.83125863466643
 20
284.16114315075561
 30
0.0
 11
488.83125863466643
 21
284.16114315075561
 31
0.0
  0
LINE
  5
10D
  8
図形
 10
532.09722461730405
 20
231.9113417816458
 30
0.0
 11
537.04697208561015
 21
226.96159431333999
 31
0.0
  0
LINE
  5
10E
  8
図形
 10
535.63276559430483
 20
225.54738782203469
 30
0.0
 11
526.44036329674384
 21
234.73979011959551
 31
0.0
  0
LINE
  5
10F
  8
図形
 10
531.24870355094811
 20
225.40598060793309
 30
0.0
 11
524.88477080454038
 21
231.7699133543407
 31
0.0
  0
LINE
  5
110
  8
図形
 10
531.81438897589715
 20
225.9716660328823
 30
0.0
 11
525.45045622948965
 21
232.33559877929
 31
0.0
  0
LINE
  5
111
  8
図形
 10
532.38006732977874
 20
226.53734438676361
 30
0.0
 11
526.01613458337113
 21
232.9012771331715
 31
0.0
  0
LINE
  5
112
  8
図形
 10
532.94575275472801
 20
227.1030298117129
 30
0.0
 11
526.58182000832016
 21
233.4669625581206
 31
0.0
  0
LINE
  5
113
  8
図形
 10
532.80434554062629
 20
222.71896776835641
 30
0.0
 11
523.61194324306564
 21
231.9113700659172
 31
0.0
  0
LINE
  5
114
  8
図形
 10
547.09240863466664
 20
192.93403815075561
 30
0.0
 11
550.09240863466664
 21
192.93403815075561
 31
0.0
  0
LINE
  5
115
  8
図形
 10
542.09240863466664
 20
194.43403815075561
 30
0.0
 11
550.09240863466664
 21
194.43403815075561
 31
0.0
  0
LINE
  5
116
  8
図形
 10
547.09240863466653
 20
188.93403815075561
 30
0.0
 11
550.09240863466664
 21
188.93403815075561
 31
0.0
  0
LINE
  5
117
  8
図形
 10
542.09240863466664
 20
187.4340381507557
 30
0.0
 11
550.09240863466653
 21
187.4340381507557
 31
0.0
  0
LINE
  5
118
  8
図形
 10
542.09240863466664
 20
194.43403815075561
 30
0.0
 11
542.09240863466664
 21
187.4340381507557
 31
0.0
  0
LINE
  5
119
  8
図形
 10
531.89243863466641
 20
188.4340381507557
 30
0.0
 11
542.09240863466664
 21
188.4340381507557
 31
0.0
  0
LINE
  5
11A
  8
図形
 10
531.89243863466641
 20
193.4340381507557
 30
0.0
 11
542.09240863466664
 21
193.43403815075561
 31
0.0
  0
LINE
  5
11B
  8
図形
 10
523.97212149982772
 20
192.5351072263465
 30
0.0
 11
531.89243863466641
 21
192.53405315075571
 31
0.0
  0
LINE
  5
11C
  8
図形
 10
523.9754102224274
 20
189.3387380665111
 30
0.0
 11
531.89243863466641
 21
189.3340231507556
 31
0.0
  0
ARC
  5
11D
  8
図形
 10
524.86977863466655
 20
191.73873315075559
 30
0.0
 40
1.2000000000002089
 50
138.1900000000069
 51
221.80998999999801
  0
ARC
  5
11E
  8
図形
 10
523.08097863466662
 20
190.13873315075571
 30
0.0
 40
1.199999999999978
 50
318.1900000000021
 51
41.809997000001331
  0
ARC
  5
11F
  8
図形
 10
524.86968618672893
 20
190.13876846243909
 30
0.0
 40
1.1999075525789289
 50
138.18831386179249
 51
221.81621077948009
  0
LINE
  5
120
  8
図形
 10
531.89243863466641
 20
193.4340381507557
 30
0.0
 11
531.89243863466641
 21
188.4340381507557
 31
0.0
  0
LINE
  5
121
  8
図形
 10
540.59240863466664
 20
195.4340381507557
 30
0.0
 11
540.59240863466664
 21
193.43403815075561
 31
0.0
  0
LINE
  5
122
  8
図形
 10
541.59240863466664
 20
195.4340381507557
 30
0.0
 11
541.59240863466664
 21
193.43403815075561
 31
0.0
  0
LINE
  5
123
  8
図形
 10
547.09240863466664
 20
192.93403815075561
 30
0.0
 11
547.09240863466664
 21
188.93403815075561
 31
0.0
  0
LINE
  5
124
  8
図形
 10
546.59240863466664
 20
196.4340381507557
 30
0.0
 11
536.59240863466664
 21
196.4340381507557
 31
0.0
  0
LINE
  5
125
  8
図形
 10
546.59240863466664
 20
195.4340381507557
 30
0.0
 11
536.59240863466664
 21
195.4340381507557
 31
0.0
  0
LINE
  5
126
  8
図形
 10
536.59240863466664
 20
196.4340381507557
 30
0.0
 11
536.59240863466664
 21
195.4340381507557
 31
0.0
  0
LINE
  5
127
  8
図形
 10
546.59240863466664
 20
195.4340381507557
 30
0.0
 11
546.59240863466664
 21
196.4340381507557
 31
0.0
  0
LINE
  5
128
  8
図形
 10
550.09240863466664
 20
188.93403815075561
 30
0.0
 11
550.09240863466653
 21
187.4340381507557
 31
0.0
  0
LINE
  5
129
  8
図形
 10
550.09240863466664
 20
194.43403815075561
 30
0.0
 11
550.09240863466664
 21
192.93403815075561
 31
0.0
  0
LINE
  5
12A
  8
図形
 10
537.04697208561015
 20
226.96159431333999
 30
0.0
 11
531.39013904932096
 21
221.30476127705111
 31
0.0
  0
LINE
  5
12B
  8
図形
  6
CONTINUOUS
 10
526.44039158101532
 20
226.2545087453569
 30
0.0
 11
531.39013904932096
 21
221.30476127705111
 31
0.0
  0
LINE
  5
12C
  8
図形
 10
526.61717534737966
 20
227.84547778982329
 30
0.0
 11
527.14750543326954
 21
228.37580787571321
 31
0.0
  0
LINE
  5
12D
  8
図形
 10
526.44041279421856
 20
227.66871523666231
 30
0.0
 11
526.61717534737966
 21
227.84547778982329
 31
0.0
  0
ARC
  5
12E
  8
図形
 10
527.14750543326954
 20
226.96162259761149
 30
0.0
 40
1.0
 50
135.0
 51
225.0
  0
LINE
  5
12F
  8
図形
 10
534.92565881311816
 20
226.2544946032213
 30
0.0
 11
532.09723875943985
 21
223.4260745495429
 31
0.0
  0
LINE
  5
130
  8
図形
 10
533.51143817967716
 20
227.66871523666219
 30
0.0
 11
530.68301812599896
 21
224.84029518298379
 31
0.0
  0
LINE
  5
131
  8
図形
 10
523.29377347580282
 20
238.9470401123165
 30
0.0
 11
530.50625557283774
 21
231.73455801528149
 31
0.0
  0
LINE
  5
132
  8
図形
 10
524.31908537959112
 20
231.20422792939149
 30
0.0
 11
527.14750543326954
 21
234.03264798306989
 31
0.0
  0
LINE
  5
133
  8
図形
 10
523.61194324306564
 20
231.9113700659172
 30
0.0
 11
526.44036329674384
 21
234.73979011959551
 31
0.0
  0
LINE
  5
134
  8
図形
 10
530.68301812599873
 20
231.91132056844251
 30
0.0
 11
530.50625557283774
 21
231.73455801528149
 31
0.0
  0
LINE
  5
135
  8
図形
 10
530.68301812599896
 20
231.91132056844259
 30
0.0
 11
530.50625557283774
 21
231.73455801528149
 31
0.0
  0
ARC
  5
136
  8
図形
 10
531.3901107650496
 20
231.20422792939161
 30
0.0
 40
1.0
 50
45.000000000001123
 51
135.0
  0
LINE
  5
137
  8
図形
 10
530.50625557283774
 20
231.73455801528149
 30
0.0
 11
529.97592548694774
 21
231.20422792939149
 31
0.0
  0
ENDSEC
  0
EOF
