  0
SECTION
  2
HEADER
  9
$ACADVER
  1
AC1009
  9
$INSBASE
 10
0.0
 20
0.0
 30
0.0
  9
$EXTMIN
 10
97.713129872647485
 20
-7.7850547049737351
 30
0.0
  9
$EXTMAX
 10
369.83990962842449
 20
267.4697985655007
 30
0.0
  9
$LIMMIN
 10
0.0
 20
0.0
  9
$LIMMAX
 10
420.0
 20
297.0
  9
$ORTHOMODE
 70
     0
  9
$REGENMODE
 70
     1
  9
$FILLMODE
 70
     1
  9
$QTEXTMODE
 70
     0
  9
$MIRRTEXT
 70
     1
  9
$DRAGMODE
 70
     2
  9
$LTSCALE
 40
1.0
  9
$OSMODE
 70
    39
  9
$ATTMODE
 70
     1
  9
$TEXTSIZE
 40
2.5
  9
$TRACEWID
 40
1.0
  9
$TEXTSTYLE
  7
STANDARD
  9
$CLAYER
  8
0
  9
$CELTYPE
  6
BYLAYER
  9
$CECOLOR
 62
   256
  9
$DIMSCALE
 40
1.0
  9
$DIMASZ
 40
2.5
  9
$DIMEXO
 40
0.625
  9
$DIMDLI
 40
3.75
  9
$DIMRND
 40
0.0
  9
$DIMDLE
 40
0.0
  9
$DIMEXE
 40
1.25
  9
$DIMTP
 40
0.0
  9
$DIMTM
 40
0.0
  9
$DIMTXT
 40
2.5
  9
$DIMCEN
 40
2.5
  9
$DIMTSZ
 40
0.0
  9
$DIMTOL
 70
     0
  9
$DIMLIM
 70
     0
  9
$DIMTIH
 70
     0
  9
$DIMTOH
 70
     0
  9
$DIMSE1
 70
     0
  9
$DIMSE2
 70
     0
  9
$DIMTAD
 70
     1
  9
$DIMZIN
 70
     8
  9
$DIMBLK
  1

  9
$DIMASO
 70
     1
  9
$DIMSHO
 70
     1
  9
$DIMPOST
  1

  9
$DIMAPOST
  1

  9
$DIMALT
 70
     0
  9
$DIMALTD
 70
     3
  9
$DIMALTF
 40
0.03937007874016
  9
$DIMLFAC
 40
1.0
  9
$DIMTOFL
 70
     1
  9
$DIMTVP
 40
0.0
  9
$DIMTIX
 70
     0
  9
$DIMSOXD
 70
     0
  9
$DIMSAH
 70
     0
  9
$DIMBLK1
  1

  9
$DIMBLK2
  1

  9
$DIMSTYLE
  2
ISO-25
  9
$DIMCLRD
 70
     0
  9
$DIMCLRE
 70
     0
  9
$DIMCLRT
 70
     0
  9
$DIMTFAC
 40
1.0
  9
$DIMGAP
 40
0.625
  9
$LUNITS
 70
     2
  9
$LUPREC
 70
     4
  9
$SKETCHINC
 40
1.0
  9
$FILLETRAD
 40
10.0
  9
$AUNITS
 70
     0
  9
$AUPREC
 70
     0
  9
$MENU
  1
.
  9
$ELEVATION
 40
0.0
  9
$PELEVATION
 40
0.0
  9
$THICKNESS
 40
0.0
  9
$LIMCHECK
 70
     0
  9
$BLIPMODE
 70
     0
  9
$CHAMFERA
 40
10.0
  9
$CHAMFERB
 40
10.0
  9
$SKPOLY
 70
     0
  9
$TDCREATE
 40
2454873.669344224
  9
$TDUPDATE
 40
2455105.7134526852
  9
$TDINDWG
 40
0.179774294
  9
$TDUSRTIMER
 40
0.179774294
  9
$USRTIMER
 70
     1
  9
$ANGBASE
 50
0.0
  9
$ANGDIR
 70
     0
  9
$PDMODE
 70
     0
  9
$PDSIZE
 40
0.0
  9
$PLINEWID
 40
0.0
  9
$COORDS
 70
     2
  9
$SPLFRAME
 70
     0
  9
$SPLINETYPE
 70
     6
  9
$SPLINESEGS
 70
     8
  9
$ATTDIA
 70
     0
  9
$ATTREQ
 70
     1
  9
$HANDLING
 70
 22529
  9
$HANDSEED
  5
1A1
  9
$SURFTAB1
 70
     6
  9
$SURFTAB2
 70
     6
  9
$SURFTYPE
 70
     6
  9
$SURFU
 70
     6
  9
$SURFV
 70
     6
  9
$UCSNAME
  2

  9
$UCSORG
 10
0.0
 20
0.0
 30
0.0
  9
$UCSXDIR
 10
1.0
 20
0.0
 30
0.0
  9
$UCSYDIR
 10
0.0
 20
1.0
 30
0.0
  9
$PUCSNAME
  2

  9
$PUCSORG
 10
0.0
 20
0.0
 30
0.0
  9
$PUCSXDIR
 10
1.0
 20
0.0
 30
0.0
  9
$PUCSYDIR
 10
0.0
 20
1.0
 30
0.0
  9
$USERI1
 70
     0
  9
$USERI2
 70
     0
  9
$USERI3
 70
     0
  9
$USERI4
 70
     0
  9
$USERI5
 70
     0
  9
$USERR1
 40
0.0
  9
$USERR2
 40
0.0
  9
$USERR3
 40
0.0
  9
$USERR4
 40
0.0
  9
$USERR5
 40
0.0
  9
$WORLDVIEW
 70
     1
  9
$SHADEDGE
 70
     3
  9
$SHADEDIF
 70
    70
  9
$TILEMODE
 70
     1
  9
$MAXACTVP
 70
    64
  9
$PLIMCHECK
 70
     0
  9
$PEXTMIN
 10
1.146349085891772
 20
2.3954699130834451
 30
0.0
  9
$PEXTMAX
 10
288.43693587376322
 20
201.0508415499194
 30
0.0
  9
$PLIMMIN
 10
-3.17498779296875
 20
-3.1749999523162842
  9
$PLIMMAX
 10
293.85684204101562
 20
206.7348358631134
  9
$UNITMODE
 70
     0
  9
$VISRETAIN
 70
     1
  9
$PLINEGEN
 70
     0
  9
$PSLTSCALE
 70
     1
  0
ENDSEC
  0
SECTION
  2
TABLES
  0
TABLE
  2
VPORT
 70
     1
  0
VPORT
  2
*ACTIVE
 70
     0
 10
0.0
 20
0.0
 11
1.0
 21
1.0
 12
223.63979775618321
 22
140.063629589323
 13
0.0
 23
0.0
 14
10.0
 24
10.0
 15
10.0
 25
10.0
 16
0.0
 26
0.0
 36
1.0
 17
0.0
 27
0.0
 37
0.0
 40
277.5403987837409
 41
1.710651828298887
 42
50.0
 43
0.0
 44
0.0
 50
0.0
 51
0.0
 71
     0
 72
   100
 73
     1
 74
     3
 75
     0
 76
     0
 77
     0
 78
     0
  0
ENDTAB
  0
TABLE
  2
LTYPE
 70
     2
  0
LTYPE
  2
CONTINUOUS
 70
     0
  3
Solid line
 72
    65
 73
     0
 40
0.0
  0
LTYPE
  2
CENTER
 70
     0
  3
Center ____ _ ____ _ ____ _ ____ _ ____ _ ____
 72
    65
 73
     4
 40
50.799999999999997
 49
31.75
 49
-6.3499999999999988
 49
6.3499999999999988
 49
-6.3499999999999988
  0
ENDTAB
  0
TABLE
  2
LAYER
 70
     5
  0
LAYER
  2
0
 70
     0
 62
     7
  6
CONTINUOUS
  0
LAYER
  2
基準線
 70
     0
 62
     1
  6
CENTER
  0
LAYER
  2
図形
 70
     0
 62
     7
  6
CONTINUOUS
  0
LAYER
  2
寸法
 70
     0
 62
     5
  6
CONTINUOUS
  0
LAYER
  2
DEFPOINTS
 70
     0
 62
     7
  6
CONTINUOUS
  0
ENDTAB
  0
TABLE
  2
STYLE
 70
     5
  0
STYLE
  2
STANDARD
 70
     0
 40
0.0
 41
1.0
 50
0.0
 71
     0
 42
2.5
  3
txt
  4

  0
STYLE
  2
NISSIN5
 70
     0
 40
5.0
 41
1.0
 50
0.0
 71
     0
 42
3.5
  3
txt
  4

  0
STYLE
  2
NISSIN3_5
 70
     0
 40
3.5
 41
1.0
 50
0.0
 71
     0
 42
3.5
  3
txt
  4

  0
STYLE
  2
NISSIN3
 70
     0
 40
3.0
 41
1.0
 50
0.0
 71
     0
 42
4.0
  3
txt
  4

  0
STYLE
  2
NISSIN2
 70
     0
 40
2.0
 41
1.0
 50
0.0
 71
     0
 42
4.0
  3
txt
  4

  0
ENDTAB
  0
TABLE
  2
VIEW
 70
     0
  0
ENDTAB
  0
TABLE
  2
UCS
 70
     0
  0
ENDTAB
  0
TABLE
  2
APPID
 70
     1
  0
APPID
  2
ACAD
 70
     0
  0
ENDTAB
  0
TABLE
  2
DIMSTYLE
 70
     2
  0
DIMSTYLE
  2
ISO-25
 70
     0
  3

  4

  5

  6

  7

 40
1.0
 41
2.5
 42
0.625
 43
3.75
 44
1.25
 45
0.0
 46
0.0
 47
0.0
 48
0.0
140
2.5
141
2.5
142
0.0
143
0.03937007874016
144
1.0
145
0.0
146
1.0
147
0.625
 71
     0
 72
     0
 73
     0
 74
     0
 75
     0
 76
     0
 77
     1
 78
     8
170
     0
171
     3
172
     1
173
     0
174
     0
175
     0
176
     0
177
     0
178
     0
  0
DIMSTYLE
  2
NISSINSTYLE
 70
     0
  3

  4

  5

  6

  7

 40
1.0
 41
3.0
 42
2.0
 43
3.75
 44
3.0
 45
0.0
 46
0.0
 47
0.0
 48
0.0
140
3.5
141
3.0
142
0.0
143
0.03937007874016
144
1.0
145
0.0
146
1.0
147
0.625
 71
     0
 72
     0
 73
     0
 74
     0
 75
     0
 76
     0
 77
     1
 78
     8
170
     0
171
     3
172
     1
173
     0
174
     0
175
     0
176
     0
177
     0
178
     0
  0
ENDTAB
  0
ENDSEC
  0
SECTION
  2
BLOCKS
  0
BLOCK
  8
0
  2
$MODEL_SPACE
 70
     0
 10
0.0
 20
0.0
 30
0.0
  3
$MODEL_SPACE
  1

  0
ENDBLK
  5
9
  8
0
  0
BLOCK
 67
     1
  8
0
  2
$PAPER_SPACE
 70
     0
 10
0.0
 20
0.0
 30
0.0
  3
$PAPER_SPACE
  1

  0
ENDBLK
  5
E
 67
     1
  8
0
  0
BLOCK
  8
0
  2
*D0
 70
     1
 10
0.0
 20
0.0
 30
0.0
  3
*D0
  1

  0
LINE
  5
5A
  8
寸法
 62
     0
 10
112.2466332931057
 20
74.469256391486454
 30
0.0
 11
112.2466332931057
 21
103.9358480542911
 31
0.0
  0
LINE
  5
5B
  8
寸法
 62
     0
 10
252.2466332931057
 20
74.469256391486397
 30
0.0
 11
252.2466332931057
 21
103.9358480542911
 31
0.0
  0
LINE
  5
5C
  8
寸法
 62
     0
 10
115.2466332931057
 20
100.9358480542911
 30
0.0
 11
249.24663329310579
 21
100.9358480542911
 31
0.0
  0
SOLID
  5
5D
  8
寸法
 62
     0
 10
115.2466332931057
 20
101.4358480542911
 30
0.0
 11
115.2466332931057
 21
100.4358480542911
 31
0.0
 12
112.2466332931057
 22
100.9358480542911
 32
0.0
 13
112.2466332931057
 23
100.9358480542911
 33
0.0
  0
SOLID
  5
5E
  8
寸法
 62
     0
 10
249.24663329310579
 20
101.4358480542911
 30
0.0
 11
249.24663329310579
 21
100.4358480542911
 31
0.0
 12
252.2466332931057
 22
100.9358480542911
 32
0.0
 13
252.2466332931057
 23
100.9358480542911
 33
0.0
  0
INSERT
  5
5F
  8
0
  2
*U8
 10
0.0
 20
0.0
 30
0.0
  0
POINT
  5
60
  8
DEFPOINTS
 62
     0
 10
112.2466332931057
 20
72.469256391486454
 30
0.0
  0
POINT
  5
61
  8
DEFPOINTS
 62
     0
 10
252.2466332931057
 20
72.469256391486397
 30
0.0
  0
POINT
  5
62
  8
DEFPOINTS
 62
     0
 10
252.2466332931057
 20
100.9358480542911
 30
0.0
  0
ENDBLK
  5
64
  8
0
  0
BLOCK
  8
0
  2
*D1
 70
     1
 10
0.0
 20
0.0
 30
0.0
  3
*D1
  1

  0
LINE
  5
4B
  8
寸法
 62
     0
 10
119.7476089028618
 20
74.469256391486454
 30
0.0
 11
119.7476089028618
 21
95.468747709973684
 31
0.0
  0
LINE
  5
4C
  8
寸法
 62
     0
 10
244.7476089028618
 20
74.469256391486397
 30
0.0
 11
244.7476089028618
 21
95.468747709973684
 31
0.0
  0
LINE
  5
4D
  8
寸法
 62
     0
 10
122.7476089028618
 20
92.468747709973684
 30
0.0
 11
241.7476089028618
 21
92.468747709973684
 31
0.0
  0
SOLID
  5
4E
  8
寸法
 62
     0
 10
122.7476089028618
 20
92.968747709973684
 30
0.0
 11
122.7476089028618
 21
91.968747709973684
 31
0.0
 12
119.7476089028618
 22
92.468747709973684
 32
0.0
 13
119.7476089028618
 23
92.468747709973684
 33
0.0
  0
SOLID
  5
4F
  8
寸法
 62
     0
 10
241.7476089028618
 20
92.968747709973684
 30
0.0
 11
241.7476089028618
 21
91.968747709973684
 31
0.0
 12
244.7476089028618
 22
92.468747709973684
 32
0.0
 13
244.7476089028618
 23
92.468747709973684
 33
0.0
  0
INSERT
  5
50
  8
0
  2
*U7
 10
0.0
 20
0.0
 30
0.0
  0
POINT
  5
51
  8
DEFPOINTS
 62
     0
 10
119.7476089028618
 20
72.469256391486454
 30
0.0
  0
POINT
  5
52
  8
DEFPOINTS
 62
     0
 10
244.7476089028618
 20
72.469256391486397
 30
0.0
  0
POINT
  5
53
  8
DEFPOINTS
 62
     0
 10
244.7476089028618
 20
92.468747709973684
 30
0.0
  0
ENDBLK
  5
55
  8
0
  0
BLOCK
  8
0
  2
*D2
 70
     1
 10
0.0
 20
0.0
 30
0.0
  3
*D2
  1

  0
LINE
  5
3C
  8
寸法
 62
     0
 10
128.2466332931057
 20
74.469256391486454
 30
0.0
 11
128.2466332931057
 21
85.325998950226108
 31
0.0
  0
LINE
  5
3D
  8
寸法
 62
     0
 10
236.2466332931057
 20
74.469256391486397
 30
0.0
 11
236.2466332931057
 21
85.325998950226108
 31
0.0
  0
LINE
  5
3E
  8
寸法
 62
     0
 10
131.2466332931057
 20
82.325998950226108
 30
0.0
 11
233.2466332931057
 21
82.325998950226108
 31
0.0
  0
SOLID
  5
3F
  8
寸法
 62
     0
 10
131.2466332931057
 20
82.825998950226108
 30
0.0
 11
131.2466332931057
 21
81.825998950226094
 31
0.0
 12
128.2466332931057
 22
82.325998950226108
 32
0.0
 13
128.2466332931057
 23
82.325998950226108
 33
0.0
  0
SOLID
  5
40
  8
寸法
 62
     0
 10
233.2466332931057
 20
82.825998950226108
 30
0.0
 11
233.2466332931057
 21
81.825998950226094
 31
0.0
 12
236.2466332931057
 22
82.325998950226108
 32
0.0
 13
236.2466332931057
 23
82.325998950226108
 33
0.0
  0
INSERT
  5
41
  8
0
  2
*U6
 10
0.0
 20
0.0
 30
0.0
  0
POINT
  5
42
  8
DEFPOINTS
 62
     0
 10
128.2466332931057
 20
72.469256391486454
 30
0.0
  0
POINT
  5
43
  8
DEFPOINTS
 62
     0
 10
236.2466332931057
 20
72.469256391486397
 30
0.0
  0
POINT
  5
44
  8
DEFPOINTS
 62
     0
 10
236.2466332931057
 20
82.325998950226108
 30
0.0
  0
ENDBLK
  5
46
  8
0
  0
BLOCK
  8
0
  2
*D3
 70
     1
 10
0.0
 20
0.0
 30
0.0
  3
*D3
  1

  0
LINE
  5
79
  8
寸法
 62
     0
 10
110.2466332931058
 20
72.469256391486454
 30
0.0
 11
99.246759314271856
 21
72.469256391486454
 31
0.0
  0
LINE
  5
7A
  8
寸法
 62
     0
 10
110.2466332931058
 20
48.469256391486461
 30
0.0
 11
99.246759314271856
 21
48.469256391486461
 31
0.0
  0
LINE
  5
7B
  8
寸法
 62
     0
 10
102.2467593142718
 20
69.469256391486454
 30
0.0
 11
102.2467593142718
 21
51.469256391486461
 31
0.0
  0
SOLID
  5
7C
  8
寸法
 62
     0
 10
101.7467593142718
 20
69.469256391486454
 30
0.0
 11
102.7467593142718
 21
69.469256391486454
 31
0.0
 12
102.2467593142718
 22
72.469256391486454
 32
0.0
 13
102.2467593142718
 23
72.469256391486454
 33
0.0
  0
SOLID
  5
7D
  8
寸法
 62
     0
 10
101.7467593142718
 20
51.469256391486461
 30
0.0
 11
102.7467593142718
 21
51.469256391486461
 31
0.0
 12
102.2467593142718
 22
48.469256391486461
 32
0.0
 13
102.2467593142718
 23
48.469256391486461
 33
0.0
  0
TEXT
  5
7E
  8
0
 62
     0
 10
101.6217593142718
 20
58.168494970166677
 30
0.0
 40
3.5
  1
24
 50
90.0
  7
NISSIN3_5
  0
POINT
  5
7F
  8
DEFPOINTS
 62
     0
 10
112.2466332931057
 20
72.469256391486454
 30
0.0
  0
POINT
  5
80
  8
DEFPOINTS
 62
     0
 10
112.2466332931057
 20
48.469256391486446
 30
0.0
  0
POINT
  5
81
  8
DEFPOINTS
 62
     0
 10
102.2467593142718
 20
48.469256391486461
 30
0.0
  0
ENDBLK
  5
83
  8
0
  0
BLOCK
  8
0
  2
*D4
 70
     1
 10
0.0
 20
0.0
 30
0.0
  3
*D4
  1

  0
LINE
  5
2C
  8
寸法
 62
     0
 10
237.28446725687351
 20
70.271698521513287
 30
0.0
 11
236.43127590045
 21
73.455852012264202
 31
0.0
  0
ARC
  5
2D
  8
寸法
 62
     0
 10
243.1264140186407
 20
48.469256391486432
 30
0.0
 40
22.868027275730181
 50
112.5218922241438
 51
172.47810777585681
  0
SOLID
  5
2E
  8
寸法
 62
     0
 10
234.2063167448116
 20
70.066647785606236
 30
0.0
 11
234.52793711117329
 21
69.119779083017846
 31
0.0
 12
237.20773303575751
 22
70.55807453339699
 32
0.0
 13
237.20773303575751
 23
70.55807453339699
 33
0.0
  0
SOLID
  5
2F
  8
寸法
 62
     0
 10
220.9540912419952
 20
51.42999873926901
 30
0.0
 11
219.956244831953
 21
51.495592503956892
 31
0.0
 12
220.25838674291049
 22
48.469256391486411
 32
0.0
 13
220.25838674291049
 23
48.469256391486411
 33
0.0
  0
TEXT
  5
30
  8
0
 62
     0
 10
222.04073600169971
 20
59.581383189170928
 30
0.0
 40
3.0
  1
75°
 50
52.500000000000369
  7
NISSIN3
  0
POINT
  5
31
  8
DEFPOINTS
 62
     0
 10
228.4271294278274
 20
65.987181611152636
 30
0.0
  0
POINT
  5
33
  8
DEFPOINTS
 62
     0
 10
237.80210534707851
 20
68.339846868935169
 30
0.0
  0
POINT
  5
34
  8
DEFPOINTS
 62
     0
 10
122.2466332931058
 20
48.469256391486468
 30
0.0
  0
POINT
  5
35
  8
DEFPOINTS
 62
     0
 10
242.2466332931057
 20
48.469256391486411
 30
0.0
  0
POINT
  5
36
  8
DEFPOINTS
 62
     0
 10
242.72449022999399
 20
49.969256391486418
 30
0.0
  0
ENDBLK
  5
38
  8
0
  0
BLOCK
  8
0
  2
*D5
 70
     1
 10
0.0
 20
0.0
 30
0.0
  3
*D5
  1

  0
LINE
  5
15C
  8
寸法
 62
     0
 10
237.28446725687351
 20
70.271698521513272
 30
0.0
 11
236.43127590044989
 21
73.455852012264145
 31
0.0
  0
ARC
  5
15D
  8
寸法
 62
     0
 10
243.1264140186407
 20
48.469256391486432
 30
0.0
 40
22.868027275730171
 50
112.5218922241438
 51
172.47810777585681
  0
SOLID
  5
15E
  8
寸法
 62
     0
 10
234.2063167448116
 20
70.066647785606207
 30
0.0
 11
234.52793711117329
 21
69.119779083017846
 31
0.0
 12
237.20773303575751
 22
70.558074533396962
 32
0.0
 13
237.20773303575751
 23
70.558074533396962
 33
0.0
  0
SOLID
  5
15F
  8
寸法
 62
     0
 10
220.9540912419952
 20
51.429998739269031
 30
0.0
 11
219.95624483195309
 21
51.495592503956907
 31
0.0
 12
220.25838674291049
 22
48.469256391486432
 32
0.0
 13
220.25838674291049
 23
48.469256391486432
 33
0.0
  0
TEXT
  8
0
  40
3
  5
1A0
  62
0
  72
0
  71
0
 10
223.298
 20
59.7840
 30
0.000000
  1
75°
  7
NISSIN3
  0
POINT
  5
161
  8
DEFPOINTS
 62
     0
 10
228.4271294278274
 20
65.987181611152636
 30
0.0
  0
POINT
  5
162
  8
DEFPOINTS
 62
     0
 10
237.80210534707851
 20
68.339846868935169
 30
0.0
  0
POINT
  5
163
  8
DEFPOINTS
 62
     0
 10
122.2466332931058
 20
48.469256391486468
 30
0.0
  0
POINT
  5
164
  8
DEFPOINTS
 62
     0
 10
242.2466332931057
 20
48.469256391486411
 30
0.0
  0
POINT
  5
165
  8
DEFPOINTS
 62
     0
 10
242.72449022999399
 20
49.969256391486418
 30
0.0
  0
ENDBLK
  5
167
  8
0
  0
BLOCK
  8
0
  2
*U6
 70
     1
 10
0.0
 20
0.0
 30
0.0
  3
*U6
  1

  0
TEXT
  5
169
  8
0
 62
     0
 10
177.82277542508541
 20
82.950998950226108
 30
0.0
 40
3.5
  1
\U+2205
  7
NISSIN3_5
  0
TEXT
  5
16A
  8
0
 62
     0
 10
180.09688710021231
 20
82.950998950226108
 30
0.0
 40
3.5
  1
108
  7
NISSIN3_5
  0
ENDBLK
  5
16C
  8
0
  0
BLOCK
  8
0
  2
*U7
 70
     1
 10
0.0
 20
0.0
 30
0.0
  3
*U7
  1

  0
TEXT
  5
16E
  8
0
 62
     0
 10
177.8415175323035
 20
93.093747709973684
 30
0.0
 40
3.5
  1
\U+2205
  7
NISSIN3_5
  0
TEXT
  5
16F
  8
0
 62
     0
 10
180.1156292074304
 20
93.093747709973684
 30
0.0
 40
3.5
  1
125
  7
NISSIN3_5
  0
ENDBLK
  5
171
  8
0
  0
BLOCK
  8
0
  2
*U8
 70
     1
 10
0.0
 20
0.0
 30
0.0
  3
*U8
  1

  0
TEXT
  5
173
  8
0
 62
     0
 10
177.79612567889251
 20
101.5608480542911
 30
0.0
 40
3.5
  1
\U+2205
  7
NISSIN3_5
  0
TEXT
  5
174
  8
0
 62
     0
 10
180.07023735401941
 20
101.5608480542911
 30
0.0
 40
3.5
  1
140
  7
NISSIN3_5
  0
ENDBLK
  5
176
  8
0
  0
BLOCK
  8
0
  2
*X9
 70
     1
 10
0.0
 20
0.0
 30
0.0
  3
*X9
  1

  0
LINE
  5
17B
  8
0
 62
     0
 10
120.3113053600396
 20
48.469256391486446
 30
0.0
 11
121.8113053600396
 21
49.969256391486461
 31
0.0
  0
LINE
  5
17C
  8
0
 62
     0
 10
115.82117729950509
 20
48.469256391486446
 30
0.0
 11
118.82117729950509
 21
51.469256391486446
 31
0.0
  0
LINE
  5
17D
  8
0
 62
     0
 10
115.0466372931056
 20
52.184844445621501
 30
0.0
 11
117.2466332931057
 21
54.384840445621698
 31
0.0
  0
LINE
  5
17E
  8
0
 62
     0
 10
112.2466332931057
 20
49.384840445621691
 30
0.0
 11
113.4466292931059
 21
50.584836445621839
 31
0.0
  0
LINE
  5
17F
  8
0
 62
     0
 10
126.84092117843591
 20
68.469256391486454
 30
0.0
 11
128.2466332931057
 21
69.874968506156264
 31
0.0
  0
LINE
  5
180
  8
0
 62
     0
 10
112.2466332931057
 20
53.874968506156272
 30
0.0
 11
117.2466332931057
 21
58.874968506156293
 31
0.0
  0
LINE
  5
181
  8
0
 62
     0
 10
122.3507931179014
 20
68.469256391486454
 30
0.0
 11
126.3507931179013
 21
72.469256391486425
 31
0.0
  0
LINE
  5
182
  8
0
 62
     0
 10
112.2466332931057
 20
58.365096566690838
 30
0.0
 11
117.2466332931057
 21
63.365096566690838
 31
0.0
  0
LINE
  5
183
  8
0
 62
     0
 10
121.2476089028618
 20
71.856200236981522
 30
0.0
 11
121.8606650573667
 21
72.469256391486425
 31
0.0
  0
LINE
  5
184
  8
0
 62
     0
 10
112.2466332931057
 20
62.855224627225418
 30
0.0
 11
118.2476089028618
 21
68.856200236981465
 31
0.0
  0
LINE
  5
185
  8
0
 62
     0
 10
112.2466332931057
 20
67.345352687759984
 30
0.0
 11
117.3705369968322
 21
72.469256391486439
 31
0.0
  0
LINE
  5
186
  8
0
 62
     0
 10
112.2466332931057
 20
71.835480748294586
 30
0.0
 11
112.8804089362976
 21
72.469256391486454
 31
0.0
  0
ENDBLK
  5
188
  8
0
  0
BLOCK
  8
0
  2
*X10
 70
     1
 10
0.0
 20
0.0
 30
0.0
  3
*X10
  1

  0
LINE
  5
18D
  8
0
 62
     0
 10
251.04663729310579
 20
48.990874569049822
 30
0.0
 11
252.2466332931057
 21
50.190870569049821
 31
0.0
  0
LINE
  5
18E
  8
0
 62
     0
 10
251.03880638940041
 20
53.473171725879013
 30
0.0
 11
252.2466332931057
 21
54.680998629584387
 31
0.0
  0
LINE
  5
18F
  8
0
 62
     0
 10
246.03489105500771
 20
48.469256391486397
 30
0.0
 11
249.44662929310579
 21
51.880994629584471
 31
0.0
  0
LINE
  5
190
  8
0
 62
     0
 10
244.2466332931057
 20
51.171126690118982
 30
0.0
 11
244.54476299447319
 21
51.469256391486383
 31
0.0
  0
LINE
  5
191
  8
0
 62
     0
 10
247.24663329310579
 20
54.171126690118982
 30
0.0
 11
252.2466332931057
 21
59.171126690118982
 31
0.0
  0
LINE
  5
192
  8
0
 62
     0
 10
242.2466332931057
 20
49.171126690118982
 30
0.0
 11
243.04476299447319
 21
49.969256391486411
 31
0.0
  0
LINE
  5
193
  8
0
 62
     0
 10
247.24663329310579
 20
58.661254750653562
 30
0.0
 11
252.2466332931057
 21
63.661254750653562
 31
0.0
  0
LINE
  5
194
  8
0
 62
     0
 10
247.24663329310579
 20
63.151382811188157
 30
0.0
 11
252.2466332931057
 21
68.151382811188114
 31
0.0
  0
LINE
  5
195
  8
0
 62
     0
 10
246.24565768334969
 20
66.640535261966662
 30
0.0
 11
252.0743788128695
 21
72.469256391486411
 31
0.0
  0
LINE
  5
196
  8
0
 62
     0
 10
246.24565768334961
 20
71.130663322501164
 30
0.0
 11
247.5842507523349
 21
72.469256391486383
 31
0.0
  0
LINE
  5
197
  8
0
 62
     0
 10
239.09412269180029
 20
68.469256391486383
 30
0.0
 11
243.09412269180029
 21
72.469256391486411
 31
0.0
  0
LINE
  5
198
  8
0
 62
     0
 10
236.2466332931057
 20
70.111895053326393
 30
0.0
 11
238.60399463126569
 21
72.469256391486411
 31
0.0
  0
ENDBLK
  5
19A
  8
0
  0
BLOCK
  8
0
  2
*U11
 70
     1
 10
0.0
 20
0.0
 30
0.0
  3
*U11
  1

  0
TEXT
  5
19C
  8
0
 10
234.275263834893
 20
18.491754724549342
 30
0.0
 40
5.0
  1
MODEL []DR-LA140
  7
NISSIN2
  0
TEXT
  5
19D
  8
0
 10
234.24988312423321
 20
10.15842139121601
 30
0.0
 40
5.0
  1
NISSIN ELECTRONIC CO.,LTD.
  7
NISSIN2
  0
ENDBLK
  5
19F
  8
0
  0
ENDSEC
  0
SECTION
  2
ENTITIES
  0
DIMENSION
  5
26
  8
寸法
  2
*D5
 10
242.72449022999399
 20
49.96925639148639
 30
0.0
 11
223.29811234545019
 21
63.684047391113758
 31
0.0
 70
     2
 13
122.2466332931057
 23
48.469256391486446
 33
0.0
 14
242.2466332931057
 24
48.469256391486397
 34
0.0
 15
237.80210534707851
 25
68.339846868935126
 35
0.0
 16
228.4271294278274
 26
65.987181611152636
 36
0.0
1001
ACAD
1000
DSTYLE
1002
{
1070
   271
1070
     0
1070
   340
1005
2A
1002
}
  0
DIMENSION
  5
39
  8
寸法
  2
*D2
 10
236.2466332931057
 20
82.325998950226108
 30
0.0
 11
182.24663329310579
 21
84.700998950226108
 31
0.0
  1
%%c<>
 13
128.2466332931057
 23
72.469256391486454
 33
0.0
 14
236.2466332931057
 24
72.469256391486397
 34
0.0
1001
ACAD
1000
DSTYLE
1002
{
1070
   340
1005
3A
1002
}
  0
DIMENSION
  5
47
  8
寸法
  2
*D1
 10
244.7476089028618
 20
92.468747709973684
 30
0.0
 11
182.2476089028618
 21
94.843747709973684
 31
0.0
  1
%%c<>
 13
119.7476089028618
 23
72.469256391486454
 33
0.0
 14
244.7476089028618
 24
72.469256391486397
 34
0.0
1001
ACAD
1000
DSTYLE
1002
{
1070
   340
1005
3A
1002
}
  0
DIMENSION
  5
56
  8
寸法
  2
*D0
 10
252.2466332931057
 20
100.9358480542911
 30
0.0
 11
182.24663329310579
 21
103.3108480542911
 31
0.0
  1
%%c<>
 13
112.2466332931057
 23
72.469256391486454
 33
0.0
 14
252.2466332931057
 24
72.469256391486397
 34
0.0
1001
ACAD
1000
DSTYLE
1002
{
1070
   340
1005
3A
1002
}
  0
POLYLINE
  5
65
  8
図形
 66
     1
 10
0.0
 20
0.0
 30
0.0
1001
ACAD
1000
ASC_BOUNDS
1002
{
1070
    19
1005
CA
1005
CA
1002
}
  0
VERTEX
  5
177
  8
図形
 10
252.2466332931057
 20
72.469256391486397
 30
0.0
  0
VERTEX
  5
178
  8
図形
 10
182.2466332931057
 20
72.469256391486397
 30
0.0
  0
SEQEND
  5
179
  8
図形
  0
LINE
  5
67
  8
図形
 10
122.2466332931057
 20
48.469256391486446
 30
0.0
 11
242.2466332931057
 21
48.469256391486397
 31
0.0
  0
LINE
  5
68
  8
図形
 10
236.2466332931057
 20
67.469256391486397
 30
0.0
 11
128.2466332931057
 21
67.469256391486454
 31
0.0
  0
LINE
  5
69
  8
基準線
 10
257.24663329310567
 20
192.4697985655007
 30
0.0
 11
107.2466332931057
 21
192.46979856550081
 31
0.0
  0
CIRCLE
  5
6C
  8
図形
 10
182.2466332931057
 20
192.46979856550081
 30
0.0
 40
70.0
  0
CIRCLE
  5
6D
  8
図形
 10
182.2466332931057
 20
192.46979856550081
 30
0.0
 40
54.0
  0
LINE
  5
6E
  8
基準線
 10
182.24663329310579
 20
267.4697985655007
 30
0.0
 11
182.24663329310579
 21
117.4697985655008
 31
0.0
  0
INSERT
  5
6F
  8
図形
  6
CONTINUOUS
  2
*X9
 10
0.0
 20
0.0
 30
0.0
1001
ACAD
1000
HATCH
1002
{
1070
    19
1000
ANSI31
1040
1.0
1040
0.0
1000
ASC_BOUNDS
1070
     2
1070
     1
1070
     6
1005
B9
1005
8A
1005
B7
1005
B6
1005
B1
1005
88
1070
     1
1070
    18
1005
AF
1005
AD
1005
91
1005
95
1005
A2
1005
A3
1005
84
1005
71
1005
96
1005
70
1005
98
1005
9B
1005
72
1005
99
1005
73
1005
87
1005
86
1005
88
1000
ASC_SEEDPOINT
1011
115.5134273334875
1021
4.0927737909651586E+149
1031
6.3949590379631004E+147
1021
66.026964143003383
1031
0.0
1000
R14_HATCH_DATA
1000
6F
1011
1.0
1021
4.0927737909651586E+149
1031
6.3949590379631004E+147
1021
0.0
1031
0.0
1011
0.0
1021
4.0927737909651586E+149
1031
6.3949590379631004E+147
1021
1.0
1031
0.0
1011
0.0
1021
4.0927737909651586E+149
1031
6.3949590379631004E+147
1021
0.0
1031
1.0
1040
0.0
1010
0.0
1020
0.0
1030
1.0
1000
ANSI31
1070
     0
1070
     1
1071
        2
1071
        7
1070
     0
1070
     1
1071
       19
1040
118.2476089028618
1040
72.469256391486439
1040
112.2466332931057
1040
72.469256391486454
1040
112.2466332931057
1040
48.469256391486461
1040
113.446629293106
1040
48.469256391486461
1040
113.4466292931057
1040
53.469256391486319
1040
113.6466352931059
1040
53.569256391486327
1040
113.6466352931059
1040
53.969251391486338
1040
114.2466332931059
1040
54.315661391486437
1040
114.8466312931059
1040
53.969251391486459
1040
114.8466312931059
1040
53.569256391486441
1040
115.0466372931055
1040
53.469256391486432
1040
115.0466372931058
1040
48.469256391486446
1040
122.2466332931058
1040
48.469256391486446
1040
122.2466332931057
1040
49.969256391486461
1040
120.2466332931057
1040
49.969256391486461
1040
120.2466332931057
1040
51.469256391486446
1040
117.2466332931058
1040
51.469256391486446
1040
117.2466332931057
1040
64.469256391486454
1040
118.2476089028617
1040
64.469256391486454
1071
       18
1005
88
1005
86
1005
87
1005
73
1005
99
1005
72
1005
9B
1005
98
1005
70
1005
96
1005
71
1005
84
1005
A3
1005
A2
1005
95
1005
91
1005
AD
1005
AF
1071
        7
1070
     0
1070
     1
1071
        6
1040
128.2466332931057
1040
72.469256391486425
1040
121.2476089028618
1040
72.469256391486439
1040
121.2476089028618
1040
68.469256391486454
1040
127.2466332931057
1040
68.469256391486454
1040
127.2466332931057
1040
67.469256391486454
1040
128.2466332931057
1040
67.469256391486454
1071
        6
1005
88
1005
B1
1005
B6
1005
B7
1005
8A
1005
B9
1070
     0
1070
     1
1040
0.0
1040
1.0
1070
     0
1070
     1
1040
0.7853981633974483
1040
0.0
1040
0.0
1040
-2.2450640302672871
1040
2.245064030267288
1070
     0
1040
0.1947204781488242
1071
        2
1040
115.5134273334875
1040
66.026964143003383
1040
0.0
1040
125.2558757890659
1040
71.868578190082985
1040
0.0
1002
}
  0
LINE
  5
70
  8
図形
 10
114.8466312931059
 20
53.969251391486459
 30
0.0
 11
114.8466312931059
 21
48.469256391486446
 31
0.0
1001
ACAD
1000
ASC_BOUNDS
1002
{
1070
    19
1005
6F
1002
}
  0
LINE
  5
71
  8
図形
 10
115.0466372931055
 20
53.469256391486446
 30
0.0
 11
115.0466372931058
 21
48.469256391486446
 31
0.0
1001
ACAD
1000
ASC_BOUNDS
1002
{
1070
    19
1005
6F
1002
}
  0
LINE
  5
72
  8
図形
 10
113.6466352931059
 20
53.969251391486459
 30
0.0
 11
113.6466352931061
 21
48.469256391486446
 31
0.0
1001
ACAD
1000
ASC_BOUNDS
1002
{
1070
    19
1005
6F
1002
}
  0
LINE
  5
73
  8
図形
 10
113.4466292931057
 20
53.469256391486446
 30
0.0
 11
113.446629293106
 21
48.469256391486446
 31
0.0
1001
ACAD
1000
ASC_BOUNDS
1002
{
1070
    19
1005
6F
1002
}
  0
LINE
  5
74
  8
基準線
 10
114.2466332931057
 20
55.315661391486458
 30
0.0
 11
114.2466332931057
 21
47.469256391486446
 31
0.0
  0
DIMENSION
  5
75
  8
寸法
  2
*D3
 10
102.2467593142718
 20
48.469256391486461
 30
0.0
 11
99.871759314271841
 21
60.469256391486468
 31
0.0
 13
112.2466332931057
 23
72.469256391486454
 33
0.0
 14
112.2466332931057
 24
48.469256391486446
 34
0.0
 50
270.0
1001
ACAD
1000
DSTYLE
1002
{
1070
   340
1005
3A
1002
}
  0
LINE
  5
84
  8
図形
 10
122.2466332931057
 20
48.469256391486446
 30
0.0
 11
122.2466332931057
 21
49.969256391486461
 31
0.0
1001
ACAD
1000
ASC_BOUNDS
1002
{
1070
    19
1005
6F
1002
}
  0
LINE
  5
85
  8
基準線
 10
182.24663329310579
 20
75.469256391486397
 30
0.0
 11
182.24663329310579
 21
45.46925639148639
 31
0.0
  0
LINE
  5
86
  8
図形
 10
112.2466332931057
 20
48.469256391486446
 30
0.0
 11
112.2466332931057
 21
72.469256391486454
 31
0.0
1001
ACAD
1000
ASC_BOUNDS
1002
{
1070
    19
1005
6F
1002
}
  0
LINE
  5
87
  8
図形
 10
112.2466332931057
 20
48.469256391486446
 30
0.0
 11
122.2466332931057
 21
48.469256391486446
 31
0.0
1001
ACAD
1000
ASC_BOUNDS
1002
{
1070
    19
1005
6F
1002
}
  0
POLYLINE
  5
88
  8
図形
 66
     1
 10
0.0
 20
0.0
 30
0.0
1001
ACAD
1000
ASC_BOUNDS
1002
{
1070
    19
1005
6F
1005
6F
1002
}
  0
VERTEX
  5
189
  8
図形
 10
112.2466332931057
 20
72.469256391486454
 30
0.0
  0
VERTEX
  5
18A
  8
図形
 10
182.24663329310579
 20
72.469256391486397
 30
0.0
  0
SEQEND
  5
18B
  8
図形
  0
LINE
  5
89
  8
基準線
 10
119.7476089028618
 20
74.469256391486454
 30
0.0
 11
119.7476089028618
 21
62.469256391486461
 31
0.0
  0
LINE
  5
8A
  8
図形
 10
128.2466332931057
 20
67.469256391486454
 30
0.0
 11
127.2466332931057
 21
67.469256391486454
 31
0.0
1001
ACAD
1000
ASC_BOUNDS
1002
{
1070
    19
1005
6F
1002
}
  0
ARC
  5
8B
  8
図形
 10
129.25530616197079
 20
64.010943985677272
 30
0.0
 40
1.5499999999999781
 50
255.239253188406
 51
75.239253188412178
  0
ARC
  5
8C
  8
図形
 10
128.2200299815608
 20
60.147240680521008
 30
0.0
 40
1.5499999999999781
 50
255.239253188406
 51
75.239253188412178
  0
ARC
  5
8D
  8
図形
 10
127.18475380115061
 20
56.283537375364752
 30
0.0
 40
1.5499999999999781
 50
255.239253188406
 51
75.239253188412178
  0
LINE
  5
8E
  8
図形
 10
126.76495356161411
 20
66.282924023762462
 30
0.0
 11
129.66273104048119
 21
65.506466888454781
 31
0.0
  0
LINE
  5
8F
  8
図形
 10
125.9626145217962
 20
63.288553962266292
 30
0.0
 11
128.86039200066341
 21
62.512096826958718
 31
0.0
  0
LINE
  5
90
  8
図形
 10
125.7296773812039
 20
62.419220718606198
 30
0.0
 11
128.62745486007111
 21
61.642763583298567
 31
0.0
  0
LINE
  5
91
  8
図形
 10
117.2466332931057
 20
51.469256391486446
 30
0.0
 11
117.2466332931057
 21
64.469256391486454
 31
0.0
1001
ACAD
1000
ASC_BOUNDS
1002
{
1070
    19
1005
6F
1002
}
  0
LINE
  5
92
  8
図形
 10
126.21197575548059
 20
68.469256391486454
 30
0.0
 11
121.2895908725653
 21
50.098665914037717
 31
0.0
  0
LINE
  5
93
  8
図形
 10
121.7725537857098
 20
49.969256391486461
 30
0.0
 11
126.6949386686252
 21
68.339846868935183
 31
0.0
  0
LINE
  5
94
  8
図形
 10
125.82026404698991
 20
62.757294757807351
 30
0.0
 11
124.8367516756002
 21
59.08677661790886
 31
0.0
  0
LINE
  5
95
  8
図形
 10
120.2466332931057
 20
51.469256391486446
 30
0.0
 11
117.2466332931057
 21
51.469256391486446
 31
0.0
1001
ACAD
1000
ASC_BOUNDS
1002
{
1070
    19
1005
6F
1002
}
  0
LINE
  5
96
  8
図形
 10
114.8466312931059
 20
53.569256391486448
 30
0.0
 11
115.0466372931055
 21
53.469256391486446
 31
0.0
1001
ACAD
1000
ASC_BOUNDS
1002
{
1070
    19
1005
6F
1002
}
  0
LINE
  5
97
  8
図形
 10
113.4466292931057
 20
53.469256391486333
 30
0.0
 11
115.0466372931055
 21
53.469256391486446
 31
0.0
  0
LINE
  5
98
  8
図形
 10
114.8466312931059
 20
53.969251391486459
 30
0.0
 11
114.2466332931059
 21
54.315661391486458
 31
0.0
1001
ACAD
1000
ASC_BOUNDS
1002
{
1070
    19
1005
6F
1002
}
  0
LINE
  5
99
  8
図形
 10
113.446629293106
 20
53.469256391486446
 30
0.0
 11
113.6466352931061
 21
53.569256391486448
 31
0.0
1001
ACAD
1000
ASC_BOUNDS
1002
{
1070
    19
1005
6F
1002
}
  0
LINE
  5
9A
  8
図形
 10
114.8466312931059
 20
53.969251391486459
 30
0.0
 11
113.6466352931061
 21
53.969251391486459
 31
0.0
  0
LINE
  5
9B
  8
図形
 10
113.6466352931061
 20
53.969251391486459
 30
0.0
 11
114.2466332931059
 21
54.315661391486458
 31
0.0
1001
ACAD
1000
ASC_BOUNDS
1002
{
1070
    19
1005
6F
1002
}
  0
LINE
  5
9C
  8
図形
 10
112.2466332931057
 20
54.315661391486557
 30
0.0
 11
112.2466332931057
 21
54.315661391486557
 31
0.0
  0
LINE
  5
9D
  8
図形
 10
123.892062160976
 20
55.561147351953757
 30
0.0
 11
126.78983963984319
 21
54.78469021664619
 31
0.0
  0
LINE
  5
9E
  8
図形
 10
123.8014754951901
 20
55.223073312752611
 30
0.0
 11
123.2219199994167
 21
55.37836473981411
 31
0.0
  0
LINE
  5
9F
  8
図形
 10
124.7849878665797
 20
58.893591452651087
 30
0.0
 11
123.8014754951901
 21
55.223073312752611
 31
0.0
  0
LINE
  5
A0
  8
図形
 10
123.6591250203837
 20
54.691814108293613
 30
0.0
 11
126.5569024992509
 21
53.915356972986039
 31
0.0
  0
LINE
  5
A1
  8
図形
 10
122.8567859805659
 20
51.6974440467975
 30
0.0
 11
125.7545634594331
 21
50.92098691148994
 31
0.0
  0
LINE
  5
A2
  8
図形
 10
120.2466332931057
 20
49.969256391486461
 30
0.0
 11
120.2466332931057
 21
51.469256391486446
 31
0.0
1001
ACAD
1000
ASC_BOUNDS
1002
{
1070
    19
1005
6F
1002
}
  0
LINE
  5
A3
  8
図形
 10
122.2466332931057
 20
49.969256391486461
 30
0.0
 11
120.2466332931057
 21
49.969256391486461
 31
0.0
1001
ACAD
1000
ASC_BOUNDS
1002
{
1070
    19
1005
6F
1002
}
  0
LINE
  5
A4
  8
図形
 10
121.7725537857098
 20
49.969256391486461
 30
0.0
 11
121.2895908725653
 21
50.098665914037717
 31
0.0
  0
LINE
  5
A5
  8
図形
 10
122.76619931478
 20
51.35937000759634
 30
0.0
 11
122.18664381900651
 21
51.51466143465786
 31
0.0
  0
LINE
  5
A6
  8
図形
 10
123.7497116861696
 20
55.02988814749483
 30
0.0
 11
122.76619931478
 21
51.35937000759634
 31
0.0
  0
LINE
  5
A7
  8
図形
 10
123.1701561903961
 20
55.185179574556336
 30
0.0
 11
123.7497116861696
 21
55.02988814749483
 31
0.0
  0
ARC
  5
A8
  8
図形
 10
126.1494776207312
 20
52.419834070210918
 30
0.0
 40
1.5499999999999781
 50
255.239253188406
 51
75.239253188412178
  0
LINE
  5
A9
  8
図形
 10
124.9273383413861
 20
59.424850657110028
 30
0.0
 11
127.8251158202533
 21
58.648393521802461
 31
0.0
  0
LINE
  5
AA
  8
図形
 10
124.69440120079381
 20
58.555517413449927
 30
0.0
 11
127.592178679661
 21
57.77906027814231
 31
0.0
  0
LINE
  5
AB
  8
図形
 10
124.20543237080609
 20
59.0488828797126
 30
0.0
 11
124.7849878665797
 21
58.893591452651087
 31
0.0
  0
LINE
  5
AC
  8
図形
 10
124.8367516756002
 20
59.08677661790886
 30
0.0
 11
124.25719617982681
 21
59.242068044970381
 31
0.0
  0
LINE
  5
AD
  8
図形
 10
121.2476089028617
 20
64.469256391486454
 30
0.0
 11
117.2466332931057
 21
64.469256391486454
 31
0.0
1001
ACAD
1000
ASC_BOUNDS
1002
{
1070
    19
1005
6F
1002
}
  0
LINE
  5
AE
  8
図形
 10
118.5476089028618
 20
72.469256391486454
 30
0.0
 11
118.5476089028617
 21
64.469256391486454
 31
0.0
  0
LINE
  5
AF
  8
図形
 10
118.2476089028618
 20
72.469256391486454
 30
0.0
 11
118.2476089028617
 21
64.469256391486454
 31
0.0
1001
ACAD
1000
ASC_BOUNDS
1002
{
1070
    19
1005
6F
1002
}
  0
LINE
  5
B0
  8
図形
 10
120.9476089028618
 20
72.469256391486454
 30
0.0
 11
120.9476089028617
 21
64.469256391486454
 31
0.0
  0
LINE
  5
B1
  8
図形
 10
121.2476089028617
 20
64.469256391486454
 30
0.0
 11
121.2476089028618
 21
72.469256391486454
 31
0.0
1001
ACAD
1000
ASC_BOUNDS
1002
{
1070
    19
1005
6F
1002
}
  0
LINE
  5
B2
  8
図形
 10
125.2407085512164
 20
62.912586184868871
 30
0.0
 11
125.82026404698991
 21
62.757294757807351
 31
0.0
  0
LINE
  5
B3
  8
図形
 10
125.87202785601031
 20
62.950479923065132
 30
0.0
 11
125.2924723602368
 21
63.105771350126702
 31
0.0
  0
LINE
  5
B4
  8
図形
 10
126.8555402273999
 20
66.620998062963622
 30
0.0
 11
125.87202785601031
 21
62.950479923065132
 31
0.0
  0
LINE
  5
B5
  8
図形
 10
126.27598473162649
 20
66.776289490025135
 30
0.0
 11
126.8555402273999
 21
66.620998062963622
 31
0.0
  0
LINE
  5
B6
  8
図形
 10
127.2466332931057
 20
68.469256391486454
 30
0.0
 11
121.2476089028617
 21
68.469256391486454
 31
0.0
1001
ACAD
1000
ASC_BOUNDS
1002
{
1070
    19
1005
6F
1002
}
  0
LINE
  5
B7
  8
図形
 10
127.2466332931057
 20
67.469256391486454
 30
0.0
 11
127.2466332931057
 21
68.469256391486454
 31
0.0
1001
ACAD
1000
ASC_BOUNDS
1002
{
1070
    19
1005
6F
1002
}
  0
LINE
  5
B8
  8
図形
 10
126.21197575548059
 20
68.469256391486454
 30
0.0
 11
126.6949386686252
 21
68.339846868935183
 31
0.0
  0
LINE
  5
B9
  8
図形
 10
128.2466332931057
 20
72.469256391486454
 30
0.0
 11
128.2466332931057
 21
67.469256391486454
 31
0.0
1001
ACAD
1000
ASC_BOUNDS
1002
{
1070
    19
1005
6F
1002
}
  0
CIRCLE
  5
BA
  8
図形
 10
182.2466332931057
 20
129.96979856550081
 30
0.0
 40
1.1999999999999991
  0
CIRCLE
  5
BB
  8
図形
 10
182.2466332931057
 20
129.96979856550081
 30
0.0
 40
1.5
  0
LINE
  5
BC
  8
基準線
 10
179.7466332931057
 20
129.96979856550081
 30
0.0
 11
184.7466332931057
 21
129.96979856550081
 31
0.0
  0
LINE
  5
BD
  8
基準線
 10
182.24663329310579
 20
132.46979856550081
 30
0.0
 11
182.24663329310579
 21
127.4697985655008
 31
0.0
  0
LINE
  5
BE
  8
基準線
 10
119.7466332931057
 20
194.96979856550081
 30
0.0
 11
119.7466332931057
 21
189.96979856550081
 31
0.0
  0
CIRCLE
  5
BF
  8
図形
 10
119.7466332931057
 20
192.46979856550081
 30
0.0
 40
1.5
  0
CIRCLE
  5
C0
  8
図形
 10
119.7466332931057
 20
192.46979856550081
 30
0.0
 40
1.1999999999999991
  0
LINE
  5
C1
  8
基準線
 10
117.2466332931057
 20
192.46979856550081
 30
0.0
 11
122.2466332931057
 21
192.46979856550081
 31
0.0
  0
CIRCLE
  5
C2
  8
図形
 10
182.2466332931057
 20
254.9697985655007
 30
0.0
 40
1.5
  0
CIRCLE
  5
C3
  8
図形
 10
182.2466332931057
 20
254.9697985655007
 30
0.0
 40
1.1999999999999991
  0
LINE
  5
C4
  8
基準線
 10
179.7466332931057
 20
254.9697985655007
 30
0.0
 11
184.7466332931057
 21
254.9697985655007
 31
0.0
  0
LINE
  5
C5
  8
基準線
 10
182.24663329310579
 20
257.46979856550081
 30
0.0
 11
182.24663329310579
 21
252.46979856550081
 31
0.0
  0
ARC
  5
C6
  8
図形
 10
268.5222646069974
 20
145.19867947418311
 30
0.0
 40
1.1999999999999811
 50
273.18999999999772
 51
356.80999700000029
  0
ARC
  5
C7
  8
図形
 10
269.78713721718378
 20
143.93380686399661
 30
0.0
 40
1.200000000000031
 50
93.189999999997752
 51
176.8099900000023
  0
LINE
  5
C8
  8
図形
 10
254.0281772491025
 20
145.83346696889359
 30
0.0
 11
247.53573839224609
 21
139.34102811203709
 31
0.0
  0
ARC
  5
C9
  8
図形
 10
261.80109791963088
 20
138.62624562717039
 30
0.0
 40
7.0
 50
44.999999999999993
 51
135.0
  0
INSERT
  5
CA
  8
図形
  6
CONTINUOUS
  2
*X10
 10
0.0
 20
0.0
 30
0.0
1001
ACAD
1000
HATCH
1002
{
1070
    19
1000
ANSI31
1040
1.0
1040
0.0
1000
ASC_BOUNDS
1070
     2
1070
     1
1070
    18
1005
D1
1005
CE
1005
103
1005
CC
1005
109
1005
107
1005
CB
1005
106
1005
CD
1005
D4
1005
D0
1005
DB
1005
105
1005
104
1005
101
1005
10F
1005
10E
1005
65
1070
     1
1070
     6
1005
10D
1005
DC
1005
F8
1005
F9
1005
FA
1005
65
1000
ASC_SEEDPOINT
1011
241.38585796094529
1021
4.0927737909651586E+149
1031
6.3949590379631004E+147
1021
70.505534662627554
1031
0.0
1000
R14_HATCH_DATA
1000
CA
1011
1.0
1021
4.0927737909651586E+149
1031
6.3949590379631004E+147
1021
0.0
1031
0.0
1011
0.0
1021
4.0927737909651586E+149
1031
6.3949590379631004E+147
1021
1.0
1031
0.0
1011
0.0
1021
4.0927737909651586E+149
1031
6.3949590379631004E+147
1021
0.0
1031
1.0
1040
0.0
1010
0.0
1020
0.0
1030
1.0
1000
ANSI31
1070
     0
1070
     1
1071
        2
1071
        7
1070
     0
1070
     1
1071
        6
1040
243.24565768334961
1040
72.469256391486397
1040
236.2466332931057
1040
72.469256391486411
1040
236.2466332931057
1040
67.469256391486397
1040
237.24663329310579
1040
67.469256391486397
1040
237.24663329310579
1040
68.469256391486397
1040
243.24565768334969
1040
68.469256391486397
1071
        6
1005
65
1005
FA
1005
F9
1005
F8
1005
DC
1005
10D
1071
        7
1070
     0
1070
     1
1071
       19
1040
252.24663329310579
1040
72.469256391486397
1040
246.24565768334961
1040
72.469256391486397
1040
246.2456576833498
1040
64.469256391486397
1040
247.24663329310579
1040
64.469256391486397
1040
247.24663329310579
1040
51.469256391486397
1040
244.2466332931057
1040
51.469256391486397
1040
244.2466332931057
1040
49.96925639148639
1040
242.2466332931057
1040
49.96925639148639
1040
242.2466332931057
1040
48.469256391486397
1040
249.44662929310601
1040
48.469256391486397
1040
249.4466292931057
1040
53.469256391486347
1040
249.6466352931059
1040
53.56925639148632
1040
249.64663529310579
1040
53.969251391486353
1040
250.2466332931059
1040
54.315661391486458
1040
250.8466312931059
1040
53.96925139148648
1040
250.84663129310579
1040
53.569256391486427
1040
251.0466372931055
1040
53.469256391486432
1040
251.04663729310579
1040
48.469256391486397
1040
252.2466332931057
1040
48.469256391486397
1071
       18
1005
65
1005
10E
1005
10F
1005
101
1005
104
1005
105
1005
DB
1005
D0
1005
D4
1005
CD
1005
106
1005
CB
1005
107
1005
109
1005
CC
1005
103
1005
CE
1005
D1
1070
     0
1070
     1
1040
0.0
1040
1.0
1070
     0
1070
     1
1040
0.7853981633974483
1040
0.0
1040
0.0
1040
-2.2450640302672871
1040
2.245064030267288
1070
     0
1040
0.1947204781488242
1071
        2
1040
241.38585796094529
1040
70.505534662627554
1040
0.0
1040
251.12830641652371
1040
68.363609387129983
1040
0.0
1002
}
  0
LINE
  5
CB
  8
図形
 10
249.6466352931059
 20
53.969251391486459
 30
0.0
 11
249.64663529310619
 21
48.469256391486446
 31
0.0
1001
ACAD
1000
ASC_BOUNDS
1002
{
1070
    19
1005
CA
1002
}
  0
LINE
  5
CC
  8
図形
 10
250.8466312931059
 20
53.969251391486459
 30
0.0
 11
250.8466312931059
 21
48.469256391486446
 31
0.0
1001
ACAD
1000
ASC_BOUNDS
1002
{
1070
    19
1005
CA
1002
}
  0
LINE
  5
CD
  8
図形
 10
249.4466292931057
 20
53.469256391486446
 30
0.0
 11
249.44662929310601
 21
48.469256391486446
 31
0.0
1001
ACAD
1000
ASC_BOUNDS
1002
{
1070
    19
1005
CA
1002
}
  0
LINE
  5
CE
  8
図形
 10
251.0466372931055
 20
53.469256391486446
 30
0.0
 11
251.04663729310579
 21
48.469256391486446
 31
0.0
1001
ACAD
1000
ASC_BOUNDS
1002
{
1070
    19
1005
CA
1002
}
  0
LINE
  5
CF
  8
基準線
 10
250.2466332931057
 20
55.315661391486458
 30
0.0
 11
250.2466332931057
 21
47.469256391486446
 31
0.0
  0
LINE
  5
D0
  8
図形
 10
242.2466332931057
 20
48.469256391486397
 30
0.0
 11
242.2466332931057
 21
49.96925639148639
 31
0.0
1001
ACAD
1000
ASC_BOUNDS
1002
{
1070
    19
1005
CA
1002
}
  0
LINE
  5
D1
  8
図形
 10
252.2466332931057
 20
48.469256391486397
 30
0.0
 11
252.2466332931057
 21
72.469256391486397
 31
0.0
1001
ACAD
1000
ASC_BOUNDS
1002
{
1070
    19
1005
CA
1002
}
  0
INSERT
  5
D2
  8
0
  2
*U11
 10
0.0
 20
0.0
 30
0.0
  0
LINE
  5
D4
  8
図形
 10
252.2466332931057
 20
48.469256391486397
 30
0.0
 11
242.2466332931057
 21
48.469256391486397
 31
0.0
1001
ACAD
1000
ASC_BOUNDS
1002
{
1070
    19
1005
CA
1002
}
  0
LINE
  5
D5
  8
図形
 10
252.2466332931057
 20
48.469256391486397
 30
0.0
 11
252.2466332931057
 21
48.469256391486397
 31
0.0
  0
ARC
  5
D6
  8
図形
 10
276.5986032931059
 20
80.246841475730946
 30
0.0
 40
10.6
 50
90.0
 51
180.0
  0
TEXT
  5
D7
  8
0
 10
273.21201829372598
 20
78.687022956668244
 30
0.0
 40
5.0
  1
L=500
  7
NISSIN5
  0
ARC
  5
D8
  8
図形
 10
276.59116329310649
 20
80.646851307241704
 30
0.0
 40
7.0
 50
90.0
 51
180.0
  0
LINE
  5
D9
  8
図形
 10
272.39113572064929
 20
136.295547489738
 30
0.0
 11
276.28021594610749
 21
140.18462771519609
 31
0.0
  0
LINE
  5
DA
  8
図形
 10
279.60361781768432
 20
129.08306539270299
 30
0.0
 11
272.39113572064929
 21
136.295547489738
 31
0.0
  0
LINE
  5
DB
  8
図形
 10
242.2466332931057
 20
49.96925639148639
 30
0.0
 11
244.2466332931057
 21
49.96925639148639
 31
0.0
1001
ACAD
1000
ASC_BOUNDS
1002
{
1070
    19
1005
CA
1002
}
  0
LINE
  5
DC
  8
図形
 10
237.24663329310579
 20
68.469256391486397
 30
0.0
 11
243.24663329310579
 21
68.469256391486397
 31
0.0
1001
ACAD
1000
ASC_BOUNDS
1002
{
1070
    19
1005
CA
1002
}
  0
LINE
  5
DD
  8
図形
 10
238.285068260223
 20
68.469256391486397
 30
0.0
 11
243.20745314313859
 21
50.098665914037667
 31
0.0
  0
LINE
  5
DE
  8
図形
 10
242.72449022999399
 20
49.96925639148639
 30
0.0
 11
243.20745314313859
 21
50.098665914037667
 31
0.0
  0
LINE
  5
DF
  8
図形
 10
237.80210534707851
 20
68.339846868935126
 30
0.0
 11
242.72449022999399
 21
49.96925639148639
 31
0.0
  0
ARC
  5
E0
  8
図形
 10
236.27110626700031
 20
60.144261058856237
 30
0.0
 40
1.55
 50
105.0001924811174
 51
285.00019248111738
  0
LINE
  5
E1
  8
図形
 10
238.67713262634771
 20
62.755978621599809
 30
0.0
 11
239.66064499773739
 21
59.085460481701318
 31
0.0
  0
ARC
  5
E2
  8
図形
 10
237.30638248390071
 20
56.28055776347761
 30
0.0
 40
1.55
 50
105.0001924811174
 51
285.00019248111738
  0
LINE
  5
E3
  8
図形
 10
240.60533451236159
 20
55.559831215746208
 30
0.0
 11
237.7075570334944
 21
54.783374080438648
 31
0.0
  0
LINE
  5
E4
  8
図形
 10
240.6959211781475
 20
55.221757176545047
 30
0.0
 11
241.27547667392099
 21
55.377048603606568
 31
0.0
  0
LINE
  5
E5
  8
図形
 10
239.71240880675791
 20
58.892275316443552
 30
0.0
 11
240.6959211781475
 21
55.221757176545047
 31
0.0
  0
ARC
  5
E6
  8
図形
 10
238.3416586643107
 20
52.41685445832136
 30
0.0
 40
1.55
 50
105.0001924811174
 51
285.00019248111738
  0
LINE
  5
E7
  8
図形
 10
240.83827165295389
 20
54.690497972086121
 30
0.0
 11
237.94049417408661
 21
53.91404083677844
 31
0.0
  0
LINE
  5
E8
  8
図形
 10
241.6406106927717
 20
51.696127910589951
 30
0.0
 11
238.7428332139045
 21
50.919670775282377
 31
0.0
  0
LINE
  5
E9
  8
図形
 10
241.73119735855761
 20
51.35805387138879
 30
0.0
 11
242.3107528543311
 21
51.513345298450297
 31
0.0
  0
LINE
  5
EA
  8
図形
 10
240.74768498716799
 20
55.028572011287281
 30
0.0
 11
241.73119735855761
 21
51.35805387138879
 31
0.0
  0
LINE
  5
EB
  8
図形
 10
241.32724048294151
 20
55.183863438348801
 30
0.0
 11
240.74768498716799
 21
55.028572011287281
 31
0.0
  0
LINE
  5
EC
  8
図形
 10
239.57005833195149
 20
59.423534520902479
 30
0.0
 11
236.67228085308429
 21
58.647077385594912
 31
0.0
  0
LINE
  5
ED
  8
図形
 10
239.80299547254381
 20
58.554201277242377
 30
0.0
 11
236.90521799367659
 21
57.777744141934818
 31
0.0
  0
LINE
  5
EE
  8
図形
 10
240.29196430253131
 20
59.047566743505051
 30
0.0
 11
239.71240880675791
 21
58.892275316443552
 31
0.0
  0
LINE
  5
EF
  8
図形
 10
239.66064499773739
 20
59.085460481701318
 30
0.0
 11
240.2402004935108
 21
59.240751908762832
 31
0.0
  0
ARC
  5
F0
  8
図形
 10
235.23583012308029
 20
64.007964373790031
 30
0.0
 40
1.55
 50
105.0001924811174
 51
285.00019248111738
  0
LINE
  5
F1
  8
図形
 10
238.76771929213371
 20
62.417904582398648
 30
0.0
 11
235.86994181326651
 21
61.641447447091018
 31
0.0
  0
LINE
  5
F2
  8
図形
 10
239.25668812212129
 20
62.911270048661322
 30
0.0
 11
238.67713262634771
 21
62.755978621599809
 31
0.0
  0
LINE
  5
F3
  8
図形
 10
238.6253688173272
 20
62.949163786857582
 30
0.0
 11
239.2049243131008
 21
63.104455213919088
 31
0.0
  0
LINE
  5
F4
  8
図形
 10
238.53478215154141
 20
63.287237826058742
 30
0.0
 11
235.63700467267421
 21
62.510780690751119
 31
0.0
  0
LINE
  5
F5
  8
図形
 10
237.73244311172351
 20
66.281607887554912
 30
0.0
 11
234.8346656328564
 21
65.505150752247346
 31
0.0
  0
LINE
  5
F6
  8
図形
 10
237.64185644593769
 20
66.619681926756073
 30
0.0
 11
238.6253688173272
 21
62.949163786857582
 31
0.0
  0
LINE
  5
F7
  8
図形
 10
238.2214119417111
 20
66.774973353817586
 30
0.0
 11
237.64185644593769
 21
66.619681926756073
 31
0.0
  0
LINE
  5
F8
  8
図形
 10
237.24663329310579
 20
67.469256391486397
 30
0.0
 11
237.24663329310579
 21
68.469256391486397
 31
0.0
1001
ACAD
1000
ASC_BOUNDS
1002
{
1070
    19
1005
CA
1002
}
  0
LINE
  5
F9
  8
図形
 10
236.2466332931057
 20
67.469256391486397
 30
0.0
 11
237.24663329310579
 21
67.469256391486397
 31
0.0
1001
ACAD
1000
ASC_BOUNDS
1002
{
1070
    19
1005
CA
1002
}
  0
LINE
  5
FA
  8
図形
 10
236.2466332931057
 20
72.469256391486397
 30
0.0
 11
236.2466332931057
 21
67.469256391486397
 31
0.0
1001
ACAD
1000
ASC_BOUNDS
1002
{
1070
    19
1005
CA
1002
}
  0
LINE
  5
FB
  8
図形
 10
238.285068260223
 20
68.469256391486397
 30
0.0
 11
237.80210534707851
 21
68.339846868935126
 31
0.0
  0
LINE
  5
FC
  8
図形
 10
265.99860329310599
 20
80.246841475730946
 30
0.0
 11
265.99860329310599
 21
71.065146391486451
 31
0.0
  0
LINE
  5
FD
  8
図形
 10
269.59116329310649
 20
80.646851307241704
 30
0.0
 11
269.59116329310649
 21
71.469256391486326
 31
0.0
  0
LINE
  5
FE
  8
基準線
 10
244.7476089028618
 20
74.469256391486397
 30
0.0
 11
244.7476089028618
 21
62.46925639148639
 31
0.0
  0
ARC
  5
FF
  8
図形
 10
258.99116329310641
 20
71.469256391486326
 30
0.0
 40
10.6
 50
270.0
 51
0.0
  0
ARC
  5
100
  8
図形
 10
258.99860329310587
 20
71.065146391486451
 30
0.0
 40
6.9999999999999973
 50
270.0
 51
0.0
  0
LINE
  5
101
  8
図形
 10
247.24663329310579
 20
64.469256391486397
 30
0.0
 11
247.24663329310579
 21
51.469256391486397
 31
0.0
1001
ACAD
1000
ASC_BOUNDS
1002
{
1070
    19
1005
CA
1002
}
  0
LINE
  5
102
  8
図形
 10
249.4466292931057
 20
53.469256391486333
 30
0.0
 11
251.0466372931055
 21
53.469256391486446
 31
0.0
  0
LINE
  5
103
  8
図形
 10
250.8466312931059
 20
53.569256391486448
 30
0.0
 11
251.0466372931055
 21
53.469256391486446
 31
0.0
1001
ACAD
1000
ASC_BOUNDS
1002
{
1070
    19
1005
CA
1002
}
  0
LINE
  5
104
  8
図形
 10
244.2466332931057
 20
51.469256391486397
 30
0.0
 11
247.24663329310579
 21
51.469256391486397
 31
0.0
1001
ACAD
1000
ASC_BOUNDS
1002
{
1070
    19
1005
CA
1002
}
  0
LINE
  5
105
  8
図形
 10
244.2466332931057
 20
49.96925639148639
 30
0.0
 11
244.2466332931057
 21
51.469256391486397
 31
0.0
1001
ACAD
1000
ASC_BOUNDS
1002
{
1070
    19
1005
CA
1002
}
  0
LINE
  5
106
  8
図形
 10
249.44662929310601
 20
53.469256391486446
 30
0.0
 11
249.64663529310619
 21
53.569256391486448
 31
0.0
1001
ACAD
1000
ASC_BOUNDS
1002
{
1070
    19
1005
CA
1002
}
  0
LINE
  5
107
  8
図形
 10
249.6466352931061
 20
53.969251391486459
 30
0.0
 11
250.2466332931059
 21
54.315661391486458
 31
0.0
1001
ACAD
1000
ASC_BOUNDS
1002
{
1070
    19
1005
CA
1002
}
  0
LINE
  5
108
  8
図形
 10
250.8466312931059
 20
53.969251391486459
 30
0.0
 11
249.6466352931061
 21
53.969251391486459
 31
0.0
  0
LINE
  5
109
  8
図形
 10
250.8466312931059
 20
53.969251391486459
 30
0.0
 11
250.2466332931059
 21
54.315661391486458
 31
0.0
1001
ACAD
1000
ASC_BOUNDS
1002
{
1070
    19
1005
CA
1002
}
  0
LINE
  5
10A
  8
図形
 10
252.2466332931057
 20
60.869256391486367
 30
0.0
 11
258.99116329310641
 21
60.869256391486367
 31
0.0
  0
LINE
  5
10B
  8
図形
 10
243.54565768334959
 20
72.469256391486397
 30
0.0
 11
243.5456576833497
 21
64.469256391486397
 31
0.0
  0
LINE
  5
10C
  8
図形
 10
245.94565768334959
 20
72.469256391486397
 30
0.0
 11
245.94565768334971
 21
64.469256391486397
 31
0.0
  0
LINE
  5
10D
  8
図形
 10
243.2456576833498
 20
64.469256391486397
 30
0.0
 11
243.24565768334969
 21
72.469256391486397
 31
0.0
1001
ACAD
1000
ASC_BOUNDS
1002
{
1070
    19
1005
CA
1002
}
  0
LINE
  5
10E
  8
図形
 10
246.24565768334961
 20
72.469256391486397
 30
0.0
 11
246.2456576833498
 21
64.469256391486397
 31
0.0
1001
ACAD
1000
ASC_BOUNDS
1002
{
1070
    19
1005
CA
1002
}
  0
LINE
  5
10F
  8
図形
 10
243.2456576833498
 20
64.469256391486397
 30
0.0
 11
247.24663329310579
 21
64.469256391486397
 31
0.0
1001
ACAD
1000
ASC_BOUNDS
1002
{
1070
    19
1005
CA
1002
}
  0
LINE
  5
110
  8
図形
 10
252.2466332931057
 20
64.065146391486451
 30
0.0
 11
258.99860329310587
 21
64.065146391486451
 31
0.0
  0
ARC
  5
111
  8
図形
 10
242.58599092394019
 20
144.29077558034299
 30
0.0
 40
6.9999999999999973
 50
225.0
 51
315.0
  0
ARC
  5
112
  8
図形
 10
242.86647897083381
 20
144.58178537613989
 30
0.0
 40
10.6
 50
225.0
 51
315.0
  0
LINE
  5
113
  8
図形
 10
230.61226865085041
 20
141.84533193496861
 30
0.0
 11
235.3711470902563
 21
137.08645349556249
 31
0.0
  0
LINE
  5
114
  8
図形
 10
232.8769536746357
 20
144.10031789303591
 30
0.0
 11
237.63624345563429
 21
139.34102811203721
 31
0.0
  0
LINE
  5
115
  8
図形
 10
256.851350451325
 20
143.57599309547621
 30
0.0
 11
250.36181085141109
 21
137.08645349556241
 31
0.0
  0
LINE
  5
116
  8
図形
 10
267.45767044912702
 20
142.86916803428599
 30
0.0
 11
266.75084538793681
 21
143.57599309547621
 31
0.0
  0
LINE
  5
117
  8
図形
 10
269.08471148288868
 20
141.25493282347119
 30
0.0
 11
273.21128766294402
 21
137.1156994320327
 31
0.0
  0
LINE
  5
118
  8
図形
 10
271.35323024508801
 20
143.5119823136796
 30
0.0
 11
275.46707143201422
 21
139.3714832011029
 31
0.0
  0
ARC
  5
119
  8
図形
 10
271.4134969560485
 20
142.307447125132
 30
0.0
 40
1.200000000000021
 50
93.189999999997752
 51
176.80999000000551
  0
ARC
  5
11A
  8
図形
 10
267.39089375709909
 20
144.06730862428461
 30
0.0
 40
1.1999999999999891
 50
273.18999999999772
 51
356.80999700000029
  0
ARC
  5
11B
  8
図形
 10
270.28212610615009
 20
141.17607627523361
 30
0.0
 40
1.199999999999978
 50
93.190000000001049
 51
176.80999000000551
  0
ARC
  5
11C
  8
図形
 10
269.0172534959637
 20
142.44094888542
 30
0.0
 40
1.1999999999999891
 50
273.18999999999772
 51
356.80999700000029
  0
LINE
  5
11D
  8
図形
 10
287.80781329310582
 20
86.742151391486416
 30
0.0
 11
298.00778329310577
 21
86.742151391486416
 31
0.0
  0
LINE
  5
11E
  8
図形
 10
287.80781329310582
 20
91.742151391486416
 30
0.0
 11
298.00778329310577
 21
91.742151391486416
 31
0.0
  0
LINE
  5
11F
  8
図形
 10
279.88749615826703
 20
90.843220467077288
 30
0.0
 11
287.80781329310582
 21
90.842166391486501
 31
0.0
  0
LINE
  5
120
  8
図形
 10
279.89078488086682
 20
87.646851307241874
 30
0.0
 11
287.80781329310582
 21
87.642136391486403
 31
0.0
  0
ARC
  5
121
  8
図形
 10
280.78515329310602
 20
90.046846391486326
 30
0.0
 40
1.2000000000002089
 50
138.19000000000909
 51
221.80998999999591
  0
ARC
  5
122
  8
図形
 10
280.78506084516818
 20
88.446881703169936
 30
0.0
 40
1.1999075525789289
 50
138.18831386179249
 51
221.8162107794779
  0
ARC
  5
123
  8
図形
 10
276.69633329310591
 20
90.046846391486326
 30
0.0
 40
1.199999999999978
 50
318.18999999999988
 51
41.809997000001331
  0
ARC
  5
124
  8
図形
 10
278.48513329310578
 20
90.046846391486326
 30
0.0
 40
1.200000000000039
 50
138.18999999999991
 51
221.8099900000004
  0
LINE
  5
125
  8
図形
 10
277.590701705345
 20
90.846841475731082
 30
0.0
 11
276.5986032931059
 21
90.846841475731082
 31
0.0
  0
LINE
  5
126
  8
図形
 10
277.59076488086691
 20
87.646851307241874
 30
0.0
 11
276.59116329310649
 21
87.646851307241874
 31
0.0
  0
ARC
  5
127
  8
図形
 10
276.69633329310591
 20
88.446846391486531
 30
0.0
 40
1.199999999999978
 50
318.18999999999988
 51
41.809997000001331
  0
ARC
  5
128
  8
図形
 10
278.99635329310593
 20
88.446846391486531
 30
0.0
 40
1.199999999999978
 50
318.18999999999988
 51
41.809997000001331
  0
LINE
  5
129
  8
図形
 10
287.80781329310582
 20
91.742151391486416
 30
0.0
 11
287.80781329310582
 21
86.742151391486416
 31
0.0
  0
LINE
  5
12A
  8
図形
 10
298.00778329310577
 20
92.742151391486402
 30
0.0
 11
306.00778329310577
 21
92.742151391486402
 31
0.0
  0
LINE
  5
12B
  8
図形
 10
302.50778329310577
 20
94.742151391486516
 30
0.0
 11
292.50778329310577
 21
94.742151391486516
 31
0.0
  0
LINE
  5
12C
  8
図形
 10
302.50778329310577
 20
93.742151391486516
 30
0.0
 11
292.50778329310577
 21
93.742151391486516
 31
0.0
  0
LINE
  5
12D
  8
図形
 10
298.00778329310577
 20
85.742151391486516
 30
0.0
 11
306.00778329310577
 21
85.742151391486516
 31
0.0
  0
LINE
  5
12E
  8
図形
 10
298.00778329310577
 20
92.742151391486402
 30
0.0
 11
298.00778329310577
 21
85.742151391486516
 31
0.0
  0
LINE
  5
12F
  8
図形
 10
292.50778329310577
 20
94.742151391486516
 30
0.0
 11
292.50778329310577
 21
93.742151391486516
 31
0.0
  0
LINE
  5
130
  8
図形
 10
296.50778329310577
 20
93.742151391486516
 30
0.0
 11
296.50778329310577
 21
91.742151391486416
 31
0.0
  0
LINE
  5
131
  8
図形
 10
297.50778329310577
 20
93.742151391486516
 30
0.0
 11
297.50778329310577
 21
91.742151391486416
 31
0.0
  0
LINE
  5
132
  8
図形
 10
303.00778329310577
 20
91.242151391486402
 30
0.0
 11
303.00778329310577
 21
87.242151391486402
 31
0.0
  0
LINE
  5
133
  8
図形
 10
303.00778329310577
 20
87.242151391486402
 30
0.0
 11
306.00778329310577
 21
87.242151391486402
 31
0.0
  0
LINE
  5
134
  8
図形
 10
306.00778329310577
 20
87.242151391486402
 30
0.0
 11
306.00778329310577
 21
85.742151391486516
 31
0.0
  0
LINE
  5
135
  8
図形
 10
303.00778329310577
 20
91.242151391486402
 30
0.0
 11
306.00778329310577
 21
91.242151391486402
 31
0.0
  0
LINE
  5
136
  8
図形
 10
302.50778329310577
 20
93.742151391486516
 30
0.0
 11
302.50778329310577
 21
94.742151391486516
 31
0.0
  0
LINE
  5
137
  8
図形
 10
306.00778329310577
 20
92.742151391486402
 30
0.0
 11
306.00778329310577
 21
91.242151391486402
 31
0.0
  0
LINE
  5
138
  8
図形
 10
285.08366708760889
 20
133.14892938452539
 30
0.0
 11
290.03341455591482
 21
128.19918191621969
 31
0.0
  0
LINE
  5
139
  8
図形
 10
277.30552784989578
 20
132.44181553227111
 30
0.0
 11
280.13394790357432
 21
135.27023558594951
 31
0.0
  0
LINE
  5
13A
  8
図形
 10
288.6192080646095
 20
126.78497542491441
 30
0.0
 11
279.42680576704851
 21
135.97737772247521
 31
0.0
  0
LINE
  5
13B
  8
図形
 10
284.23514602125277
 20
126.6435682108127
 30
0.0
 11
277.87121327484499
 21
133.0075009572204
 31
0.0
  0
LINE
  5
13C
  8
図形
 10
284.80083144620198
 20
127.2092536357619
 30
0.0
 11
278.43689869979431
 21
133.57318638216969
 31
0.0
  0
LINE
  5
13D
  8
図形
 10
285.36650980008341
 20
127.77493198964331
 30
0.0
 11
279.00257705367579
 21
134.13886473605109
 31
0.0
  0
LINE
  5
13E
  8
図形
 10
285.93219522503267
 20
128.3406174145926
 30
0.0
 11
279.568262478625
 21
134.7045501610003
 31
0.0
  0
LINE
  5
13F
  8
図形
 10
285.79078801093112
 20
123.95655537123611
 30
0.0
 11
276.59838571337031
 21
133.14895766879681
 31
0.0
  0
LINE
  5
140
  8
図形
 10
283.49269804314252
 20
132.97214561816111
 30
0.0
 11
282.96236795725258
 21
132.44181553227119
 31
0.0
  0
LINE
  5
141
  8
図形
 10
286.49788064998199
 20
128.90630283954189
 30
0.0
 11
283.66946059630362
 21
126.07788278586349
 31
0.0
  0
LINE
  5
142
  8
図形
  6
CONTINUOUS
 10
279.42683405131999
 20
127.4920963482365
 30
0.0
 11
284.3765815196258
 21
122.5423488799308
 31
0.0
  0
LINE
  5
143
  8
図形
 10
279.60361781768432
 20
129.08306539270299
 30
0.0
 11
280.13394790357421
 21
129.61339547859291
 31
0.0
  0
LINE
  5
144
  8
図形
 10
279.4268552645234
 20
128.90630283954189
 30
0.0
 11
279.60361781768432
 21
129.08306539270299
 31
0.0
  0
ARC
  5
145
  8
図形
 10
280.13394790357432
 20
128.19921020049111
 30
0.0
 40
1.0
 50
135.0
 51
225.0
  0
LINE
  5
146
  8
図形
 10
287.912101283423
 20
127.4920822061009
 30
0.0
 11
285.08368122974451
 21
124.6636621524226
 31
0.0
  0
LINE
  5
147
  8
図形
 10
290.03341455591482
 20
128.19918191621969
 30
0.0
 11
284.3765815196258
 21
122.5423488799308
 31
0.0
  0
ARC
  5
148
  8
図形
 10
284.37655323535432
 20
132.44181553227131
 30
0.0
 40
1.0
 50
44.999999999999993
 51
135.0
  0
LINE
  5
149
  8
図形
 10
276.28021594610749
 20
140.18462771519609
 30
0.0
 11
283.49269804314252
 21
132.97214561816111
 31
0.0
  0
LINE
  5
14A
  8
図形
 10
276.59838571337031
 20
133.14895766879681
 30
0.0
 11
279.42680576704851
 21
135.97737772247521
 31
0.0
  0
LINE
  5
14B
  8
図形
 10
283.6694605963034
 20
133.1489081713222
 30
0.0
 11
283.49269804314241
 21
132.97214561816111
 31
0.0
  0
LINE
  5
14C
  8
図形
 10
283.66946059630362
 20
133.1489081713222
 30
0.0
 11
283.49269804314252
 21
132.97214561816111
 31
0.0
  0
CIRCLE
  5
14D
  8
図形
 10
244.7466332931057
 20
192.46979856550081
 30
0.0
 40
1.1999999999999991
  0
CIRCLE
  5
14E
  8
図形
 10
244.7466332931057
 20
192.46979856550081
 30
0.0
 40
1.5
  0
LINE
  5
14F
  8
基準線
 10
244.7466332931057
 20
194.9697985655007
 30
0.0
 11
244.7466332931057
 21
189.9697985655007
 31
0.0
  0
ARC
  5
150
  8
図形
 10
261.52350912968001
 20
138.33813508831619
 30
0.0
 40
10.6
 50
44.999999999999993
 51
135.0
  0
LINE
  5
151
  8
図形
 10
269.72036052515608
 20
145.131947453995
 30
0.0
 11
269.0188410102574
 21
145.83346696889359
 31
0.0
  0
LINE
  5
152
  8
基準線
 10
242.2466332931057
 20
192.4697985655007
 30
0.0
 11
247.24663329310579
 21
192.4697985655007
 31
0.0
  0
ENDSEC
  0
EOF
