  0
SECTION
  2
HEADER
  9
$ACADVER
  1
AC1009
  9
$INSBASE
 10
0.0
 20
0.0
 30
0.0
  9
$EXTMIN
 10
56.931884410821461
 20
-29.293041869720192
 30
0.0
  9
$EXTMAX
 10
356.06543810840509
 20
292.84645062884152
 30
0.0
  9
$LIMMIN
 10
0.0
 20
0.0
  9
$LIMMAX
 10
420.0
 20
297.0
  9
$ORTHOMODE
 70
     0
  9
$REGENMODE
 70
     1
  9
$FILLMODE
 70
     1
  9
$QTEXTMODE
 70
     0
  9
$MIRRTEXT
 70
     1
  9
$DRAGMODE
 70
     2
  9
$LTSCALE
 40
1.0
  9
$OSMODE
 70
    39
  9
$ATTMODE
 70
     1
  9
$TEXTSIZE
 40
2.5
  9
$TRACEWID
 40
1.0
  9
$TEXTSTYLE
  7
STANDARD
  9
$CLAYER
  8
0
  9
$CELTYPE
  6
BYLAYER
  9
$CECOLOR
 62
   256
  9
$DIMSCALE
 40
1.0
  9
$DIMASZ
 40
2.5
  9
$DIMEXO
 40
0.625
  9
$DIMDLI
 40
3.75
  9
$DIMRND
 40
0.0
  9
$DIMDLE
 40
0.0
  9
$DIMEXE
 40
1.25
  9
$DIMTP
 40
0.0
  9
$DIMTM
 40
0.0
  9
$DIMTXT
 40
2.5
  9
$DIMCEN
 40
2.5
  9
$DIMTSZ
 40
0.0
  9
$DIMTOL
 70
     0
  9
$DIMLIM
 70
     0
  9
$DIMTIH
 70
     0
  9
$DIMTOH
 70
     0
  9
$DIMSE1
 70
     0
  9
$DIMSE2
 70
     0
  9
$DIMTAD
 70
     1
  9
$DIMZIN
 70
     8
  9
$DIMBLK
  1

  9
$DIMASO
 70
     1
  9
$DIMSHO
 70
     1
  9
$DIMPOST
  1

  9
$DIMAPOST
  1

  9
$DIMALT
 70
     0
  9
$DIMALTD
 70
     3
  9
$DIMALTF
 40
0.03937007874016
  9
$DIMLFAC
 40
1.0
  9
$DIMTOFL
 70
     1
  9
$DIMTVP
 40
0.0
  9
$DIMTIX
 70
     0
  9
$DIMSOXD
 70
     0
  9
$DIMSAH
 70
     0
  9
$DIMBLK1
  1

  9
$DIMBLK2
  1

  9
$DIMSTYLE
  2
ISO-25
  9
$DIMCLRD
 70
     0
  9
$DIMCLRE
 70
     0
  9
$DIMCLRT
 70
     0
  9
$DIMTFAC
 40
1.0
  9
$DIMGAP
 40
0.625
  9
$LUNITS
 70
     2
  9
$LUPREC
 70
     4
  9
$SKETCHINC
 40
1.0
  9
$FILLETRAD
 40
10.0
  9
$AUNITS
 70
     0
  9
$AUPREC
 70
     0
  9
$MENU
  1
.
  9
$ELEVATION
 40
0.0
  9
$PELEVATION
 40
0.0
  9
$THICKNESS
 40
0.0
  9
$LIMCHECK
 70
     0
  9
$BLIPMODE
 70
     0
  9
$CHAMFERA
 40
10.0
  9
$CHAMFERB
 40
10.0
  9
$SKPOLY
 70
     0
  9
$TDCREATE
 40
2454873.669344224
  9
$TDUPDATE
 40
2455105.7120621642
  9
$TDINDWG
 40
0.3422846296
  9
$TDUSRTIMER
 40
0.3422846296
  9
$USRTIMER
 70
     1
  9
$ANGBASE
 50
0.0
  9
$ANGDIR
 70
     0
  9
$PDMODE
 70
     0
  9
$PDSIZE
 40
0.0
  9
$PLINEWID
 40
0.0
  9
$COORDS
 70
     2
  9
$SPLFRAME
 70
     0
  9
$SPLINETYPE
 70
     6
  9
$SPLINESEGS
 70
     8
  9
$ATTDIA
 70
     0
  9
$ATTREQ
 70
     1
  9
$HANDLING
 70
 22529
  9
$HANDSEED
  5
1AD
  9
$SURFTAB1
 70
     6
  9
$SURFTAB2
 70
     6
  9
$SURFTYPE
 70
     6
  9
$SURFU
 70
     6
  9
$SURFV
 70
     6
  9
$UCSNAME
  2

  9
$UCSORG
 10
0.0
 20
0.0
 30
0.0
  9
$UCSXDIR
 10
1.0
 20
0.0
 30
0.0
  9
$UCSYDIR
 10
0.0
 20
1.0
 30
0.0
  9
$PUCSNAME
  2

  9
$PUCSORG
 10
0.0
 20
0.0
 30
0.0
  9
$PUCSXDIR
 10
1.0
 20
0.0
 30
0.0
  9
$PUCSYDIR
 10
0.0
 20
1.0
 30
0.0
  9
$USERI1
 70
     0
  9
$USERI2
 70
     0
  9
$USERI3
 70
     0
  9
$USERI4
 70
     0
  9
$USERI5
 70
     0
  9
$USERR1
 40
0.0
  9
$USERR2
 40
0.0
  9
$USERR3
 40
0.0
  9
$USERR4
 40
0.0
  9
$USERR5
 40
0.0
  9
$WORLDVIEW
 70
     1
  9
$SHADEDGE
 70
     3
  9
$SHADEDIF
 70
    70
  9
$TILEMODE
 70
     1
  9
$MAXACTVP
 70
    64
  9
$PLIMCHECK
 70
     0
  9
$PEXTMIN
 10
1.144338676220513
 20
2.391762241006858
 30
-0.0015258207003583
  9
$PEXTMAX
 10
288.44975390501378
 20
201.0559707003888
 30
0.0000000349246037
  9
$PLIMMIN
 10
-3.17498779296875
 20
-3.1749999523162842
  9
$PLIMMAX
 10
293.85684204101562
 20
206.7348358631134
  9
$UNITMODE
 70
     0
  9
$VISRETAIN
 70
     1
  9
$PLINEGEN
 70
     0
  9
$PSLTSCALE
 70
     1
  0
ENDSEC
  0
SECTION
  2
TABLES
  0
TABLE
  2
VPORT
 70
     1
  0
VPORT
  2
*ACTIVE
 70
     0
 10
0.0
 20
0.0
 11
1.0
 21
1.0
 12
176.22995969602169
 22
140.26627129573339
 13
0.0
 23
0.0
 14
10.0
 24
10.0
 15
10.0
 25
10.0
 16
0.0
 26
0.0
 36
1.0
 17
0.0
 27
0.0
 37
0.0
 40
320.19163041284253
 41
1.710651828298887
 42
50.0
 43
0.0
 44
0.0
 50
0.0
 51
0.0
 71
     0
 72
   100
 73
     1
 74
     3
 75
     0
 76
     0
 77
     0
 78
     0
  0
ENDTAB
  0
TABLE
  2
LTYPE
 70
     2
  0
LTYPE
  2
CONTINUOUS
 70
     0
  3
Solid line
 72
    65
 73
     0
 40
0.0
  0
LTYPE
  2
CENTER
 70
     0
  3
Center ____ _ ____ _ ____ _ ____ _ ____ _ ____
 72
    65
 73
     4
 40
50.799999999999997
 49
31.75
 49
-6.3499999999999988
 49
6.3499999999999988
 49
-6.3499999999999988
  0
ENDTAB
  0
TABLE
  2
LAYER
 70
     5
  0
LAYER
  2
0
 70
     0
 62
     7
  6
CONTINUOUS
  0
LAYER
  2
基準線
 70
     0
 62
     1
  6
CENTER
  0
LAYER
  2
図形
 70
     0
 62
     7
  6
CONTINUOUS
  0
LAYER
  2
寸法
 70
     0
 62
     5
  6
CONTINUOUS
  0
LAYER
  2
DEFPOINTS
 70
     0
 62
     7
  6
CONTINUOUS
  0
ENDTAB
  0
TABLE
  2
STYLE
 70
     5
  0
STYLE
  2
STANDARD
 70
     0
 40
0.0
 41
1.0
 50
0.0
 71
     0
 42
2.5
  3
txt
  4

  0
STYLE
  2
NISSIN5
 70
     0
 40
5.0
 41
1.0
 50
0.0
 71
     0
 42
3.5
  3
txt
  4

  0
STYLE
  2
NISSIN3_5
 70
     0
 40
3.5
 41
1.0
 50
0.0
 71
     0
 42
3.5
  3
txt
  4

  0
STYLE
  2
NISSIN3
 70
     0
 40
3.0
 41
1.0
 50
0.0
 71
     0
 42
4.0
  3
txt
  4

  0
STYLE
  2
NISSIN2
 70
     0
 40
2.0
 41
1.0
 50
0.0
 71
     0
 42
4.0
  3
txt
  4

  0
ENDTAB
  0
TABLE
  2
VIEW
 70
     0
  0
ENDTAB
  0
TABLE
  2
UCS
 70
     0
  0
ENDTAB
  0
TABLE
  2
APPID
 70
     1
  0
APPID
  2
ACAD
 70
     0
  0
ENDTAB
  0
TABLE
  2
DIMSTYLE
 70
     2
  0
DIMSTYLE
  2
ISO-25
 70
     0
  3

  4

  5

  6

  7

 40
1.0
 41
2.5
 42
0.625
 43
3.75
 44
1.25
 45
0.0
 46
0.0
 47
0.0
 48
0.0
140
2.5
141
2.5
142
0.0
143
0.03937007874016
144
1.0
145
0.0
146
1.0
147
0.625
 71
     0
 72
     0
 73
     0
 74
     0
 75
     0
 76
     0
 77
     1
 78
     8
170
     0
171
     3
172
     1
173
     0
174
     0
175
     0
176
     0
177
     0
178
     0
  0
DIMSTYLE
  2
NISSINSTYLE
 70
     0
  3

  4

  5

  6

  7

 40
1.0
 41
3.0
 42
2.0
 43
3.75
 44
3.0
 45
0.0
 46
0.0
 47
0.0
 48
0.0
140
3.5
141
3.0
142
0.0
143
0.03937007874016
144
1.0
145
0.0
146
1.0
147
0.625
 71
     0
 72
     0
 73
     0
 74
     0
 75
     0
 76
     0
 77
     1
 78
     8
170
     0
171
     3
172
     1
173
     0
174
     0
175
     0
176
     0
177
     0
178
     0
  0
ENDTAB
  0
ENDSEC
  0
SECTION
  2
BLOCKS
  0
BLOCK
  8
0
  2
$MODEL_SPACE
 70
     0
 10
0.0
 20
0.0
 30
0.0
  3
$MODEL_SPACE
  1

  0
ENDBLK
  5
9
  8
0
  0
BLOCK
 67
     1
  8
0
  2
$PAPER_SPACE
 70
     0
 10
0.0
 20
0.0
 30
0.0
  3
$PAPER_SPACE
  1

  0
ENDBLK
  5
E
 67
     1
  8
0
  0
BLOCK
  8
0
  2
*D0
 70
     1
 10
0.0
 20
0.0
 30
0.0
  3
*D0
  1

  0
LINE
  5
5F
  8
寸法
 62
     0
 10
71.425555191635894
 20
59.847049327795609
 30
0.0
 11
71.425555191635894
 21
90.801575575266725
 31
0.0
  0
LINE
  5
60
  8
寸法
 62
     0
 10
251.42555519163591
 20
59.84704932779556
 30
0.0
 11
251.42555519163591
 21
90.801575575266725
 31
0.0
  0
LINE
  5
61
  8
寸法
 62
     0
 10
74.425555191635894
 20
87.801575575266725
 30
0.0
 11
248.42555519163579
 21
87.801575575266725
 31
0.0
  0
SOLID
  5
62
  8
寸法
 62
     0
 10
74.425555191635894
 20
88.301575575266725
 30
0.0
 11
74.425555191635894
 21
87.301575575266725
 31
0.0
 12
71.425555191635894
 22
87.801575575266725
 32
0.0
 13
71.425555191635894
 23
87.801575575266725
 33
0.0
  0
SOLID
  5
63
  8
寸法
 62
     0
 10
248.42555519163579
 20
88.301575575266725
 30
0.0
 11
248.42555519163579
 21
87.301575575266725
 31
0.0
 12
251.42555519163591
 22
87.801575575266725
 32
0.0
 13
251.42555519163591
 23
87.801575575266725
 33
0.0
  0
INSERT
  5
64
  8
0
  2
*U8
 10
0.0
 20
0.0
 30
0.0
  0
POINT
  5
65
  8
DEFPOINTS
 62
     0
 10
71.425555191635894
 20
57.847049327795609
 30
0.0
  0
POINT
  5
66
  8
DEFPOINTS
 62
     0
 10
251.42555519163591
 20
57.84704932779556
 30
0.0
  0
POINT
  5
67
  8
DEFPOINTS
 62
     0
 10
251.42555519163591
 20
87.801575575266725
 30
0.0
  0
ENDBLK
  5
69
  8
0
  0
BLOCK
  8
0
  2
*D1
 70
     1
 10
0.0
 20
0.0
 30
0.0
  3
*D1
  1

  0
LINE
  5
50
  8
寸法
 62
     0
 10
87.425555191635908
 20
59.84704932779573
 30
0.0
 11
87.425555191635908
 21
70.845593233444902
 31
0.0
  0
LINE
  5
51
  8
寸法
 62
     0
 10
235.42555519163591
 20
59.84704932779556
 30
0.0
 11
235.42555519163591
 21
70.845593233444902
 31
0.0
  0
LINE
  5
52
  8
寸法
 62
     0
 10
90.425555191635894
 20
67.845593233444902
 30
0.0
 11
232.42555519163591
 21
67.845593233444902
 31
0.0
  0
SOLID
  5
53
  8
寸法
 62
     0
 10
90.425555191635894
 20
68.345593233444902
 30
0.0
 11
90.425555191635894
 21
67.345593233444902
 31
0.0
 12
87.425555191635908
 22
67.845593233444902
 32
0.0
 13
87.425555191635908
 23
67.845593233444902
 33
0.0
  0
SOLID
  5
54
  8
寸法
 62
     0
 10
232.42555519163591
 20
68.345593233444902
 30
0.0
 11
232.42555519163591
 21
67.345593233444902
 31
0.0
 12
235.42555519163591
 22
67.845593233444902
 32
0.0
 13
235.42555519163591
 23
67.845593233444902
 33
0.0
  0
INSERT
  5
55
  8
0
  2
*U7
 10
0.0
 20
0.0
 30
0.0
  0
POINT
  5
56
  8
DEFPOINTS
 62
     0
 10
87.425555191635908
 20
57.84704932779573
 30
0.0
  0
POINT
  5
57
  8
DEFPOINTS
 62
     0
 10
235.42555519163591
 20
57.84704932779556
 30
0.0
  0
POINT
  5
58
  8
DEFPOINTS
 62
     0
 10
235.42555519163591
 20
67.845593233444902
 30
0.0
  0
ENDBLK
  5
5A
  8
0
  0
BLOCK
  8
0
  2
*D2
 70
     1
 10
0.0
 20
0.0
 30
0.0
  3
*D2
  1

  0
LINE
  5
41
  8
寸法
 62
     0
 10
243.93653080139211
 20
59.84704932779556
 30
0.0
 11
243.93653080139211
 21
80.831178369946201
 31
0.0
  0
LINE
  5
42
  8
寸法
 62
     0
 10
78.936530801391996
 20
59.847049327795609
 30
0.0
 11
78.936530801391996
 21
80.831178369946201
 31
0.0
  0
LINE
  5
43
  8
寸法
 62
     0
 10
240.93653080139211
 20
77.831178369946201
 30
0.0
 11
81.936530801391996
 21
77.831178369946201
 31
0.0
  0
SOLID
  5
44
  8
寸法
 62
     0
 10
240.93653080139211
 20
78.331178369946201
 30
0.0
 11
240.93653080139211
 21
77.331178369946201
 31
0.0
 12
243.93653080139211
 22
77.831178369946201
 32
0.0
 13
243.93653080139211
 23
77.831178369946201
 33
0.0
  0
SOLID
  5
45
  8
寸法
 62
     0
 10
81.936530801391996
 20
78.331178369946201
 30
0.0
 11
81.936530801391996
 21
77.331178369946201
 31
0.0
 12
78.936530801391996
 22
77.831178369946201
 32
0.0
 13
78.936530801391996
 23
77.831178369946201
 33
0.0
  0
INSERT
  5
46
  8
0
  2
*U6
 10
0.0
 20
0.0
 30
0.0
  0
POINT
  5
47
  8
DEFPOINTS
 62
     0
 10
243.93653080139211
 20
57.84704932779556
 30
0.0
  0
POINT
  5
48
  8
DEFPOINTS
 62
     0
 10
78.936530801391996
 20
57.847049327795609
 30
0.0
  0
POINT
  5
49
  8
DEFPOINTS
 62
     0
 10
78.936530801391996
 20
77.831178369946201
 30
0.0
  0
ENDBLK
  5
4B
  8
0
  0
BLOCK
  8
0
  2
*D3
 70
     1
 10
0.0
 20
0.0
 30
0.0
  3
*D3
  1

  0
LINE
  5
7E
  8
寸法
 62
     0
 10
69.425555191635894
 20
57.847049327795609
 30
0.0
 11
58.465513852445838
 21
57.847049327795609
 31
0.0
  0
LINE
  5
7F
  8
寸法
 62
     0
 10
69.425555191635894
 20
33.847049327795609
 30
0.0
 11
58.465513852445838
 21
33.847049327795609
 31
0.0
  0
LINE
  5
80
  8
寸法
 62
     0
 10
61.465513852445852
 20
54.847049327795609
 30
0.0
 11
61.465513852445838
 21
36.847049327795617
 31
0.0
  0
SOLID
  5
81
  8
寸法
 62
     0
 10
60.965513852445838
 20
54.847049327795609
 30
0.0
 11
61.965513852445852
 21
54.847049327795609
 31
0.0
 12
61.465513852445852
 22
57.847049327795609
 32
0.0
 13
61.465513852445852
 23
57.847049327795609
 33
0.0
  0
SOLID
  5
82
  8
寸法
 62
     0
 10
60.965513852445838
 20
36.847049327795617
 30
0.0
 11
61.965513852445838
 21
36.847049327795617
 31
0.0
 12
61.465513852445838
 22
33.847049327795609
 32
0.0
 13
61.465513852445838
 23
33.847049327795609
 33
0.0
  0
TEXT
  5
83
  8
0
 62
     0
 10
60.840513852445831
 20
43.546287906475818
 30
0.0
 40
3.5
  1
24
 50
90.0
  7
NISSIN3_5
  0
POINT
  5
84
  8
DEFPOINTS
 62
     0
 10
71.425555191635894
 20
57.847049327795609
 30
0.0
  0
POINT
  5
85
  8
DEFPOINTS
 62
     0
 10
71.425555191635894
 20
33.847049327795609
 30
0.0
  0
POINT
  5
86
  8
DEFPOINTS
 62
     0
 10
61.465513852445838
 20
33.847049327795609
 30
0.0
  0
ENDBLK
  5
88
  8
0
  0
BLOCK
  8
0
  2
*D4
 70
     1
 10
0.0
 20
0.0
 30
0.0
  3
*D4
  1

  0
LINE
  5
2C
  8
寸法
 62
     0
 10
236.3386589049307
 20
53.237046640128142
 30
0.0
 11
234.0261721825234
 21
58.196190419917251
 31
0.0
  0
ARC
  5
2D
  8
寸法
 62
     0
 10
245.3803631432761
 20
33.847049327795553
 30
0.0
 40
23.866304626749258
 50
122.2068426992481
 51
172.7931573007514
  0
SOLID
  5
2E
  8
寸法
 62
     0
 10
232.42079165730931
 20
54.480011399077519
 30
0.0
 11
232.89953594211011
 21
53.602057009732277
 31
0.0
 12
235.29402696774551
 22
55.4772670588073
 32
0.0
 13
235.29402696774551
 23
55.4772670588073
 33
0.0
  0
SOLID
  5
2F
  8
寸法
 62
     0
 10
222.2016203513252
 20
36.809693201656991
 30
0.0
 11
221.20359737413779
 21
36.87254331705855
 31
0.0
 12
221.51405851652689
 22
33.847049327795553
 32
0.0
 13
221.51405851652689
 23
33.847049327795553
 33
0.0
  0
TEXT
  5
30
  8
0
 62
     0
 10
222.5726804817115
 20
43.628370753547358
 30
0.0
 40
3.0
  1
65°
 50
57.499999999999787
  7
NISSIN3
  0
POINT
  5
31
  8
DEFPOINTS
 62
     0
 10
228.02064223602579
 20
50.225101304730188
 30
0.0
  0
POINT
  5
33
  8
DEFPOINTS
 62
     0
 10
237.18389542841209
 20
51.424431066054851
 30
0.0
  0
POINT
  5
34
  8
DEFPOINTS
 62
     0
 10
79.425555191635922
 20
33.847049327795631
 30
0.0
  0
POINT
  5
35
  8
DEFPOINTS
 62
     0
 10
243.42555519163579
 20
33.847049327795553
 30
0.0
  0
POINT
  5
36
  8
DEFPOINTS
 62
     0
 10
244.91405548512111
 20
34.847049327795588
 30
0.0
  0
ENDBLK
  5
38
  8
0
  0
BLOCK
  8
0
  2
*D5
 70
     1
 10
0.0
 20
0.0
 30
0.0
  3
*D5
  1

  0
LINE
  5
16A
  8
寸法
 62
     0
 10
236.3386589049307
 20
53.237046640128142
 30
0.0
 11
234.0261721825234
 21
58.196190419917251
 31
0.0
  0
ARC
  5
16B
  8
寸法
 62
     0
 10
245.3803631432761
 20
33.847049327795553
 30
0.0
 40
23.866304626749258
 50
122.2068426992481
 51
172.7931573007514
  0
SOLID
  5
16C
  8
寸法
 62
     0
 10
232.42079165730931
 20
54.480011399077519
 30
0.0
 11
232.89953594211011
 21
53.602057009732277
 31
0.0
 12
235.29402696774551
 22
55.4772670588073
 32
0.0
 13
235.29402696774551
 23
55.4772670588073
 33
0.0
  0
SOLID
  5
16D
  8
寸法
 62
     0
 10
222.2016203513252
 20
36.809693201656991
 30
0.0
 11
221.20359737413779
 21
36.87254331705855
 31
0.0
 12
221.51405851652689
 22
33.847049327795553
 32
0.0
 13
221.51405851652689
 23
33.847049327795553
 33
0.0
  0
TEXT
  8
0
  40
3
  5
1AC
  62
0
  72
0
  71
0
 10
223.460
 20
43.9122
 30
0.000000
  1
65°
  7
NISSIN3
  0
POINT
  5
16F
  8
DEFPOINTS
 62
     0
 10
228.02064223602579
 20
50.225101304730188
 30
0.0
  0
POINT
  5
170
  8
DEFPOINTS
 62
     0
 10
237.18389542841209
 20
51.424431066054851
 30
0.0
  0
POINT
  5
171
  8
DEFPOINTS
 62
     0
 10
79.425555191635922
 20
33.847049327795631
 30
0.0
  0
POINT
  5
172
  8
DEFPOINTS
 62
     0
 10
243.42555519163579
 20
33.847049327795553
 30
0.0
  0
POINT
  5
173
  8
DEFPOINTS
 62
     0
 10
244.91405548512111
 20
34.847049327795588
 30
0.0
  0
ENDBLK
  5
175
  8
0
  0
BLOCK
  8
0
  2
*U6
 70
     1
 10
0.0
 20
0.0
 30
0.0
  3
*U6
  1

  0
TEXT
  5
177
  8
0
 62
     0
 10
157.03043943083361
 20
78.456178369946201
 30
0.0
 40
3.5
  1
\U+2205
  7
NISSIN3_5
  0
TEXT
  5
178
  8
0
 62
     0
 10
159.30455110596051
 20
78.456178369946201
 30
0.0
 40
3.5
  1
165
  7
NISSIN3_5
  0
ENDBLK
  5
17A
  8
0
  0
BLOCK
  8
0
  2
*U7
 70
     1
 10
0.0
 20
0.0
 30
0.0
  3
*U7
  1

  0
TEXT
  5
17C
  8
0
 62
     0
 10
157.0016973236155
 20
68.470593233444902
 30
0.0
 40
3.5
  1
\U+2205
  7
NISSIN3_5
  0
TEXT
  5
17D
  8
0
 62
     0
 10
159.27580899874241
 20
68.470593233444902
 30
0.0
 40
3.5
  1
148
  7
NISSIN3_5
  0
ENDBLK
  5
17F
  8
0
  0
BLOCK
  8
0
  2
*U8
 70
     1
 10
0.0
 20
0.0
 30
0.0
  3
*U8
  1

  0
TEXT
  5
181
  8
0
 62
     0
 10
156.9750475774226
 20
88.426575575266725
 30
0.0
 40
3.5
  1
\U+2205
  7
NISSIN3_5
  0
TEXT
  5
182
  8
0
 62
     0
 10
159.2491592525495
 20
88.426575575266725
 30
0.0
 40
3.5
  1
180
  7
NISSIN3_5
  0
ENDBLK
  5
184
  8
0
  0
BLOCK
  8
0
  2
*X9
 70
     1
 10
0.0
 20
0.0
 30
0.0
  3
*X9
  1

  0
LINE
  5
189
  8
0
 62
     0
 10
74.258201872606804
 20
33.847049327795609
 30
0.0
 11
75.258201872606804
 21
34.847049327795609
 31
0.0
  0
LINE
  5
18A
  8
0
 62
     0
 10
86.768073812072174
 20
50.84704932779556
 30
0.0
 11
87.425555191635908
 21
51.504530707359272
 31
0.0
  0
LINE
  5
18B
  8
0
 62
     0
 10
71.425555191635894
 20
35.50453070735928
 30
0.0
 11
72.625551191635822
 21
36.7045267073592
 31
0.0
  0
LINE
  5
18C
  8
0
 62
     0
 10
83.277945751537601
 20
51.847049327795538
 30
0.0
 11
86.425555191635908
 21
54.994658767893853
 31
0.0
  0
LINE
  5
18D
  8
0
 62
     0
 10
86.777945751537786
 20
55.34704932779573
 30
0.0
 11
87.425555191635908
 21
55.994658767893853
 31
0.0
  0
LINE
  5
18E
  8
0
 62
     0
 10
71.425555191635894
 20
39.994658767893839
 30
0.0
 11
73.425555191635766
 21
41.994658767893718
 31
0.0
  0
LINE
  5
18F
  8
0
 62
     0
 10
80.436530801391925
 20
53.495762438184428
 30
0.0
 11
84.787817691003198
 21
57.84704932779573
 31
0.0
  0
LINE
  5
190
  8
0
 62
     0
 10
71.425555191635894
 20
44.48478682842844
 30
0.0
 11
73.425555191635837
 21
46.484786828428369
 31
0.0
  0
LINE
  5
191
  8
0
 62
     0
 10
74.297689630468454
 20
51.84704932779556
 30
0.0
 11
77.43653080139191
 21
54.98589049871903
 31
0.0
  0
LINE
  5
192
  8
0
 62
     0
 10
71.425555191635894
 20
48.974914888963013
 30
0.0
 11
73.42555519163588
 21
50.974914888962999
 31
0.0
  0
LINE
  5
193
  8
0
 62
     0
 10
71.425555191635894
 20
53.465042949497587
 30
0.0
 11
75.807561569933924
 21
57.847049327795609
 31
0.0
  0
ENDBLK
  5
195
  8
0
  0
BLOCK
  8
0
  2
*U10
 70
     1
 10
0.0
 20
0.0
 30
0.0
  3
*U10
  1

  0
TEXT
  5
19A
  8
0
 10
238.6234402675947
 20
-2.5041879532097031
 30
0.0
 40
5.0
  1
MODEL []DR-LA180
  7
NISSIN2
  0
TEXT
  5
19B
  8
0
 10
238.5980595569348
 20
-10.83752128654303
 30
0.0
 40
5.0
  1
NISSIN ELECTRONIC CO.,LTD.
  7
NISSIN2
  0
ENDBLK
  5
19D
  8
0
  0
BLOCK
  8
0
  2
*X11
 70
     1
 10
0.0
 20
0.0
 30
0.0
  3
*X11
  1

  0
LINE
  5
19F
  8
0
 62
     0
 10
250.2255591916356
 20
34.69941228597596
 30
0.0
 11
251.42555519163571
 21
35.899408285976079
 31
0.0
  0
LINE
  5
1A0
  8
0
 62
     0
 10
249.61823126890371
 20
38.582212423778628
 30
0.0
 11
251.42555519163571
 21
40.389536346510667
 31
0.0
  0
LINE
  5
1A1
  8
0
 62
     0
 10
244.88306817292059
 20
33.847049327795553
 30
0.0
 11
245.88306817292059
 21
34.84704932779556
 31
0.0
  0
LINE
  5
1A2
  8
0
 62
     0
 10
249.42555519163579
 20
42.879664407045311
 30
0.0
 11
251.42555519163579
 21
44.879664407045311
 31
0.0
  0
LINE
  5
1A3
  8
0
 62
     0
 10
249.42555519163591
 20
47.369792467579941
 30
0.0
 11
251.42555519163579
 21
49.369792467579913
 31
0.0
  0
LINE
  5
1A4
  8
0
 62
     0
 10
249.4126839913169
 20
51.84704932779556
 30
0.0
 11
251.42555519163579
 21
53.859920528114507
 31
0.0
  0
LINE
  5
1A5
  8
0
 62
     0
 10
245.41457958187991
 20
52.339072978893157
 30
0.0
 11
250.92255593078229
 21
57.847049327795581
 31
0.0
  0
LINE
  5
1A6
  8
0
 62
     0
 10
245.41457958187979
 20
56.829201039427623
 30
0.0
 11
246.43242787024769
 21
57.847049327795538
 31
0.0
  0
LINE
  5
1A7
  8
0
 62
     0
 10
240.43242787024781
 20
51.847049327795567
 30
0.0
 11
242.41457958187991
 21
53.829201039427673
 31
0.0
  0
LINE
  5
1A8
  8
0
 62
     0
 10
235.42555519163591
 20
51.330304709718241
 30
0.0
 11
241.94229980971321
 21
57.847049327795581
 31
0.0
  0
LINE
  5
1A9
  8
0
 62
     0
 10
235.42555519163579
 20
55.820432770252793
 30
0.0
 11
237.4521717491786
 21
57.847049327795538
 31
0.0
  0
ENDBLK
  5
1AB
  8
0
  0
ENDSEC
  0
SECTION
  2
ENTITIES
  0
DIMENSION
  5
26
  8
寸法
  2
*D5
 10
244.91405548512111
 20
34.84704932779556
 30
0.0
 11
223.45951915555889
 21
47.812167124170983
 31
0.0
 70
     2
 13
79.425555191635894
 23
33.847049327795609
 33
0.0
 14
243.42555519163571
 24
33.847049327795553
 34
0.0
 15
237.18389542841209
 25
51.424431066054829
 35
0.0
 16
228.02064223602579
 26
50.225101304730188
 36
0.0
1001
ACAD
1000
DSTYLE
1002
{
1070
   271
1070
     0
1070
   340
1005
2A
1002
}
  0
LINE
  5
39
  8
図形
 10
235.42555519163591
 20
50.84704932779556
 30
0.0
 11
87.425555191635908
 21
50.84704932779556
 31
0.0
  0
LINE
  5
3B
  8
図形
 10
71.425555191635894
 20
33.847049327795609
 30
0.0
 11
251.42555519163571
 21
33.847049327795553
 31
0.0
1001
ACAD
1000
ASC_BOUNDS
1002
{
1070
    19
1005
E9
1005
E9
1005
71
1005
71
1002
}
  0
DIMENSION
  5
3C
  8
寸法
  2
*D2
 10
78.936530801391996
 20
77.831178369946201
 30
0.0
 11
161.436530801392
 21
80.206178369946201
 31
0.0
  1
%%c<>
 13
243.93653080139211
 23
57.84704932779556
 33
0.0
 14
78.936530801391996
 24
57.847049327795609
 34
0.0
1001
ACAD
1000
DSTYLE
1002
{
1070
   340
1005
3F
1002
}
  0
DIMENSION
  5
4C
  8
寸法
  2
*D1
 10
235.42555519163591
 20
67.845593233444902
 30
0.0
 11
161.42555519163591
 21
70.220593233444902
 31
0.0
  1
%%c<>
 13
87.425555191635908
 23
57.84704932779573
 33
0.0
 14
235.42555519163591
 24
57.84704932779556
 34
0.0
1001
ACAD
1000
DSTYLE
1002
{
1070
   340
1005
3F
1002
}
  0
DIMENSION
  5
5B
  8
寸法
  2
*D0
 10
251.42555519163591
 20
87.801575575266725
 30
0.0
 11
161.42555519163591
 21
90.176575575266725
 31
0.0
  1
%%c<>
 13
71.425555191635894
 23
57.847049327795609
 33
0.0
 14
251.42555519163591
 24
57.84704932779556
 34
0.0
1001
ACAD
1000
DSTYLE
1002
{
1070
   340
1005
3F
1002
}
  0
POLYLINE
  5
6A
  8
図形
 66
     1
 10
0.0
 20
0.0
 30
0.0
1001
ACAD
1000
ASC_BOUNDS
1002
{
1070
    19
1005
E9
1002
}
  0
VERTEX
  5
185
  8
図形
 10
251.42555519163591
 20
57.84704932779556
 30
0.0
  0
VERTEX
  5
186
  8
図形
 10
181.42555519163579
 20
57.84704932779556
 30
0.0
  0
SEQEND
  5
187
  8
図形
  0
LINE
  5
6B
  8
基準線
 10
256.42555519163591
 20
197.8464506288415
 30
0.0
 11
66.425555191635894
 21
197.8464506288415
 31
0.0
  0
CIRCLE
  5
6E
  8
図形
 10
161.42555519163591
 20
197.84645062884141
 30
0.0
 40
90.0
  0
CIRCLE
  5
6F
  8
図形
 10
161.42555519163591
 20
197.84645062884141
 30
0.0
 40
74.0
  0
LINE
  5
70
  8
基準線
 10
161.42555519163591
 20
292.84645062884152
 30
0.0
 11
161.42555519163591
 21
102.8464506288415
 31
0.0
  0
INSERT
  5
71
  8
図形
  6
CONTINUOUS
  2
*X9
 10
0.0
 20
0.0
 30
0.0
1001
ACAD
1000
HATCH
1002
{
1070
    19
1000
ANSI31
1040
1.0
1040
0.0
1000
ASC_BOUNDS
1070
     3
1070
     1
1070
     6
1005
9A
1005
3B
1005
92
1005
96
1005
97
1005
90
1070
     1
1070
    11
1005
8B
1005
72
1005
8C
1005
8E
1005
9D
1005
8D
1005
94
1005
93
1005
3B
1005
8A
1005
79
1070
     1
1070
    10
1005
C2
1005
B3
1005
C3
1005
B2
1005
B6
1005
72
1005
A3
1005
C4
1005
A0
1005
B4
1000
ASC_SEEDPOINT
1011
83.000218906416634
1021
2.2497132625612175E+061
1031
0.0
1021
54.032744555836409
1031
0.0
1000
R14_HATCH_DATA
1000
71
1011
1.0
1021
2.2497132625612175E+061
1031
0.0
1021
0.0
1031
0.0
1011
0.0
1021
2.2497132625612175E+061
1031
0.0
1021
1.0
1031
0.0
1011
0.0
1021
2.2497132625612175E+061
1031
0.0
1021
0.0
1031
1.0
1040
0.0
1010
0.0
1020
0.0
1030
1.0
1000
ANSI31
1070
     0
1070
     1
1071
        3
1071
        7
1070
     0
1070
     1
1071
       10
1040
85.925555191635908
1040
51.84704932779556
1040
85.925555191635908
1040
50.84704932779556
1040
87.425555191635908
1040
50.84704932779556
1040
87.425555191635908
1040
52.84704932779556
1040
86.425555191635908
1040
52.84704932779556
1040
86.425555191635908
1040
55.34704932779573
1040
87.425555191635908
1040
55.34704932779573
1040
87.425555191635908
1040
57.84704932779573
1040
80.436530801391996
1040
57.847049327795723
1040
80.436530801391882
1040
51.847049327795553
1071
       10
1005
B4
1005
A0
1005
C4
1005
A3
1005
72
1005
B6
1005
B2
1005
C3
1005
B3
1005
C2
1071
        7
1070
     0
1070
     1
1071
       11
1040
71.425555191635894
1040
33.847049327795609
1040
72.625551191635992
1040
33.847049327795609
1040
72.625551191635751
1040
37.84704932779551
1040
72.825557191635923
1040
37.947049327795519
1040
72.825557191635923
1040
38.347044327795523
1040
73.425555191635723
1040
38.693454327795507
1040
73.425555191635738
1040
39.693454327795621
1040
73.425555191635908
1040
51.847049327795553
1040
77.436530801391854
1040
51.847049327795538
1040
77.436530801391982
1040
57.847049327795609
1040
71.425555191635894
1040
57.847049327795609
1071
       11
1005
79
1005
8A
1005
3B
1005
93
1005
94
1005
8D
1005
9D
1005
8E
1005
8C
1005
72
1005
8B
1071
        7
1070
     0
1070
     1
1071
        6
1040
74.425555191635894
1040
34.847049327795609
1040
74.425555191635894
1040
36.847049327795617
1040
74.22555919163554
1040
36.847049327795617
1040
74.225559191635782
1040
33.847049327795609
1040
78.425555191635908
1040
33.847049327795609
1040
78.425555191635908
1040
34.847049327795609
1071
        6
1005
90
1005
97
1005
96
1005
92
1005
3B
1005
9A
1070
     0
1070
     1
1040
0.0
1040
1.0
1070
     0
1070
     1
1040
0.7853981633974483
1040
0.0
1040
0.0
1040
-2.2450640302672871
1040
2.245064030267288
1070
     0
1040
0.0719538420718562
1071
        3
1040
83.000218906416634
1040
54.032744555836409
1040
0.0
1040
72.776032211529014
1040
53.888836752253503
1040
0.0
1040
76.664102994885866
1040
34.389345227592109
1040
0.0
1002
}
  0
LINE
  5
72
  8
図形
 10
85.925555191635908
 20
51.84704932779556
 30
0.0
 11
73.425555191635908
 21
51.84704932779556
 31
0.0
1001
ACAD
1000
ASC_BOUNDS
1002
{
1070
    19
1005
71
1005
71
1002
}
  0
LINE
  5
73
  8
図形
 10
80.313429484472735
 20
43.75243659779926
 30
0.0
 11
78.707480089858109
 21
40.308467007059853
 31
0.0
  0
LINE
  5
74
  8
図形
 10
85.656343928683086
 20
51.424431066054872
 30
0.0
 11
77.926183871974104
 21
34.847049327795609
 31
0.0
  0
LINE
  5
75
  8
図形
 10
78.6150158937632
 20
36.324254365591059
 30
0.0
 11
79.929162184966344
 21
35.71145788606713
 31
0.0
  0
LINE
  5
76
  8
図形
 10
78.622956437509956
 20
40.127205449652699
 30
0.0
 11
79.166741109731959
 21
39.873634492608289
 31
0.0
  0
LINE
  5
77
  8
図形
 10
79.251264762080041
 20
40.054896050015493
 30
0.0
 11
78.707480089858109
 21
40.308467007059853
 31
0.0
  0
LINE
  5
78
  8
図形
 10
77.019876084937437
 20
35.269667589536368
 30
0.0
 11
84.750036141646433
 21
51.84704932779556
 31
0.0
  0
POLYLINE
  5
79
  8
図形
 66
     1
 10
0.0
 20
0.0
 30
0.0
1001
ACAD
1000
ASC_BOUNDS
1002
{
1070
    19
1005
71
1005
0
1002
}
  0
VERTEX
  5
196
  8
図形
 10
71.425555191635894
 20
57.847049327795609
 30
0.0
  0
VERTEX
  5
197
  8
図形
 10
181.42555519163591
 20
57.84704932779556
 30
0.0
  0
SEQEND
  5
198
  8
図形
  0
DIMENSION
  5
7A
  8
寸法
  2
*D3
 10
61.465513852445838
 20
33.847049327795609
 30
0.0
 11
59.090513852445831
 21
45.847049327795617
 31
0.0
 13
71.425555191635894
 23
57.847049327795609
 33
0.0
 14
71.425555191635894
 24
33.847049327795609
 34
0.0
 50
270.0
1001
ACAD
1000
DSTYLE
1002
{
1070
   340
1005
3F
1002
}
  0
LINE
  5
89
  8
図形
 10
77.73653080139195
 20
57.84704932779573
 30
0.0
 11
77.736530801391837
 21
51.84704932779556
 31
0.0
  0
LINE
  5
8A
  8
図形
 10
71.425555191635894
 20
33.847049327795609
 30
0.0
 11
71.425555191635894
 21
57.847049327795609
 31
0.0
1001
ACAD
1000
ASC_BOUNDS
1002
{
1070
    19
1005
71
1005
0
1002
}
  0
LINE
  5
8B
  8
図形
 10
77.436530801391996
 20
57.84704932779573
 30
0.0
 11
77.436530801391882
 21
51.84704932779556
 31
0.0
1001
ACAD
1000
ASC_BOUNDS
1002
{
1070
    19
1005
71
1002
}
  0
LINE
  5
8C
  8
図形
 10
73.425555191635908
 20
36.847049327795617
 30
0.0
 11
73.425555191635908
 21
51.84704932779556
 31
0.0
1001
ACAD
1000
ASC_BOUNDS
1002
{
1070
    19
1005
71
1002
}
  0
LINE
  5
8D
  8
図形
 10
72.825557191635923
 20
38.347044327795629
 30
0.0
 11
72.825557191636136
 21
33.847049327795609
 31
0.0
1001
ACAD
1000
ASC_BOUNDS
1002
{
1070
    19
1005
71
1002
}
  0
LINE
  5
8E
  8
基準線
 10
73.425555191635738
 20
39.693454327795621
 30
0.0
 11
73.425555191635738
 21
32.847049327795609
 31
0.0
1001
ACAD
1000
ASC_BOUNDS
1002
{
1070
    19
1005
71
1002
}
  0
LINE
  5
8F
  8
図形
 10
78.622956437509956
 20
40.127205449652699
 30
0.0
 11
77.01700704289533
 21
36.68323585891352
 31
0.0
  0
LINE
  5
90
  8
図形
 10
78.425555191635908
 20
34.847049327795609
 30
0.0
 11
74.425555191635894
 21
34.847049327795609
 31
0.0
1001
ACAD
1000
ASC_BOUNDS
1002
{
1070
    19
1005
71
1002
}
  0
LINE
  5
91
  8
図形
 10
74.025553191635851
 20
36.847049327795617
 30
0.0
 11
74.025553191635851
 21
33.847049327795609
 31
0.0
  0
LINE
  5
92
  8
図形
 10
74.22555919163554
 20
36.847049327795617
 30
0.0
 11
74.225559191635767
 21
33.847049327795609
 31
0.0
1001
ACAD
1000
ASC_BOUNDS
1002
{
1070
    19
1005
71
1002
}
  0
LINE
  5
93
  8
図形
 10
72.625551191635765
 20
37.847049327795609
 30
0.0
 11
72.625551191635992
 21
33.847049327795609
 31
0.0
1001
ACAD
1000
ASC_BOUNDS
1002
{
1070
    19
1005
71
1002
}
  0
LINE
  5
94
  8
図形
 10
72.625551191635964
 20
37.847049327795609
 30
0.0
 11
72.825557191636136
 21
37.947049327795611
 31
0.0
1001
ACAD
1000
ASC_BOUNDS
1002
{
1070
    19
1005
71
1002
}
  0
LINE
  5
95
  8
図形
 10
72.625551191635708
 20
37.847049327795489
 30
0.0
 11
73.425555191635596
 21
37.847049327795553
 31
0.0
  0
LINE
  5
96
  8
図形
 10
74.425555191635894
 20
36.847049327795617
 30
0.0
 11
73.425555191635908
 21
36.847049327795617
 31
0.0
1001
ACAD
1000
ASC_BOUNDS
1002
{
1070
    19
1005
71
1002
}
  0
LINE
  5
97
  8
図形
 10
74.425555191635894
 20
34.847049327795609
 30
0.0
 11
74.425555191635894
 21
36.847049327795617
 31
0.0
1001
ACAD
1000
ASC_BOUNDS
1002
{
1070
    19
1005
71
1002
}
  0
LINE
  5
98
  8
図形
 10
71.425555191635894
 20
33.847049327795609
 30
0.0
 11
71.425555191635894
 21
33.847049327795609
 31
0.0
  0
LINE
  5
99
  8
図形
 10
77.926183871974104
 20
34.847049327795609
 30
0.0
 11
77.019876084937437
 21
35.269667589536368
 31
0.0
  0
LINE
  5
9A
  8
図形
 10
78.425555191635908
 20
33.847049327795609
 30
0.0
 11
78.425555191635908
 21
34.847049327795609
 31
0.0
1001
ACAD
1000
ASC_BOUNDS
1002
{
1070
    19
1005
71
1002
}
  0
LINE
  5
9B
  8
図形
 10
77.560791715117318
 20
36.429664901869039
 30
0.0
 11
77.01700704289533
 21
36.68323585891352
 31
0.0
  0
LINE
  5
9C
  8
図形
 10
73.425555191635979
 20
38.347044327795629
 30
0.0
 11
72.825557191636094
 21
38.347044327795629
 31
0.0
  0
LINE
  5
9D
  8
図形
 10
72.825557191636094
 20
38.347044327795629
 30
0.0
 11
73.425555191635908
 21
38.693454327795621
 31
0.0
1001
ACAD
1000
ASC_BOUNDS
1002
{
1070
    19
1005
71
1002
}
  0
LINE
  5
9E
  8
図形
 10
71.425555191635894
 20
57.847049327795609
 30
0.0
 11
71.425555191635894
 21
57.847049327795609
 31
0.0
  0
LINE
  5
9F
  8
基準線
 10
161.42555519163591
 20
60.84704932779556
 30
0.0
 11
161.42555519163591
 21
30.84704932779556
 31
0.0
  0
LINE
  5
A0
  8
図形
 10
87.425555191635908
 20
57.84704932779573
 30
0.0
 11
87.425555191635908
 21
55.34704932779573
 31
0.0
1001
ACAD
1000
ASC_BOUNDS
1002
{
1070
    19
1005
71
1002
}
  0
LINE
  5
A1
  8
基準線
 10
78.936530801391996
 20
59.847049327795609
 30
0.0
 11
78.936530801391996
 21
49.84704932779556
 31
0.0
  0
LINE
  5
A2
  8
図形
 10
80.136530801391984
 20
57.847049327795958
 30
0.0
 11
80.136530801391871
 21
51.84704932779556
 31
0.0
  0
LINE
  5
A3
  8
図形
 10
80.436530801391882
 20
51.84704932779556
 30
0.0
 11
80.436530801391996
 21
57.84704932779573
 31
0.0
1001
ACAD
1000
ASC_BOUNDS
1002
{
1070
    19
1005
71
1002
}
  0
LINE
  5
A4
  8
図形
 10
82.003902531435514
 20
47.377667745945871
 30
0.0
 11
80.397953136820888
 21
43.933698155206571
 31
0.0
  0
ARC
  5
A5
  8
図形
 10
83.965166584590008
 20
44.366697252267009
 30
0.0
 40
1.55
 50
245.0000000000006
 51
65.000000000000625
  0
ARC
  5
A6
  8
図形
 10
83.965166584590008
 20
44.366697252267009
 30
0.0
 40
1.55
 50
245.0000000000006
 51
65.000000000000625
  0
ARC
  5
A7
  8
図形
 10
80.58422049066445
 20
37.116234955973738
 30
0.0
 40
1.55
 50
245.0000000000006
 51
65.000000000000625
  0
LINE
  5
A8
  8
図形
 10
81.61560555212219
 20
42.759039653551334
 30
0.0
 11
82.929751843325278
 21
42.14624317402729
 31
0.0
  0
LINE
  5
A9
  8
図形
 10
81.995961987688759
 20
43.574716661884281
 30
0.0
 11
83.31010827889196
 21
42.961920182360238
 31
0.0
  0
LINE
  5
AA
  8
図形
 10
81.995961987688759
 20
43.574716661884281
 30
0.0
 11
83.31010827889196
 21
42.961920182360238
 31
0.0
  0
ARC
  5
AB
  8
図形
 10
82.274693537627229
 20
40.741466104120462
 30
0.0
 40
1.55
 50
245.0000000000006
 51
65.000000000000625
  0
LINE
  5
AC
  8
図形
 10
79.925132505159354
 20
39.133808505404659
 30
0.0
 11
81.239278796362498
 21
38.521012025880729
 31
0.0
  0
LINE
  5
AD
  8
図形
 10
79.166741109731959
 20
39.873634492608289
 30
0.0
 11
79.166741109731959
 21
39.873634492608289
 31
0.0
  0
LINE
  5
AE
  8
図形
 10
80.305488940725979
 20
39.94948551373772
 30
0.0
 11
81.619635231929124
 21
39.336689034213578
 31
0.0
  0
LINE
  5
AF
  8
図形
 10
80.941737809042877
 20
43.680127198162147
 30
0.0
 11
80.397953136820888
 21
43.933698155206571
 31
0.0
  0
LINE
  5
B0
  8
図形
 10
80.313429484472735
 20
43.75243659779926
 30
0.0
 11
80.857214156694724
 21
43.498865640754843
 31
0.0
  0
LINE
  5
B1
  8
図形
 10
80.857214156694724
 20
43.498865640754843
 30
0.0
 11
80.857214156694724
 21
43.498865640754843
 31
0.0
  0
LINE
  5
B2
  8
図形
 10
87.425555191635908
 20
50.84704932779556
 30
0.0
 11
85.925555191635908
 21
50.84704932779556
 31
0.0
1001
ACAD
1000
ASC_BOUNDS
1002
{
1070
    19
1005
71
1002
}
  0
LINE
  5
B3
  8
図形
 10
87.425555191635908
 20
52.84704932779556
 30
0.0
 11
86.425555191635908
 21
52.84704932779556
 31
0.0
1001
ACAD
1000
ASC_BOUNDS
1002
{
1070
    19
1005
71
1002
}
  0
LINE
  5
B4
  8
図形
 10
87.425555191635908
 20
55.34704932779573
 30
0.0
 11
86.425555191635908
 21
55.34704932779573
 31
0.0
1001
ACAD
1000
ASC_BOUNDS
1002
{
1070
    19
1005
71
1002
}
  0
ARC
  5
B5
  8
図形
 10
85.655639631552845
 20
47.99192840041357
 30
0.0
 40
1.55
 50
245.0000000000006
 51
65.000000000000625
  0
LINE
  5
B6
  8
図形
 10
85.925555191635908
 20
50.84704932779556
 30
0.0
 11
85.925555191635908
 21
51.84704932779556
 31
0.0
1001
ACAD
1000
ASC_BOUNDS
1002
{
1070
    19
1005
71
1002
}
  0
LINE
  5
B7
  8
図形
 10
83.694375578398294
 20
51.002898894092432
 30
0.0
 11
82.088426183783668
 21
47.558929303353132
 31
0.0
  0
LINE
  5
B8
  8
図形
 10
82.547687203657503
 20
47.124096788901447
 30
0.0
 11
82.547687203657503
 21
47.124096788901447
 31
0.0
  0
LINE
  5
B9
  8
図形
 10
82.547687203657503
 20
47.124096788901447
 30
0.0
 11
82.547687203657503
 21
47.124096788901447
 31
0.0
  0
LINE
  5
BA
  8
図形
 10
82.003902531435514
 20
47.377667745945871
 30
0.0
 11
82.547687203657503
 21
47.124096788901447
 31
0.0
  0
LINE
  5
BB
  8
図形
 10
82.632210856005656
 20
47.305358346308701
 30
0.0
 11
82.088426183783668
 21
47.558929303353132
 31
0.0
  0
LINE
  5
BC
  8
図形
 10
83.694375578398294
 20
51.002898894092432
 30
0.0
 11
84.238160250620297
 21
50.749327937048001
 31
0.0
  0
LINE
  5
BD
  8
図形
 10
83.686435034651538
 20
47.199947810030892
 30
0.0
 11
85.000581325854739
 21
46.587151330506849
 31
0.0
  0
LINE
  5
BE
  8
図形
 10
83.306078599084955
 20
46.38427080169793
 30
0.0
 11
84.620224890288114
 21
45.771474322173887
 31
0.0
  0
LINE
  5
BF
  8
図形
 10
83.306078599084955
 20
46.38427080169793
 30
0.0
 11
84.620224890288114
 21
45.771474322173887
 31
0.0
  0
LINE
  5
C0
  8
図形
 10
84.996551646047735
 20
50.009501949844541
 30
0.0
 11
86.310697937250893
 21
49.396705470320512
 31
0.0
  0
LINE
  5
C1
  8
図形
 10
84.750036141646433
 20
51.84704932779556
 30
0.0
 11
85.656343928683086
 21
51.424431066054872
 31
0.0
  0
LINE
  5
C2
  8
図形
 10
86.425555191635908
 20
55.34704932779573
 30
0.0
 11
86.425555191635908
 21
52.84704932779556
 31
0.0
1001
ACAD
1000
ASC_BOUNDS
1002
{
1070
    19
1005
71
1002
}
  0
LINE
  5
C3
  8
図形
 10
87.425555191635908
 20
50.84704932779556
 30
0.0
 11
87.425555191635908
 21
52.84704932779556
 31
0.0
1001
ACAD
1000
ASC_BOUNDS
1002
{
1070
    19
1005
71
1002
}
  0
LINE
  5
C4
  8
図形
 10
87.425555191635908
 20
57.84704932779573
 30
0.0
 11
80.436530801391996
 21
57.84704932779573
 31
0.0
1001
ACAD
1000
ASC_BOUNDS
1002
{
1070
    19
1005
71
1002
}
  0
LINE
  5
C5
  8
基準線
 10
158.92555519163591
 20
115.3464506288415
 30
0.0
 11
163.92555519163591
 21
115.3464506288415
 31
0.0
  0
CIRCLE
  5
C6
  8
図形
 10
161.42555519163591
 20
115.3464506288414
 30
0.0
 40
1.5
  0
CIRCLE
  5
C7
  8
図形
 10
161.42555519163591
 20
115.3464506288414
 30
0.0
 40
1.1999999999999991
  0
LINE
  5
C8
  8
基準線
 10
161.42555519163591
 20
117.8464506288415
 30
0.0
 11
161.42555519163591
 21
112.8464506288415
 31
0.0
  0
CIRCLE
  5
C9
  8
図形
 10
78.925555191635894
 20
197.8464506288415
 30
0.0
 40
1.1999999999999991
  0
CIRCLE
  5
CA
  8
図形
 10
78.925555191635894
 20
197.8464506288415
 30
0.0
 40
1.5
  0
LINE
  5
CB
  8
基準線
 10
76.425555191635894
 20
197.8464506288415
 30
0.0
 11
81.425555191635908
 21
197.8464506288415
 31
0.0
  0
LINE
  5
CC
  8
基準線
 10
78.925555191635894
 20
200.3464506288415
 30
0.0
 11
78.925555191635894
 21
195.3464506288415
 31
0.0
  0
LINE
  5
CD
  8
基準線
 10
158.92555519163591
 20
280.34645062884152
 30
0.0
 11
163.92555519163591
 21
280.34645062884152
 31
0.0
  0
CIRCLE
  5
CE
  8
図形
 10
161.42555519163591
 20
280.34645062884141
 30
0.0
 40
1.1999999999999991
  0
CIRCLE
  5
CF
  8
図形
 10
161.42555519163591
 20
280.34645062884141
 30
0.0
 40
1.5
  0
LINE
  5
D0
  8
基準線
 10
161.42555519163591
 20
282.84645062884152
 30
0.0
 11
161.42555519163591
 21
277.84645062884152
 31
0.0
  0
ARC
  5
D1
  8
図形
 10
264.73259767964282
 20
133.54001514654209
 30
0.0
 40
1.200000000000021
 50
93.189999999997752
 51
176.80999000000551
  0
LINE
  5
D2
  8
図形
 10
264.67233096868239
 20
134.7445503350898
 30
0.0
 11
268.78617215560843
 21
130.60405122251311
 31
0.0
  0
LINE
  5
D3
  8
図形
 10
250.17045117491941
 20
134.80856111688641
 30
0.0
 11
243.68091157500541
 21
128.31902151697261
 31
0.0
  0
LINE
  5
D4
  8
図形
 10
226.1960543982299
 20
135.33288591444611
 30
0.0
 11
230.95534417922869
 21
130.57359613344741
 31
0.0
  0
LINE
  5
D5
  8
図形
 10
247.3472779726969
 20
137.06603499030379
 30
0.0
 11
240.85483911584041
 21
130.5735961334473
 31
0.0
  0
INSERT
  5
D6
  8
0
  2
*U10
 10
0.0
 20
0.0
 30
0.0
  0
ARC
  5
D8
  8
図形
 10
275.7775251916359
 20
62.624634412040109
 30
0.0
 40
10.6
 50
90.0
 51
180.0
  0
TEXT
  5
D9
  8
0
 10
272.39094019225598
 20
61.064815892977428
 30
0.0
 40
5.0
  1
L=500
  7
NISSIN5
  0
ARC
  5
DA
  8
図形
 10
275.7700851916365
 20
63.024644243550931
 30
0.0
 40
7.0
 50
90.0
 51
180.0
  0
LINE
  5
DB
  8
図形
 10
269.59931666970181
 20
131.41719573660629
 30
0.0
 11
276.81179876673679
 21
124.2047136395713
 31
0.0
  0
LINE
  5
DC
  8
図形
 10
281.93830878820381
 20
118.01754344632459
 30
0.0
 11
272.74590649064282
 21
127.2099457438854
 31
0.0
  0
LINE
  5
DD
  8
図形
 10
277.55424674484698
 20
117.8761362322229
 30
0.0
 11
271.19031399843931
 21
124.2400689786306
 31
0.0
  0
LINE
  5
DE
  8
図形
 10
278.11993216979619
 20
118.4418216571721
 30
0.0
 11
271.75599942338857
 21
124.8057544035799
 31
0.0
  0
LINE
  5
DF
  8
図形
 10
278.68561052367772
 20
119.00750001105349
 30
0.0
 11
272.32167777727011
 21
125.37143275746131
 31
0.0
  0
LINE
  5
E0
  8
図形
 10
279.25129594862688
 20
119.5731854360028
 30
0.0
 11
272.88736320221921
 21
125.9371181824105
 31
0.0
  0
LINE
  5
E1
  8
図形
  6
CONTINUOUS
 10
272.74593477491419
 20
118.7246643696468
 30
0.0
 11
277.69568224322001
 21
113.774916901341
 31
0.0
  0
LINE
  5
E2
  8
図形
 10
279.10988873452538
 20
115.18912339264629
 30
0.0
 11
269.91748643696462
 21
124.381525690207
 31
0.0
  0
LINE
  5
E3
  8
図形
 10
236.92555519163591
 20
51.84704932779556
 30
0.0
 11
249.42555519163591
 21
51.84704932779556
 31
0.0
1001
ACAD
1000
ASC_BOUNDS
1002
{
1070
    19
1005
E9
1005
E9
1002
}
  0
LINE
  5
E4
  8
図形
 10
242.52685310837111
 20
43.752343878436761
 30
0.0
 11
244.1328025029857
 21
40.308374287697447
 31
0.0
  0
LINE
  5
E5
  8
図形
 10
238.09020321544861
 20
51.84704932779556
 30
0.0
 11
245.82036327215769
 21
35.269667589536191
 31
0.0
  0
LINE
  5
E6
  8
図形
 10
237.18389542841209
 20
51.424431066054829
 30
0.0
 11
244.91405548512111
 21
34.84704932779556
 31
0.0
  0
LINE
  5
E7
  8
図形
 10
242.91515008768451
 20
39.133715786042217
 30
0.0
 11
241.60100379648131
 21
38.520919306518181
 31
0.0
  0
ARC
  5
E8
  8
図形
 10
242.2560621021795
 20
37.116142236611381
 30
0.0
 40
1.55
 50
114.9999999999993
 51
294.99999999999932
  0
INSERT
  5
E9
  8
図形
  6
CONTINUOUS
  2
*X11
 10
0.0
 20
0.0
 30
0.0
1001
ACAD
1000
HATCH
1002
{
1070
    19
1000
ANSI31
1040
1.0
1040
0.0
1000
ASC_BOUNDS
1070
     3
1070
     1
1070
     6
1005
119
1005
3B
1005
114
1005
112
1005
11D
1005
11C
1070
     1
1070
    10
1005
10A
1005
3B
1005
11B
1005
118
1005
10F
1005
120
1005
10E
1005
E3
1005
10B
1005
6A
1070
     1
1070
    10
1005
EC
1005
E3
1005
F5
1005
FA
1005
F6
1005
102
1005
103
1005
104
1005
EA
1005
105
1000
ASC_SEEDPOINT
1011
239.9348342837547
1021
2.2497132625612175E+061
1031
0.0
1021
54.920094002217184
1031
0.0
1000
R14_HATCH_DATA
1000
E9
1011
1.0
1021
2.2497132625612175E+061
1031
0.0
1021
0.0
1031
0.0
1011
0.0
1021
2.2497132625612175E+061
1031
0.0
1021
1.0
1031
0.0
1011
0.0
1021
2.2497132625612175E+061
1031
0.0
1021
0.0
1031
1.0
1040
0.0
1010
0.0
1020
0.0
1030
1.0
1000
ANSI31
1070
     0
1070
     1
1071
        3
1071
        7
1070
     0
1070
     1
1071
       10
1040
242.41457958187979
1040
57.84704932779556
1040
235.42555519163591
1040
57.84704932779556
1040
235.42555519163591
1040
55.34704932779556
1040
236.42555519163591
1040
55.347049327795553
1040
236.42555519163591
1040
52.84704932779556
1040
235.42555519163591
1040
52.84704932779556
1040
235.42555519163591
1040
50.84704932779556
1040
236.92555519163591
1040
50.84704932779556
1040
236.92555519163591
1040
51.84704932779556
1040
242.41457958187991
1040
51.84704932779556
1071
       10
1005
105
1005
EA
1005
104
1005
103
1005
102
1005
F6
1005
FA
1005
F5
1005
E3
1005
EC
1071
        7
1070
     0
1070
     1
1071
       10
1040
251.42555519163591
1040
57.847049327795567
1040
245.41457958187979
1040
57.847049327795581
1040
245.41457958187991
1040
51.84704932779556
1040
249.42555519163591
1040
51.84704932779556
1040
249.42555519163579
1040
38.693454327795649
1040
250.02555319163579
1040
38.347044327795601
1040
250.02555319163579
1040
37.94704932779559
1040
250.22555919163551
1040
37.847049327795567
1040
250.22555919163571
1040
33.847049327795553
1040
251.42555519163571
1040
33.847049327795553
1071
       10
1005
6A
1005
10B
1005
E3
1005
10E
1005
120
1005
10F
1005
118
1005
11B
1005
3B
1005
10A
1071
        7
1070
     0
1070
     1
1071
        6
1040
248.62555119163579
1040
36.84704932779556
1040
248.42555519163571
1040
36.84704932779556
1040
248.42555519163579
1040
34.84704932779556
1040
244.42555519163579
1040
34.84704932779556
1040
244.42555519163579
1040
33.847049327795553
1040
248.62555119163591
1040
33.847049327795553
1071
        6
1005
11C
1005
11D
1005
112
1005
114
1005
3B
1005
119
1070
     0
1070
     1
1040
0.0
1040
1.0
1070
     0
1070
     1
1040
0.7853981633974483
1040
0.0
1040
0.0
1040
-2.2450640302672871
1040
2.245064030267288
1070
     0
1040
0.0658105851670908
1071
        3
1040
239.9348342837547
1040
54.920094002217184
1040
0.0
1040
249.02268698592911
1040
55.24914700416587
1040
0.0
1040
247.70560743284699
1040
34.518812307675937
1040
0.0
1002
}
  0
LINE
  5
EA
  8
図形
 10
235.42555519163591
 20
57.84704932779556
 30
0.0
 11
235.42555519163591
 21
55.34704932779556
 31
0.0
1001
ACAD
1000
ASC_BOUNDS
1002
{
1070
    19
1005
E9
1002
}
  0
LINE
  5
EB
  8
図形
 10
242.7145795818798
 20
57.84704932779556
 30
0.0
 11
242.7145795818798
 21
51.84704932779556
 31
0.0
  0
LINE
  5
EC
  8
図形
 10
242.41457958187991
 20
51.84704932779556
 30
0.0
 11
242.41457958187979
 21
57.84704932779556
 31
0.0
1001
ACAD
1000
ASC_BOUNDS
1002
{
1070
    19
1005
E9
1002
}
  0
LINE
  5
ED
  8
図形
 10
240.83638006140831
 20
47.377575026583372
 30
0.0
 11
242.44232945602289
 21
43.933605435844072
 31
0.0
  0
ARC
  5
EE
  8
図形
 10
238.87511600825391
 20
44.366604532904539
 30
0.0
 40
1.55
 50
114.9999999999993
 51
294.99999999999932
  0
ARC
  5
EF
  8
図形
 10
240.56558905521669
 20
40.741373384757992
 30
0.0
 40
1.55
 50
114.9999999999993
 51
294.99999999999932
  0
LINE
  5
F0
  8
図形
 10
242.53479365211791
 20
39.949392794375171
 30
0.0
 11
241.22064736091471
 21
39.336596314851128
 31
0.0
  0
LINE
  5
F1
  8
図形
 10
240.8443206051551
 20
43.574623942521782
 30
0.0
 11
239.53017431395179
 21
42.961827462997739
 31
0.0
  0
LINE
  5
F2
  8
図形
 10
241.22467704072159
 20
42.758946934188828
 30
0.0
 11
239.9105307495185
 21
42.146150454664792
 31
0.0
  0
LINE
  5
F3
  8
図形
 10
242.52685310837111
 20
43.752343878436761
 30
0.0
 11
241.9830684361491
 21
43.498772921392337
 31
0.0
  0
LINE
  5
F4
  8
図形
 10
241.89854478380099
 20
43.680034478799648
 30
0.0
 11
242.44232945602289
 21
43.933605435844072
 31
0.0
  0
LINE
  5
F5
  8
図形
 10
236.92555519163591
 20
50.84704932779556
 30
0.0
 11
236.92555519163591
 21
51.84704932779556
 31
0.0
1001
ACAD
1000
ASC_BOUNDS
1002
{
1070
    19
1005
E9
1002
}
  0
LINE
  5
F6
  8
図形
 10
235.42555519163591
 20
52.84704932779556
 30
0.0
 11
235.42555519163591
 21
50.84704932779556
 31
0.0
1001
ACAD
1000
ASC_BOUNDS
1002
{
1070
    19
1005
E9
1002
}
  0
LINE
  5
F7
  8
図形
 10
238.60212234222359
 20
50.749235217685509
 30
0.0
 11
239.1459070144455
 21
51.002806174729933
 31
0.0
  0
LINE
  5
F8
  8
図形
 10
239.53420399375881
 20
46.384178082335431
 30
0.0
 11
238.22005770255569
 21
45.771381602811402
 31
0.0
  0
LINE
  5
F9
  8
図形
 10
239.15384755819241
 20
47.199855090668393
 30
0.0
 11
237.8397012669891
 21
46.587058611144357
 31
0.0
  0
LINE
  5
FA
  8
図形
 10
235.42555519163591
 20
50.84704932779556
 30
0.0
 11
236.92555519163591
 21
50.84704932779556
 31
0.0
1001
ACAD
1000
ASC_BOUNDS
1002
{
1070
    19
1005
E9
1002
}
  0
ARC
  5
FB
  8
図形
 10
237.18464296129099
 20
47.991835681051093
 30
0.0
 40
1.55
 50
114.9999999999993
 51
294.99999999999932
  0
LINE
  5
FC
  8
図形
 10
237.84373094679609
 20
50.009409230482042
 30
0.0
 11
236.52958465559291
 21
49.396612750958013
 31
0.0
  0
LINE
  5
FD
  8
図形
 10
239.38628760214959
 20
46.70138580779826
 30
0.0
 11
239.38628760214959
 21
46.70138580779826
 31
0.0
  0
LINE
  5
FE
  8
図形
 10
240.83638006140831
 20
47.377575026583372
 30
0.0
 11
240.29259538918629
 21
47.124004069538962
 31
0.0
  0
LINE
  5
FF
  8
図形
 10
240.20807173683829
 20
47.305265626946202
 30
0.0
 11
240.7518564090602
 21
47.558836583990633
 31
0.0
  0
LINE
  5
100
  8
図形
 10
239.1459070144455
 20
51.002806174729933
 30
0.0
 11
240.7518564090602
 21
47.558836583990633
 31
0.0
  0
LINE
  5
101
  8
図形
 10
237.18389542841209
 20
51.424431066054829
 30
0.0
 11
238.09020321544861
 21
51.84704932779556
 31
0.0
  0
LINE
  5
102
  8
図形
 10
236.42555519163591
 20
52.84704932779556
 30
0.0
 11
235.42555519163591
 21
52.84704932779556
 31
0.0
1001
ACAD
1000
ASC_BOUNDS
1002
{
1070
    19
1005
E9
1002
}
  0
LINE
  5
103
  8
図形
 10
236.42555519163591
 20
55.34704932779556
 30
0.0
 11
236.42555519163591
 21
52.84704932779556
 31
0.0
1001
ACAD
1000
ASC_BOUNDS
1002
{
1070
    19
1005
E9
1002
}
  0
LINE
  5
104
  8
図形
 10
235.42555519163591
 20
55.34704932779556
 30
0.0
 11
236.42555519163591
 21
55.34704932779556
 31
0.0
1001
ACAD
1000
ASC_BOUNDS
1002
{
1070
    19
1005
E9
1002
}
  0
LINE
  5
105
  8
図形
 10
235.42555519163591
 20
57.84704932779556
 30
0.0
 11
242.41457958187979
 21
57.84704932779556
 31
0.0
1001
ACAD
1000
ASC_BOUNDS
1002
{
1070
    19
1005
E9
1002
}
  0
LINE
  5
106
  8
図形
 10
265.17752519163599
 20
62.624634412040109
 30
0.0
 11
265.17752519163599
 21
53.442939327795607
 31
0.0
  0
LINE
  5
107
  8
図形
 10
268.7700851916365
 20
63.024644243550931
 30
0.0
 11
268.7700851916365
 21
53.847049327795503
 31
0.0
  0
LINE
  5
108
  8
図形
 10
245.1145795818797
 20
57.84704932779556
 30
0.0
 11
245.11457958187989
 21
51.84704932779556
 31
0.0
  0
LINE
  5
109
  8
基準線
 10
243.93653080139211
 20
59.84704932779556
 30
0.0
 11
243.93653080139211
 21
49.84704932779556
 31
0.0
  0
LINE
  5
10A
  8
図形
 10
251.42555519163571
 20
33.847049327795553
 30
0.0
 11
251.42555519163591
 21
57.84704932779556
 31
0.0
1001
ACAD
1000
ASC_BOUNDS
1002
{
1070
    19
1005
E9
1002
}
  0
LINE
  5
10B
  8
図形
 10
245.41457958187979
 20
57.84704932779556
 30
0.0
 11
245.41457958187991
 21
51.84704932779556
 31
0.0
1001
ACAD
1000
ASC_BOUNDS
1002
{
1070
    19
1005
E9
1002
}
  0
ARC
  5
10C
  8
図形
 10
258.17008519163642
 20
53.847049327795503
 30
0.0
 40
10.6
 50
270.0
 51
0.0
  0
ARC
  5
10D
  8
図形
 10
258.17752519163588
 20
53.442939327795607
 30
0.0
 40
6.9999999999999973
 50
270.0
 51
0.0
  0
LINE
  5
10E
  8
図形
 10
249.42555519163591
 20
51.84704932779556
 30
0.0
 11
249.42555519163571
 21
36.84704932779556
 31
0.0
1001
ACAD
1000
ASC_BOUNDS
1002
{
1070
    19
1005
E9
1002
}
  0
LINE
  5
10F
  8
図形
 10
250.02555319163579
 20
38.347044327795629
 30
0.0
 11
250.02555319163579
 21
33.847049327795609
 31
0.0
1001
ACAD
1000
ASC_BOUNDS
1002
{
1070
    19
1005
E9
1002
}
  0
LINE
  5
110
  8
基準線
 10
249.42555519163571
 20
39.693454327795621
 30
0.0
 11
249.42555519163571
 21
32.847049327795609
 31
0.0
  0
LINE
  5
111
  8
図形
 10
244.21732615533389
 20
40.127112730290207
 30
0.0
 11
245.82327554994851
 21
36.683143139550793
 31
0.0
  0
LINE
  5
112
  8
図形
 10
244.42555519163579
 20
34.84704932779556
 30
0.0
 11
248.42555519163579
 21
34.84704932779556
 31
0.0
1001
ACAD
1000
ASC_BOUNDS
1002
{
1070
    19
1005
E9
1002
}
  0
LINE
  5
113
  8
図形
 10
244.91405548512111
 20
34.84704932779556
 30
0.0
 11
245.82036327215769
 21
35.269667589536191
 31
0.0
  0
LINE
  5
114
  8
図形
 10
244.42555519163579
 20
33.847049327795553
 30
0.0
 11
244.42555519163579
 21
34.84704932779556
 31
0.0
1001
ACAD
1000
ASC_BOUNDS
1002
{
1070
    19
1005
E9
1002
}
  0
LINE
  5
115
  8
図形
 10
244.22526669908069
 20
36.324161646228667
 30
0.0
 11
242.91112040787749
 21
35.711365166704518
 31
0.0
  0
LINE
  5
116
  8
図形
 10
245.2794908777266
 20
36.429572182506433
 30
0.0
 11
245.82327554994851
 21
36.683143139550793
 31
0.0
  0
LINE
  5
117
  8
図形
 10
249.4255551916356
 20
37.847049327795553
 30
0.0
 11
250.2255591916354
 21
37.847049327795609
 31
0.0
  0
LINE
  5
118
  8
図形
 10
250.02555319163579
 20
37.947049327795611
 30
0.0
 11
250.2255591916354
 21
37.847049327795609
 31
0.0
1001
ACAD
1000
ASC_BOUNDS
1002
{
1070
    19
1005
E9
1002
}
  0
LINE
  5
119
  8
図形
 10
248.62555119163579
 20
36.84704932779556
 30
0.0
 11
248.62555119163591
 21
33.847049327795609
 31
0.0
1001
ACAD
1000
ASC_BOUNDS
1002
{
1070
    19
1005
E9
1002
}
  0
LINE
  5
11A
  8
図形
 10
248.82555719163599
 20
36.84704932779556
 30
0.0
 11
248.82555719163611
 21
33.847049327795609
 31
0.0
  0
LINE
  5
11B
  8
図形
 10
250.22555919163551
 20
37.847049327795609
 30
0.0
 11
250.22555919163571
 21
33.847049327795609
 31
0.0
1001
ACAD
1000
ASC_BOUNDS
1002
{
1070
    19
1005
E9
1002
}
  0
LINE
  5
11C
  8
図形
 10
248.42555519163579
 20
36.84704932779556
 30
0.0
 11
249.42555519163571
 21
36.84704932779556
 31
0.0
1001
ACAD
1000
ASC_BOUNDS
1002
{
1070
    19
1005
E9
1002
}
  0
LINE
  5
11D
  8
図形
 10
248.42555519163579
 20
34.84704932779556
 30
0.0
 11
248.42555519163579
 21
36.84704932779556
 31
0.0
1001
ACAD
1000
ASC_BOUNDS
1002
{
1070
    19
1005
E9
1002
}
  0
LINE
  5
11E
  8
図形
 10
244.21732615533389
 20
40.127112730290207
 30
0.0
 11
243.67354148311179
 21
39.87354177324579
 31
0.0
  0
LINE
  5
11F
  8
図形
 10
243.58901783076379
 20
40.054803330653087
 30
0.0
 11
244.1328025029857
 21
40.308374287697447
 31
0.0
  0
LINE
  5
120
  8
図形
 10
250.02555319163579
 20
38.347044327795629
 30
0.0
 11
249.42555519163591
 21
38.693454327795621
 31
0.0
1001
ACAD
1000
ASC_BOUNDS
1002
{
1070
    19
1005
E9
1002
}
  0
LINE
  5
121
  8
図形
 10
250.02555319163579
 20
38.347044327795629
 30
0.0
 11
249.42555519163591
 21
38.347044327795629
 31
0.0
  0
LINE
  5
122
  8
図形
 10
251.42555519163571
 20
33.847049327795553
 30
0.0
 11
251.42555519163571
 21
33.847049327795553
 31
0.0
  0
LINE
  5
123
  8
図形
 10
251.42555519163571
 20
43.24704932779553
 30
0.0
 11
258.17008519163642
 21
43.24704932779553
 31
0.0
  0
LINE
  5
124
  8
図形
 10
251.42555519163571
 20
46.442939327795607
 30
0.0
 11
258.17752519163588
 21
46.442939327795607
 31
0.0
  0
LINE
  5
125
  8
図形
 10
251.42555519163591
 20
57.84704932779556
 30
0.0
 11
251.42555519163591
 21
57.84704932779556
 31
0.0
  0
ARC
  5
126
  8
図形
 10
236.1855796944281
 20
135.81435339755001
 30
0.0
 40
10.6
 50
225.0
 51
315.0
  0
LINE
  5
127
  8
図形
 10
223.93136937444461
 20
133.07789995637879
 30
0.0
 11
228.6902478138507
 21
128.3190215169727
 31
0.0
  0
ARC
  5
128
  8
図形
 10
235.9050916475345
 20
135.52334360175311
 30
0.0
 40
6.9999999999999973
 50
225.0
 51
315.0
  0
LINE
  5
129
  8
図形
 10
272.92271854127858
 20
120.31563341411319
 30
0.0
 11
265.71023644424361
 21
127.5281155111481
 31
0.0
  0
LINE
  5
12A
  8
図形
 10
272.92271854127858
 20
120.31563341411319
 30
0.0
 11
273.45304862716853
 21
120.84596350000309
 31
0.0
  0
LINE
  5
12B
  8
図形
 10
272.7459559881176
 20
120.1388708609521
 30
0.0
 11
272.92271854127858
 21
120.31563341411319
 31
0.0
  0
ARC
  5
12C
  8
図形
 10
273.45304862716858
 20
119.4317782219013
 30
0.0
 40
1.0
 50
135.0
 51
225.0
  0
LINE
  5
12D
  8
図形
 10
265.71023644424361
 20
127.5281155111481
 30
0.0
 11
269.59931666970181
 21
131.41719573660629
 31
0.0
  0
ARC
  5
12E
  8
図形
 10
263.60122682974452
 20
132.4086442966437
 30
0.0
 40
1.199999999999978
 50
93.190000000001007
 51
176.80999000000551
  0
ARC
  5
12F
  8
図形
 10
262.33635421955802
 20
133.67351690683009
 30
0.0
 40
1.1999999999999891
 50
273.18999999999772
 51
356.80999700000029
  0
LINE
  5
130
  8
図形
 10
262.403812206483
 20
132.4875008448814
 30
0.0
 11
266.53038838653828
 21
128.3482674534429
 31
0.0
  0
LINE
  5
131
  8
図形
 10
270.6246285734901
 20
123.6743835536813
 30
0.0
 11
273.45304862716858
 21
126.5028036073597
 31
0.0
  0
LINE
  5
132
  8
図形
 10
269.91748643696462
 20
124.381525690207
 30
0.0
 11
272.74590649064282
 21
127.2099457438854
 31
0.0
  0
LINE
  5
133
  8
図形
 10
301.68670519163578
 20
77.119944327795679
 30
0.0
 11
291.68670519163578
 21
77.119944327795679
 31
0.0
  0
LINE
  5
134
  8
図形
 10
301.68670519163578
 20
76.119944327795665
 30
0.0
 11
291.68670519163578
 21
76.119944327795665
 31
0.0
  0
LINE
  5
135
  8
図形
 10
286.98673519163577
 20
69.119944327795565
 30
0.0
 11
297.18670519163578
 21
69.119944327795565
 31
0.0
  0
LINE
  5
136
  8
図形
 10
286.98673519163577
 20
74.119944327795565
 30
0.0
 11
297.18670519163578
 21
74.119944327795565
 31
0.0
  0
LINE
  5
137
  8
図形
 10
286.98673519163577
 20
74.119944327795565
 30
0.0
 11
286.98673519163577
 21
69.119944327795565
 31
0.0
  0
ARC
  5
138
  8
図形
 10
275.87525519163592
 20
70.824639327795694
 30
0.0
 40
1.199999999999978
 50
318.1900000000021
 51
41.809997000001331
  0
ARC
  5
139
  8
図形
 10
278.17527519163588
 20
70.824639327795694
 30
0.0
 40
1.199999999999978
 50
318.1900000000021
 51
41.809997000001331
  0
ARC
  5
13A
  8
図形
 10
279.96398274369818
 20
70.824674639479099
 30
0.0
 40
1.1999075525789289
 50
138.18831386179249
 51
221.81621077948009
  0
LINE
  5
13B
  8
図形
 10
279.06970677939682
 20
70.024644243551052
 30
0.0
 11
286.98673519163577
 21
70.01992932779558
 31
0.0
  0
LINE
  5
13C
  8
図形
 10
276.76968677939692
 20
70.024644243551052
 30
0.0
 11
275.7700851916365
 21
70.024644243551052
 31
0.0
  0
LINE
  5
13D
  8
図形
 10
279.06641805679709
 20
73.221013403386451
 30
0.0
 11
286.98673519163577
 21
73.219959327795664
 31
0.0
  0
LINE
  5
13E
  8
図形
 10
276.769623603875
 20
73.224634412040245
 30
0.0
 11
275.7775251916359
 21
73.224634412040245
 31
0.0
  0
ARC
  5
13F
  8
図形
 10
279.96407519163603
 20
72.424639327795489
 30
0.0
 40
1.2000000000002089
 50
138.1900000000069
 51
221.80998999999801
  0
ARC
  5
140
  8
図形
 10
275.87525519163592
 20
72.424639327795489
 30
0.0
 40
1.199999999999978
 50
318.1900000000021
 51
41.809997000001331
  0
ARC
  5
141
  8
図形
 10
277.6640551916359
 20
72.424639327795489
 30
0.0
 40
1.200000000000039
 50
138.1900000000021
 51
221.8099900000004
  0
LINE
  5
142
  8
図形
 10
291.68670519163578
 20
77.119944327795679
 30
0.0
 11
291.68670519163578
 21
76.119944327795665
 31
0.0
  0
LINE
  5
143
  8
図形
 10
302.18670519163578
 20
73.619944327795565
 30
0.0
 11
302.18670519163578
 21
69.619944327795565
 31
0.0
  0
LINE
  5
144
  8
図形
 10
297.18670519163578
 20
75.119944327795565
 30
0.0
 11
297.18670519163578
 21
68.119944327795679
 31
0.0
  0
LINE
  5
145
  8
図形
 10
297.18670519163578
 20
68.119944327795679
 30
0.0
 11
305.18670519163578
 21
68.119944327795679
 31
0.0
  0
LINE
  5
146
  8
図形
 10
302.18670519163578
 20
69.619944327795565
 30
0.0
 11
305.18670519163578
 21
69.619944327795565
 31
0.0
  0
LINE
  5
147
  8
図形
 10
305.18670519163578
 20
69.619944327795565
 30
0.0
 11
305.18670519163578
 21
68.119944327795679
 31
0.0
  0
LINE
  5
148
  8
図形
 10
297.18670519163578
 20
75.119944327795565
 30
0.0
 11
305.18670519163578
 21
75.119944327795565
 31
0.0
  0
LINE
  5
149
  8
図形
 10
295.68670519163578
 20
76.119944327795665
 30
0.0
 11
295.68670519163578
 21
74.119944327795565
 31
0.0
  0
LINE
  5
14A
  8
図形
 10
296.68670519163578
 20
76.119944327795665
 30
0.0
 11
296.68670519163578
 21
74.119944327795565
 31
0.0
  0
LINE
  5
14B
  8
図形
 10
301.68670519163578
 20
76.119944327795665
 30
0.0
 11
301.68670519163578
 21
77.119944327795679
 31
0.0
  0
LINE
  5
14C
  8
図形
 10
302.18670519163578
 20
73.619944327795565
 30
0.0
 11
305.18670519163578
 21
73.619944327795565
 31
0.0
  0
LINE
  5
14D
  8
図形
 10
305.18670519163578
 20
75.119944327795565
 30
0.0
 11
305.18670519163578
 21
73.619944327795565
 31
0.0
  0
LINE
  5
14E
  8
図形
 10
278.40276781120309
 20
124.3814974059357
 30
0.0
 11
283.35251527950908
 21
119.4317499376299
 31
0.0
  0
LINE
  5
14F
  8
図形
 10
283.35251527950908
 20
119.4317499376299
 30
0.0
 11
277.69568224322001
 21
113.774916901341
 31
0.0
  0
LINE
  5
150
  8
図形
 10
281.2312020070172
 20
118.72465022751111
 30
0.0
 11
278.40278195333877
 21
115.89623017383281
 31
0.0
  0
LINE
  5
151
  8
図形
 10
279.8169813735762
 20
120.1388708609521
 30
0.0
 11
276.98856131989788
 21
117.3104508072737
 31
0.0
  0
LINE
  5
152
  8
図形
 10
276.98856131989771
 20
124.38147619273241
 30
0.0
 11
276.81179876673667
 21
124.2047136395713
 31
0.0
  0
LINE
  5
153
  8
図形
 10
276.98856131989788
 20
124.38147619273241
 30
0.0
 11
276.81179876673679
 21
124.2047136395713
 31
0.0
  0
ARC
  5
154
  8
図形
 10
277.6956539589487
 20
123.67438355368139
 30
0.0
 40
1.0
 50
44.999999999999993
 51
135.0
  0
LINE
  5
155
  8
図形
 10
276.81179876673679
 20
124.2047136395713
 30
0.0
 11
276.28146868084679
 21
123.67438355368139
 31
0.0
  0
ARC
  5
156
  8
図形
 10
255.12019864322531
 20
129.85881364858051
 30
0.0
 40
7.0
 50
44.999999999999993
 51
135.0
  0
ARC
  5
157
  8
図形
 10
254.8426098532743
 20
129.5707031097264
 30
0.0
 40
10.6
 50
44.999999999999993
 51
135.0
  0
LINE
  5
158
  8
図形
 10
260.77677117272123
 20
134.10173605569619
 30
0.0
 11
260.06994611153112
 21
134.80856111688649
 31
0.0
  0
ARC
  5
159
  8
図形
 10
260.70999448069341
 20
135.29987664569481
 30
0.0
 40
1.1999999999999891
 50
273.18999999999772
 51
356.80999700000029
  0
ARC
  5
15A
  8
図形
 10
261.84136533059171
 20
136.4312474955932
 30
0.0
 40
1.1999999999999811
 50
273.18999999999772
 51
356.80999700000029
  0
ARC
  5
15B
  8
図形
 10
263.10623794077821
 20
135.1663748854067
 30
0.0
 40
1.200000000000031
 50
93.189999999997752
 51
176.8099900000023
  0
LINE
  5
15C
  8
図形
 10
263.0394612487504
 20
136.3645154754052
 30
0.0
 11
262.33794173385172
 21
137.06603499030379
 31
0.0
  0
LINE
  5
15D
  8
基準線
 10
241.42555519163591
 20
197.8464506288415
 30
0.0
 11
246.42555519163579
 21
197.8464506288415
 31
0.0
  0
CIRCLE
  5
15E
  8
図形
 10
243.92555519163591
 20
197.84645062884141
 30
0.0
 40
1.5
  0
CIRCLE
  5
15F
  8
図形
 10
243.92555519163591
 20
197.84645062884141
 30
0.0
 40
1.1999999999999991
  0
LINE
  5
160
  8
基準線
 10
243.92555519163591
 20
200.3464506288415
 30
0.0
 11
243.92555519163591
 21
195.3464506288415
 31
0.0
  0
ENDSEC
  0
EOF
