  0
SECTION
  2
HEADER
  9
$ACADVER
  1
AC1009
  9
$INSBASE
 10
0.0
 20
0.0
 30
0.0
  9
$EXTMIN
 10
77.800448548743304
 20
-6.0097751970478761
 30
0.0
  9
$EXTMAX
 10
389.15355632227647
 20
329.93809342376829
 30
0.0
  9
$LIMMIN
 10
0.0
 20
0.0
  9
$LIMMAX
 10
420.0
 20
297.0
  9
$ORTHOMODE
 70
     0
  9
$REGENMODE
 70
     1
  9
$FILLMODE
 70
     1
  9
$QTEXTMODE
 70
     0
  9
$MIRRTEXT
 70
     1
  9
$DRAGMODE
 70
     2
  9
$LTSCALE
 40
1.0
  9
$OSMODE
 70
    39
  9
$ATTMODE
 70
     1
  9
$TEXTSIZE
 40
2.5
  9
$TRACEWID
 40
1.0
  9
$TEXTSTYLE
  7
STANDARD
  9
$CLAYER
  8
0
  9
$CELTYPE
  6
BYLAYER
  9
$CECOLOR
 62
   256
  9
$DIMSCALE
 40
1.0
  9
$DIMASZ
 40
2.5
  9
$DIMEXO
 40
0.625
  9
$DIMDLI
 40
3.75
  9
$DIMRND
 40
0.0
  9
$DIMDLE
 40
0.0
  9
$DIMEXE
 40
1.25
  9
$DIMTP
 40
0.0
  9
$DIMTM
 40
0.0
  9
$DIMTXT
 40
2.5
  9
$DIMCEN
 40
2.5
  9
$DIMTSZ
 40
0.0
  9
$DIMTOL
 70
     0
  9
$DIMLIM
 70
     0
  9
$DIMTIH
 70
     0
  9
$DIMTOH
 70
     0
  9
$DIMSE1
 70
     0
  9
$DIMSE2
 70
     0
  9
$DIMTAD
 70
     1
  9
$DIMZIN
 70
     8
  9
$DIMBLK
  1

  9
$DIMASO
 70
     1
  9
$DIMSHO
 70
     1
  9
$DIMPOST
  1

  9
$DIMAPOST
  1

  9
$DIMALT
 70
     0
  9
$DIMALTD
 70
     3
  9
$DIMALTF
 40
0.03937007874016
  9
$DIMLFAC
 40
1.0
  9
$DIMTOFL
 70
     1
  9
$DIMTVP
 40
0.0
  9
$DIMTIX
 70
     0
  9
$DIMSOXD
 70
     0
  9
$DIMSAH
 70
     0
  9
$DIMBLK1
  1

  9
$DIMBLK2
  1

  9
$DIMSTYLE
  2
ISO-25
  9
$DIMCLRD
 70
     0
  9
$DIMCLRE
 70
     0
  9
$DIMCLRT
 70
     0
  9
$DIMTFAC
 40
1.0
  9
$DIMGAP
 40
0.625
  9
$LUNITS
 70
     2
  9
$LUPREC
 70
     4
  9
$SKETCHINC
 40
1.0
  9
$FILLETRAD
 40
10.0
  9
$AUNITS
 70
     0
  9
$AUPREC
 70
     0
  9
$MENU
  1
.
  9
$ELEVATION
 40
0.0
  9
$PELEVATION
 40
0.0
  9
$THICKNESS
 40
0.0
  9
$LIMCHECK
 70
     0
  9
$BLIPMODE
 70
     0
  9
$CHAMFERA
 40
10.0
  9
$CHAMFERB
 40
10.0
  9
$SKPOLY
 70
     0
  9
$TDCREATE
 40
2454873.669344224
  9
$TDUPDATE
 40
2455105.7243766198
  9
$TDINDWG
 40
0.1347779167
  9
$TDUSRTIMER
 40
0.1347779167
  9
$USRTIMER
 70
     1
  9
$ANGBASE
 50
0.0
  9
$ANGDIR
 70
     0
  9
$PDMODE
 70
     0
  9
$PDSIZE
 40
0.0
  9
$PLINEWID
 40
0.0
  9
$COORDS
 70
     2
  9
$SPLFRAME
 70
     0
  9
$SPLINETYPE
 70
     6
  9
$SPLINESEGS
 70
     8
  9
$ATTDIA
 70
     0
  9
$ATTREQ
 70
     1
  9
$HANDLING
 70
 22529
  9
$HANDSEED
  5
1AC
  9
$SURFTAB1
 70
     6
  9
$SURFTAB2
 70
     6
  9
$SURFTYPE
 70
     6
  9
$SURFU
 70
     6
  9
$SURFV
 70
     6
  9
$UCSNAME
  2

  9
$UCSORG
 10
0.0
 20
0.0
 30
0.0
  9
$UCSXDIR
 10
1.0
 20
0.0
 30
0.0
  9
$UCSYDIR
 10
0.0
 20
1.0
 30
0.0
  9
$PUCSNAME
  2

  9
$PUCSORG
 10
0.0
 20
0.0
 30
0.0
  9
$PUCSXDIR
 10
1.0
 20
0.0
 30
0.0
  9
$PUCSYDIR
 10
0.0
 20
1.0
 30
0.0
  9
$USERI1
 70
     0
  9
$USERI2
 70
     0
  9
$USERI3
 70
     0
  9
$USERI4
 70
     0
  9
$USERI5
 70
     0
  9
$USERR1
 40
0.0
  9
$USERR2
 40
0.0
  9
$USERR3
 40
0.0
  9
$USERR4
 40
0.0
  9
$USERR5
 40
0.0
  9
$WORLDVIEW
 70
     1
  9
$SHADEDGE
 70
     3
  9
$SHADEDIF
 70
    70
  9
$TILEMODE
 70
     1
  9
$MAXACTVP
 70
    64
  9
$PLIMCHECK
 70
     0
  9
$PEXTMIN
 10
1.144338676220513
 20
2.391762241006858
 30
-0.0015258207003583
  9
$PEXTMAX
 10
288.44975390501378
 20
201.0559707003888
 30
0.0000000349246037
  9
$PLIMMIN
 10
-3.17498779296875
 20
-3.1749999523162842
  9
$PLIMMAX
 10
293.85684204101562
 20
206.7348358631134
  9
$UNITMODE
 70
     0
  9
$VISRETAIN
 70
     1
  9
$PLINEGEN
 70
     0
  9
$PSLTSCALE
 70
     1
  0
ENDSEC
  0
SECTION
  2
TABLES
  0
TABLE
  2
VPORT
 70
     1
  0
VPORT
  2
*ACTIVE
 70
     0
 10
0.0
 20
0.0
 11
1.0
 21
1.0
 12
219.0344416476116
 22
170.7829269799139
 13
0.0
 23
0.0
 14
10.0
 24
10.0
 15
10.0
 25
10.0
 16
0.0
 26
0.0
 36
1.0
 17
0.0
 27
0.0
 37
0.0
 40
377.9153261208437
 41
1.710651828298887
 42
50.0
 43
0.0
 44
0.0
 50
0.0
 51
0.0
 71
     0
 72
   100
 73
     1
 74
     3
 75
     0
 76
     0
 77
     0
 78
     0
  0
ENDTAB
  0
TABLE
  2
LTYPE
 70
     2
  0
LTYPE
  2
CONTINUOUS
 70
     0
  3
Solid line
 72
    65
 73
     0
 40
0.0
  0
LTYPE
  2
CENTER
 70
     0
  3
Center ____ _ ____ _ ____ _ ____ _ ____ _ ____
 72
    65
 73
     4
 40
50.799999999999997
 49
31.75
 49
-6.3499999999999988
 49
6.3499999999999988
 49
-6.3499999999999988
  0
ENDTAB
  0
TABLE
  2
LAYER
 70
     5
  0
LAYER
  2
0
 70
     0
 62
     7
  6
CONTINUOUS
  0
LAYER
  2
基準線
 70
     0
 62
     1
  6
CENTER
  0
LAYER
  2
図形
 70
     0
 62
     7
  6
CONTINUOUS
  0
LAYER
  2
寸法
 70
     0
 62
     5
  6
CONTINUOUS
  0
LAYER
  2
DEFPOINTS
 70
     0
 62
     7
  6
CONTINUOUS
  0
ENDTAB
  0
TABLE
  2
STYLE
 70
     5
  0
STYLE
  2
STANDARD
 70
     0
 40
0.0
 41
1.0
 50
0.0
 71
     0
 42
2.5
  3
txt
  4

  0
STYLE
  2
NISSIN5
 70
     0
 40
5.0
 41
1.0
 50
0.0
 71
     0
 42
3.5
  3
txt
  4

  0
STYLE
  2
NISSIN3_5
 70
     0
 40
3.5
 41
1.0
 50
0.0
 71
     0
 42
3.5
  3
txt
  4

  0
STYLE
  2
NISSIN3
 70
     0
 40
3.0
 41
1.0
 50
0.0
 71
     0
 42
4.0
  3
txt
  4

  0
STYLE
  2
NISSIN2
 70
     0
 40
2.0
 41
1.0
 50
0.0
 71
     0
 42
4.0
  3
txt
  4

  0
ENDTAB
  0
TABLE
  2
VIEW
 70
     0
  0
ENDTAB
  0
TABLE
  2
UCS
 70
     0
  0
ENDTAB
  0
TABLE
  2
APPID
 70
     1
  0
APPID
  2
ACAD
 70
     0
  0
ENDTAB
  0
TABLE
  2
DIMSTYLE
 70
     4
  0
DIMSTYLE
  2
ISO-25
 70
     0
  3

  4

  5

  6

  7

 40
1.0
 41
2.5
 42
0.625
 43
3.75
 44
1.25
 45
0.0
 46
0.0
 47
0.0
 48
0.0
140
2.5
141
2.5
142
0.0
143
0.03937007874016
144
1.0
145
0.0
146
1.0
147
0.625
 71
     0
 72
     0
 73
     0
 74
     0
 75
     0
 76
     0
 77
     1
 78
     8
170
     0
171
     3
172
     1
173
     0
174
     0
175
     0
176
     0
177
     0
178
     0
  0
DIMSTYLE
  2
NISSINSTYLE
 70
     0
  3

  4

  5

  6

  7

 40
1.0
 41
3.0
 42
2.0
 43
3.75
 44
3.0
 45
0.0
 46
0.0
 47
0.0
 48
0.0
140
3.5
141
3.0
142
0.0
143
0.03937007874016
144
1.0
145
0.0
146
1.0
147
0.625
 71
     0
 72
     0
 73
     0
 74
     0
 75
     0
 76
     0
 77
     1
 78
     8
170
     0
171
     3
172
     1
173
     0
174
     0
175
     0
176
     0
177
     0
178
     0
  0
DIMSTYLE
  2
JIS
 70
     0
  3

  4

  5

  6

  7

 40
1.0
 41
2.5
 42
1.0
 43
7.0
 44
1.0
 45
0.0
 46
0.0
 47
0.0
 48
0.0
140
2.5
141
0.0
142
0.0
143
0.0394
144
1.0
145
0.0
146
1.0
147
0.0
 71
     0
 72
     0
 73
     0
 74
     0
 75
     0
 76
     0
 77
     1
 78
     8
170
     0
171
     2
172
     1
173
     0
174
     1
175
     1
176
     0
177
     0
178
     0
  0
DIMSTYLE
  2
STANDARD
 70
     0
  3

  4

  5

  6

  7

 40
1.0
 41
0.18
 42
0.0625
 43
0.38
 44
0.18
 45
0.0
 46
0.0
 47
0.0
 48
0.0
140
0.18
141
0.09
142
0.0
143
25.399999999999999
144
1.0
145
0.0
146
1.0
147
0.09
 71
     0
 72
     0
 73
     1
 74
     1
 75
     0
 76
     0
 77
     0
 78
     0
170
     0
171
     2
172
     0
173
     0
174
     0
175
     0
176
     0
177
     0
178
     0
  0
ENDTAB
  0
ENDSEC
  0
SECTION
  2
BLOCKS
  0
BLOCK
  8
0
  2
$MODEL_SPACE
 70
     0
 10
0.0
 20
0.0
 30
0.0
  3
$MODEL_SPACE
  1

  0
ENDBLK
  5
9
  8
0
  0
BLOCK
 67
     1
  8
0
  2
$PAPER_SPACE
 70
     0
 10
0.0
 20
0.0
 30
0.0
  3
$PAPER_SPACE
  1

  0
ENDBLK
  5
E
 67
     1
  8
0
  0
BLOCK
  8
0
  2
*D0
 70
     1
 10
0.0
 20
0.0
 30
0.0
  3
*D0
  1

  0
LINE
  5
34
  8
寸法
 62
     0
 10
92.258551670289421
 20
76.938692122722557
 30
0.0
 11
92.258551670289421
 21
107.8254674942068
 31
0.0
  0
LINE
  5
35
  8
寸法
 62
     0
 10
292.25855167028931
 20
76.938692122722443
 30
0.0
 11
292.25855167028931
 21
107.8254674942068
 31
0.0
  0
LINE
  5
36
  8
寸法
 62
     0
 10
95.258551670289407
 20
104.8254674942068
 30
0.0
 11
289.25855167028931
 21
104.8254674942068
 31
0.0
  0
SOLID
  5
37
  8
寸法
 62
     0
 10
95.258551670289407
 20
105.3254674942068
 30
0.0
 11
95.258551670289407
 21
104.3254674942068
 31
0.0
 12
92.258551670289421
 22
104.8254674942068
 32
0.0
 13
92.258551670289421
 23
104.8254674942068
 33
0.0
  0
SOLID
  5
38
  8
寸法
 62
     0
 10
289.25855167028931
 20
105.3254674942068
 30
0.0
 11
289.25855167028931
 21
104.3254674942068
 31
0.0
 12
292.25855167028931
 22
104.8254674942068
 32
0.0
 13
292.25855167028931
 23
104.8254674942068
 33
0.0
  0
INSERT
  5
39
  8
0
  2
*U5
 10
0.0
 20
0.0
 30
0.0
  0
POINT
  5
3A
  8
DEFPOINTS
 62
     0
 10
92.258551670289421
 20
74.938692122722557
 30
0.0
  0
POINT
  5
3C
  8
DEFPOINTS
 62
     0
 10
292.25855167028931
 20
74.938692122722443
 30
0.0
  0
POINT
  5
3D
  8
DEFPOINTS
 62
     0
 10
292.25855167028931
 20
104.8254674942068
 30
0.0
  0
ENDBLK
  5
3F
  8
0
  0
BLOCK
  8
0
  2
*D1
 70
     1
 10
0.0
 20
0.0
 30
0.0
  3
*D1
  1

  0
LINE
  5
44
  8
寸法
 62
     0
 10
99.258551670289307
 20
76.938692122722443
 30
0.0
 11
99.258551670289307
 21
97.859465741252052
 31
0.0
  0
LINE
  5
45
  8
寸法
 62
     0
 10
285.25855167028931
 20
76.938692122722443
 30
0.0
 11
285.25855167028931
 21
97.859465741252052
 31
0.0
  0
LINE
  5
46
  8
寸法
 62
     0
 10
102.25855167028919
 20
94.859465741252066
 30
0.0
 11
282.25855167028931
 21
94.859465741252066
 31
0.0
  0
SOLID
  5
47
  8
寸法
 62
     0
 10
102.25855167028919
 20
95.359465741252052
 30
0.0
 11
102.25855167028919
 21
94.359465741252052
 31
0.0
 12
99.258551670289307
 22
94.859465741252066
 32
0.0
 13
99.258551670289307
 23
94.859465741252066
 33
0.0
  0
SOLID
  5
48
  8
寸法
 62
     0
 10
282.25855167028931
 20
95.359465741252052
 30
0.0
 11
282.25855167028931
 21
94.359465741252052
 31
0.0
 12
285.25855167028931
 22
94.859465741252066
 32
0.0
 13
285.25855167028931
 23
94.859465741252066
 33
0.0
  0
INSERT
  5
49
  8
0
  2
*U6
 10
0.0
 20
0.0
 30
0.0
  0
POINT
  5
4A
  8
DEFPOINTS
 62
     0
 10
99.258551670289307
 20
74.938692122722443
 30
0.0
  0
POINT
  5
4B
  8
DEFPOINTS
 62
     0
 10
285.25855167028931
 20
74.938692122722443
 30
0.0
  0
POINT
  5
4C
  8
DEFPOINTS
 62
     0
 10
285.25855167028931
 20
94.859465741252066
 30
0.0
  0
ENDBLK
  5
4E
  8
0
  0
BLOCK
  8
0
  2
*D2
 70
     1
 10
0.0
 20
0.0
 30
0.0
  3
*D2
  1

  0
LINE
  5
53
  8
寸法
 62
     0
 10
107.25855167028929
 20
76.938692122722443
 30
0.0
 11
107.25855167028929
 21
87.925585624294456
 31
0.0
  0
LINE
  5
54
  8
寸法
 62
     0
 10
277.25855167028931
 20
76.938692122722443
 30
0.0
 11
277.25855167028931
 21
87.925585624294456
 31
0.0
  0
LINE
  5
55
  8
寸法
 62
     0
 10
110.25855167028929
 20
84.925585624294456
 30
0.0
 11
274.25855167028919
 21
84.925585624294456
 31
0.0
  0
SOLID
  5
56
  8
寸法
 62
     0
 10
110.25855167028929
 20
85.425585624294456
 30
0.0
 11
110.25855167028929
 21
84.425585624294456
 31
0.0
 12
107.25855167028929
 22
84.925585624294456
 32
0.0
 13
107.25855167028929
 23
84.925585624294456
 33
0.0
  0
SOLID
  5
57
  8
寸法
 62
     0
 10
274.25855167028919
 20
85.425585624294456
 30
0.0
 11
274.25855167028919
 21
84.425585624294456
 31
0.0
 12
277.25855167028931
 22
84.925585624294456
 32
0.0
 13
277.25855167028931
 23
84.925585624294456
 33
0.0
  0
INSERT
  5
58
  8
0
  2
*U7
 10
0.0
 20
0.0
 30
0.0
  0
POINT
  5
59
  8
DEFPOINTS
 62
     0
 10
107.25855167028929
 20
74.938692122722443
 30
0.0
  0
POINT
  5
5A
  8
DEFPOINTS
 62
     0
 10
277.25855167028931
 20
74.938692122722443
 30
0.0
  0
POINT
  5
5B
  8
DEFPOINTS
 62
     0
 10
277.25855167028931
 20
84.925585624294456
 30
0.0
  0
ENDBLK
  5
5D
  8
0
  0
BLOCK
  8
0
  2
*D3
 70
     1
 10
0.0
 20
0.0
 30
0.0
  3
*D3
  1

  0
LINE
  5
77
  8
寸法
 62
     0
 10
90.258551670289407
 20
74.938692122722557
 30
0.0
 11
79.334077990367689
 21
74.938692122722557
 31
0.0
  0
LINE
  5
78
  8
寸法
 62
     0
 10
90.258551670289407
 20
52.93869212272255
 30
0.0
 11
79.334077990367689
 21
52.938692122722557
 31
0.0
  0
LINE
  5
79
  8
寸法
 62
     0
 10
82.334077990367675
 20
71.938692122722557
 30
0.0
 11
82.334077990367675
 21
55.938692122722557
 31
0.0
  0
SOLID
  5
7A
  8
寸法
 62
     0
 10
81.834077990367689
 20
71.938692122722557
 30
0.0
 11
82.834077990367689
 21
71.938692122722557
 31
0.0
 12
82.334077990367675
 22
74.938692122722557
 32
0.0
 13
82.334077990367675
 23
74.938692122722557
 33
0.0
  0
SOLID
  5
7B
  8
寸法
 62
     0
 10
81.834077990367689
 20
55.938692122722557
 30
0.0
 11
82.834077990367689
 21
55.938692122722557
 31
0.0
 12
82.334077990367675
 22
52.93869212272255
 32
0.0
 13
82.334077990367675
 23
52.93869212272255
 33
0.0
  0
TEXT
  5
7C
  8
0
 62
     0
 10
81.709077990367675
 20
61.682346945057589
 30
0.0
 40
3.5
  1
22
 50
90.0
  7
NISSIN3_5
  0
POINT
  5
7D
  8
DEFPOINTS
 62
     0
 10
92.258551670289421
 20
74.938692122722557
 30
0.0
  0
POINT
  5
7E
  8
DEFPOINTS
 62
     0
 10
92.258551670289421
 20
52.93869212272255
 30
0.0
  0
POINT
  5
7F
  8
DEFPOINTS
 62
     0
 10
82.334077990367675
 20
52.93869212272255
 30
0.0
  0
ENDBLK
  5
81
  8
0
  0
BLOCK
  8
0
  2
*D4
 70
     1
 10
0.0
 20
0.0
 30
0.0
  3
*D4
  1

  0
LINE
  5
63
  8
寸法
 62
     0
 10
280.6413007365727
 20
71.34369857715771
 30
0.0
 11
278.70608976767761
 21
75.493771892599199
 31
0.0
  0
ARC
  5
64
  8
寸法
 62
     0
 10
289.22369619466821
 20
52.938692122722429
 30
0.0
 40
21.886776978519681
 50
122.85963975125961
 51
172.14036024874071
  0
SOLID
  5
65
  8
寸法
 62
     0
 10
277.10643692895098
 20
71.761241099296356
 30
0.0
 11
277.5901748866325
 21
70.88602821759369
 31
0.0
 12
279.9739445528997
 22
72.774848531489241
 32
0.0
 13
279.9739445528997
 23
72.774848531489241
 33
0.0
  0
SOLID
  5
66
  8
寸法
 62
     0
 10
268.041347182197
 20
55.897371091561219
 30
0.0
 11
267.04369843738181
 21
55.965905622774841
 31
0.0
 12
267.33691921614849
 22
52.938692122722451
 32
0.0
 13
267.33691921614849
 23
52.938692122722451
 33
0.0
  0
TEXT
  5
67
  8
0
 62
     0
 10
268.08553021837042
 20
61.656414118368637
 30
0.0
 40
3.0
  1
65°
 50
57.500000000000277
  7
NISSIN3
  0
POINT
  5
68
  8
DEFPOINTS
 62
     0
 10
273.30383152150512
 20
67.958309804129385
 30
0.0
  0
POINT
  5
69
  8
DEFPOINTS
 62
     0
 10
286.89605101033521
 20
57.930343329015173
 30
0.0
  0
POINT
  5
6A
  8
DEFPOINTS
 62
     0
 10
285.25855167028931
 20
52.938692122722451
 30
0.0
  0
POINT
  5
6B
  8
DEFPOINTS
 62
     0
 10
99.258551670289307
 20
52.938692122722379
 30
0.0
  0
POINT
  5
6C
  8
DEFPOINTS
 62
     0
 10
281.48653726005398
 20
69.531083003084404
 30
0.0
  0
ENDBLK
  5
6E
  8
0
  0
BLOCK
  8
0
  2
*U5
 70
     1
 10
0.0
 20
0.0
 30
0.0
  3
*U5
  1

  0
TEXT
  5
16D
  8
0
 62
     0
 10
187.80804405607611
 20
105.4504674942068
 30
0.0
 40
3.5
  1
\U+2205
  7
NISSIN3_5
  0
TEXT
  5
16E
  8
0
 62
     0
 10
190.08215573120299
 20
105.4504674942068
 30
0.0
 40
3.5
  1
200
  7
NISSIN3_5
  0
ENDBLK
  5
170
  8
0
  0
BLOCK
  8
0
  2
*U6
 70
     1
 10
0.0
 20
0.0
 30
0.0
  3
*U6
  1

  0
TEXT
  5
172
  8
0
 62
     0
 10
187.8435770509999
 20
95.484465741252066
 30
0.0
 40
3.5
  1
\U+2205
  7
NISSIN3_5
  0
TEXT
  5
173
  8
0
 62
     0
 10
190.1176887261268
 20
95.484465741252066
 30
0.0
 40
3.5
  1
186
  7
NISSIN3_5
  0
ENDBLK
  5
175
  8
0
  0
BLOCK
  8
0
  2
*U7
 70
     1
 10
0.0
 20
0.0
 30
0.0
  3
*U7
  1

  0
TEXT
  5
177
  8
0
 62
     0
 10
187.808044056076
 20
85.550585624294456
 30
0.0
 40
3.5
  1
\U+2205
  7
NISSIN3_5
  0
TEXT
  5
178
  8
0
 62
     0
 10
190.0821557312029
 20
85.550585624294456
 30
0.0
 40
3.5
  1
170
  7
NISSIN3_5
  0
ENDBLK
  5
17A
  8
0
  0
BLOCK
  8
0
  2
*D8
 70
     1
 10
0.0
 20
0.0
 30
0.0
  3
*D8
  1

  0
LINE
  5
17C
  8
寸法
 62
     0
 10
280.6413007365727
 20
71.34369857715771
 30
0.0
 11
278.70608976767761
 21
75.493771892599142
 31
0.0
  0
ARC
  5
17D
  8
寸法
 62
     0
 10
289.22369619466821
 20
52.938692122722429
 30
0.0
 40
21.886776978519642
 50
122.85963975125961
 51
172.14036024874071
  0
SOLID
  5
17E
  8
寸法
 62
     0
 10
277.1064369289511
 20
71.761241099296285
 30
0.0
 11
277.5901748866325
 21
70.886028217593633
 31
0.0
 12
279.9739445528997
 22
72.774848531489184
 32
0.0
 13
279.9739445528997
 23
72.774848531489184
 33
0.0
  0
SOLID
  5
17F
  8
寸法
 62
     0
 10
268.041347182197
 20
55.897371091561212
 30
0.0
 11
267.04369843738181
 21
55.965905622774827
 31
0.0
 12
267.33691921614849
 22
52.938692122722429
 32
0.0
 13
267.33691921614849
 23
52.938692122722429
 33
0.0
  0
TEXT
  8
0
  40
3
  5
1AB
  62
0
  72
0
  71
0
 10
268.972
 20
61.9402
 30
0.000000
  1
65°
  7
NISSIN3
  0
POINT
  5
181
  8
DEFPOINTS
 62
     0
 10
273.30383152150512
 20
67.958309804129371
 30
0.0
  0
POINT
  5
182
  8
DEFPOINTS
 62
     0
 10
286.89605101033521
 20
57.930343329015173
 30
0.0
  0
POINT
  5
183
  8
DEFPOINTS
 62
     0
 10
285.25855167028931
 20
52.938692122722451
 30
0.0
  0
POINT
  5
184
  8
DEFPOINTS
 62
     0
 10
99.258551670289307
 20
52.938692122722379
 30
0.0
  0
POINT
  5
185
  8
DEFPOINTS
 62
     0
 10
281.48653726005398
 20
69.531083003084404
 30
0.0
  0
ENDBLK
  5
187
  8
0
  0
BLOCK
  8
0
  2
*X9
 70
     1
 10
0.0
 20
0.0
 30
0.0
  3
*X9
  1

  0
LINE
  5
18C
  8
0
 62
     0
 10
96.558555670289437
 20
52.995979829958969
 30
0.0
 11
99.258551670289265
 21
55.69597582995879
 31
0.0
  0
LINE
  5
18D
  8
0
 62
     0
 10
96.558555670289167
 20
57.486107890493258
 30
0.0
 11
96.758551670289265
 21
57.686103890493371
 31
0.0
  0
LINE
  5
18E
  8
0
 62
     0
 10
92.258551670289279
 20
53.186103890493371
 30
0.0
 11
94.958547670289391
 21
55.88609989049349
 31
0.0
  0
LINE
  5
18F
  8
0
 62
     0
 10
103.9799574826862
 20
69.397637763424939
 30
0.0
 11
107.25855167028929
 21
72.676231951028001
 31
0.0
  0
LINE
  5
190
  8
0
 62
     0
 10
92.258551670289293
 20
57.676231951028001
 30
0.0
 11
94.258551670289265
 21
59.676231951027937
 31
0.0
  0
LINE
  5
191
  8
0
 62
     0
 10
100.75855167028929
 20
70.666360011562574
 30
0.0
 11
105.03088378144921
 21
74.938692122722443
 31
0.0
  0
LINE
  5
192
  8
0
 62
     0
 10
92.258551670289279
 20
62.166360011562517
 30
0.0
 11
94.258551670289265
 21
64.166360011562517
 31
0.0
  0
LINE
  5
193
  8
0
 62
     0
 10
92.258551670289293
 20
66.656488072097147
 30
0.0
 11
97.758551670289364
 21
72.156488072097204
 31
0.0
  0
LINE
  5
194
  8
0
 62
     0
 10
92.258551670289293
 20
71.146616132631721
 30
0.0
 11
96.05062766038003
 21
74.938692122722443
 31
0.0
  0
ENDBLK
  5
196
  8
0
  0
BLOCK
  8
0
  2
*U10
 70
     1
 10
0.0
 20
0.0
 30
0.0
  3
*U10
  1

  0
TEXT
  5
198
  8
0
 10
279.07132988327879
 20
19.785899703460561
 30
0.0
 40
5.0
  1
MODEL []DR-LA200
  7
NISSIN2
  0
TEXT
  5
199
  8
0
 10
279.04594917261892
 20
11.452566370127229
 30
0.0
 40
5.0
  1
NISSIN ELECTRONIC CO.,LTD.
  7
NISSIN2
  0
ENDBLK
  5
19B
  8
0
  0
BLOCK
  8
0
  2
*X11
 70
     1
 10
0.0
 20
0.0
 30
0.0
  3
*X11
  1

  0
LINE
  5
19D
  8
0
 62
     0
 10
289.57677456603972
 20
52.938692122722451
 30
0.0
 11
292.25855167028908
 21
55.620469226971863
 31
0.0
  0
LINE
  5
19E
  8
0
 62
     0
 10
289.55855567028902
 20
57.410601287506317
 30
0.0
 11
292.25855167028931
 21
60.11059728750655
 31
0.0
  0
LINE
  5
19F
  8
0
 62
     0
 10
285.25855167028919
 20
53.110597287506486
 30
0.0
 11
287.95854767028931
 21
55.810593287506613
 31
0.0
  0
LINE
  5
1A0
  8
0
 62
     0
 10
290.25855167028908
 20
62.600725348041131
 30
0.0
 11
292.25855167028908
 21
64.600725348041124
 31
0.0
  0
LINE
  5
1A1
  8
0
 62
     0
 10
290.25855167028931
 20
67.090853408575754
 30
0.0
 11
292.25855167028931
 21
69.090853408575811
 31
0.0
  0
LINE
  5
1A2
  8
0
 62
     0
 10
287.75855167028908
 20
69.08098146911027
 30
0.0
 11
292.25855167028931
 21
73.580981469110384
 31
0.0
  0
LINE
  5
1A3
  8
0
 62
     0
 10
286.75855167028919
 20
72.571109529644843
 30
0.0
 11
289.12613426336691
 21
74.9386921227225
 31
0.0
  0
LINE
  5
1A4
  8
0
 62
     0
 10
278.13600620283222
 20
68.438692122722443
 30
0.0
 11
283.75855167028908
 21
74.061237590179417
 31
0.0
  0
LINE
  5
1A5
  8
0
 62
     0
 10
277.25855167028931
 20
72.051365650714104
 30
0.0
 11
280.14587814229759
 21
74.938692122722443
 31
0.0
  0
ENDBLK
  5
1A7
  8
0
  0
ENDSEC
  0
SECTION
  2
ENTITIES
  0
LINE
  5
28
  8
基準線
 10
297.25855167028919
 20
224.93809342376841
 30
0.0
 11
87.258551670289364
 21
224.93809342376841
 31
0.0
  0
LINE
  5
2B
  8
図形
 10
277.25855167028931
 20
68.438692122722443
 30
0.0
 11
107.25855167028929
 21
68.438692122722443
 31
0.0
1001
ACAD
1000
ASC_BOUNDS
1002
{
1070
    19
1005
0
1005
0
1002
}
  0
LINE
  5
2D
  8
図形
 10
285.25855167028931
 20
52.938692122722451
 30
0.0
 11
99.258551670289307
 21
52.938692122722379
 31
0.0
  0
DIMENSION
  5
2E
  8
寸法
  2
*D0
 10
292.25855167028931
 20
104.8254674942068
 30
0.0
 11
192.25855167028931
 21
107.20046749420671
 31
0.0
  1
%%c<>
 13
92.258551670289421
 23
74.938692122722557
 33
0.0
 14
292.25855167028931
 24
74.938692122722443
 34
0.0
1001
ACAD
1000
DSTYLE
1002
{
1070
   340
1005
32
1002
}
  0
DIMENSION
  5
40
  8
寸法
  2
*D1
 10
285.25855167028931
 20
94.859465741252066
 30
0.0
 11
192.25855167028931
 21
97.234465741252052
 31
0.0
  1
%%c<>
 13
99.258551670289307
 23
74.938692122722443
 33
0.0
 14
285.25855167028931
 24
74.938692122722443
 34
0.0
1001
ACAD
1000
DSTYLE
1002
{
1070
   340
1005
32
1002
}
  0
DIMENSION
  5
4F
  8
寸法
  2
*D2
 10
277.25855167028931
 20
84.925585624294456
 30
0.0
 11
192.25855167028931
 21
87.300585624294456
 31
0.0
  1
%%c<>
 13
107.25855167028929
 23
74.938692122722443
 33
0.0
 14
277.25855167028931
 24
74.938692122722443
 34
0.0
1001
ACAD
1000
DSTYLE
1002
{
1070
   340
1005
32
1002
}
  0
DIMENSION
  5
5E
  8
寸法
  2
*D8
 10
281.48653726005398
 20
69.531083003084404
 30
0.0
 11
268.9723688922179
 21
65.840210488992255
 31
0.0
 70
     2
 13
285.25855167028931
 23
52.938692122722451
 33
0.0
 14
99.258551670289307
 24
52.938692122722379
 34
0.0
 15
286.89605101033521
 25
57.930343329015159
 35
0.0
 16
273.30383152150512
 26
67.958309804129371
 36
0.0
1001
ACAD
1000
DSTYLE
1002
{
1070
   271
1070
     0
1070
   340
1005
61
1002
}
  0
POLYLINE
  5
6F
  8
図形
 66
     1
 10
0.0
 20
0.0
 30
0.0
1001
ACAD
1000
ASC_BOUNDS
1002
{
1070
    19
1005
0
1005
0
1002
}
  0
VERTEX
  5
188
  8
図形
 10
92.258551670289293
 20
74.938692122722443
 30
0.0
  0
VERTEX
  5
189
  8
図形
 10
222.25855167028919
 20
74.938692122722443
 30
0.0
  0
SEQEND
  5
18A
  8
図形
  0
CIRCLE
  5
70
  8
図形
 10
192.25855167028931
 20
224.93809342376829
 30
0.0
 40
85.0
  0
CIRCLE
  5
71
  8
図形
 10
192.25855167028931
 20
224.93809342376829
 30
0.0
 40
100.0
  0
LINE
  5
72
  8
基準線
 10
192.25855167028939
 20
329.93809342376829
 30
0.0
 11
192.25855167028931
 21
119.93809342376839
 31
0.0
  0
DIMENSION
  5
73
  8
寸法
  2
*D3
 10
82.334077990367675
 20
52.93869212272255
 30
0.0
 11
79.959077990367675
 21
63.938692122722571
 31
0.0
 13
92.258551670289421
 23
74.938692122722557
 33
0.0
 14
92.258551670289421
 24
52.93869212272255
 34
0.0
 50
270.0
1001
ACAD
1000
DSTYLE
1002
{
1070
   340
1005
32
1002
}
  0
ARC
  5
82
  8
図形
 10
102.3043744336503
 20
58.410739502906772
 30
0.0
 40
1.55
 50
245.0000000000004
 51
64.99999999999882
  0
LINE
  5
83
  8
図形
 10
99.258551670289307
 20
52.938692122722379
 30
0.0
 11
99.258551670289307
 21
57.438692122722387
 31
0.0
  0
LINE
  5
84
  8
図形
 10
96.558555670289081
 20
57.938692122722379
 30
0.0
 11
96.558555670289437
 21
52.938692122722379
 31
0.0
  0
LINE
  5
85
  8
図形
 10
96.358549670289506
 20
58.438687122722392
 30
0.0
 11
96.358549670289506
 21
52.938692122722379
 31
0.0
  0
LINE
  5
86
  8
基準線
 10
95.758551670289364
 20
59.785097122722391
 30
0.0
 11
95.758551670289364
 21
51.938692122722387
 31
0.0
  0
LINE
  5
87
  8
図形
 10
95.158553670289507
 20
58.438687122722392
 30
0.0
 11
95.158553670289791
 21
52.938692122722379
 31
0.0
  0
LINE
  5
88
  8
図形
 10
94.958547670289306
 20
57.938692122722379
 30
0.0
 11
94.958547670289633
 21
52.938692122722379
 31
0.0
  0
LINE
  5
89
  8
基準線
 10
192.25855167028931
 20
77.938692122722443
 30
0.0
 11
192.25855167028931
 21
49.938692122722443
 31
0.0
  0
INSERT
  5
8A
  8
図形
  6
CONTINUOUS
  2
*X9
 10
0.0
 20
0.0
 30
0.0
1001
ACAD
1000
HATCH
1002
{
1070
    19
1000
ANSI31
1040
1.0
1040
0.0
1000
R14_HATCH_DATA
1000
8A
1011
1.0
1021
-8.5425790982705074E+242
1031
-0.0
1021
0.0
1031
0.0
1011
0.0
1021
-8.5425790982705074E+242
1031
-0.0
1021
1.0
1031
0.0
1011
0.0
1021
-8.5425790982705074E+242
1031
-0.0
1021
0.0
1031
1.0
1040
0.0
1010
0.0
1020
0.0
1030
1.0
1000
ANSI31
1070
     0
1070
     0
1071
        3
1071
        7
1070
     0
1070
     1
1071
        9
1040
107.25855167028929
1040
74.938692122722443
1040
100.75855167028941
1040
74.938692122722443
1040
100.75855167028929
1040
69.938692122722443
1040
102.16305742830571
1040
69.938692122722387
1040
102.1680654205701
1040
69.949431796791643
1040
102.19109672593559
1040
69.938692122722443
1040
103.25855167028941
1040
69.938692122722443
1040
105.25855167028941
1040
68.438692122722443
1040
107.25855167028929
1040
68.438692122722443
1071
        0
1071
        7
1070
     0
1070
     1
1071
       14
1040
97.758551670289435
1040
74.938692122722443
1040
92.258551670289293
1040
74.938692122722443
1040
92.258551670289293
1040
52.938692122722379
1040
94.958547670289633
1040
52.938692122722379
1040
94.958547670289249
1040
57.938692122722209
1040
95.158553670289507
1040
58.038692122722182
1040
95.158553670289564
1040
58.438687122722293
1040
95.758551670289364
1040
58.785097122722277
1040
95.758551670289421
1040
59.438692122722387
1040
94.258551670289307
1040
59.438692122722387
1040
94.258551670289307
1040
67.938692122722443
1040
96.758551670289307
1040
67.938692122722443
1040
96.758551670289364
1040
69.938692122722443
1040
97.758551670289307
1040
69.938692122722443
1071
        0
1071
        7
1070
     0
1070
     1
1071
       10
1040
99.258551670289307
1040
57.438692122722387
1040
96.758551670289307
1040
57.438692122722387
1040
96.758551670289307
1040
59.438692122722387
1040
95.758551670289364
1040
59.438692122722387
1040
95.758551670289307
1040
58.785097122722561
1040
96.358549670289506
1040
58.438687122722463
1040
96.358549670289506
1040
58.038692122722352
1040
96.558555670289152
1040
57.938692122722379
1040
96.558555670289479
1040
52.938692122722379
1040
99.258551670289364
1040
52.938692122722379
1071
        0
1070
     0
1070
     1
1040
0.0
1040
1.0
1070
     0
1070
     1
1040
0.7853981633974483
1040
-305.08968262962981
1040
-236.39905695659581
1040
-2.2450640302672871
1040
2.245064030267288
1070
     0
1040
0.0473776637503438
1071
        3
1040
102.8293304234559
1040
72.42321598949394
1040
0.0
1040
92.916362034148506
1040
72.42321598949394
1040
0.0
1040
97.877631444572671
1040
54.914084937648617
1040
0.0
1002
}
  0
LINE
  5
8B
  8
図形
 10
92.258551670289421
 20
52.93869212272255
 30
0.0
 11
92.258551670289421
 21
74.938692122722557
 31
0.0
1001
ACAD
1000
ASC_BOUNDS
1002
{
1070
    19
1005
0
1002
}
  0
LINE
  5
8C
  8
図形
 10
92.258551670289293
 20
52.938692122722379
 30
0.0
 11
92.258551670289293
 21
74.938692122722443
 31
0.0
1001
ACAD
1000
ASC_BOUNDS
1002
{
1070
    19
1002
}
  0
LINE
  5
8D
  8
図形
 10
92.258551670289293
 20
52.938692122722379
 30
0.0
 11
99.258551670289307
 21
52.938692122722379
 31
0.0
  0
LINE
  5
8E
  8
図形
 10
92.258551670289293
 20
52.93869212272255
 30
0.0
 11
92.258551670289293
 21
52.93869212272255
 31
0.0
  0
LINE
  5
8F
  8
図形
 10
92.258551670289293
 20
52.938692122722451
 30
0.0
 11
92.258551670289293
 21
52.938692122722451
 31
0.0
  0
LINE
  5
90
  8
図形
 10
94.258551670289307
 20
67.938692122722443
 30
0.0
 11
96.758551670289307
 21
67.938692122722443
 31
0.0
  0
LINE
  5
91
  8
図形
 10
94.95854767028959
 20
57.938692122722379
 30
0.0
 11
95.158553670289791
 21
58.038692122722352
 31
0.0
  0
LINE
  5
92
  8
図形
 10
94.958547670289306
 20
57.938692122722209
 30
0.0
 11
96.558555670289081
 21
57.938692122722379
 31
0.0
  0
LINE
  5
93
  8
図形
 10
96.758551670289307
 20
59.438692122722387
 30
0.0
 11
94.258551670289307
 21
59.438692122722387
 31
0.0
  0
LINE
  5
94
  8
図形
 10
94.258551670289307
 20
59.438692122722387
 30
0.0
 11
94.258551670289307
 21
67.938692122722443
 31
0.0
  0
LINE
  5
95
  8
図形
 10
92.258551670289421
 20
74.938692122722557
 30
0.0
 11
92.258551670289421
 21
74.938692122722557
 31
0.0
  0
LINE
  5
96
  8
図形
 10
92.258551670289293
 20
74.938692122722443
 30
0.0
 11
92.258551670289293
 21
74.938692122722443
 31
0.0
  0
LINE
  5
97
  8
図形
 10
100.4585516702893
 20
69.938692122722443
 30
0.0
 11
100.4585516702893
 21
74.938692122722557
 31
0.0
1001
ACAD
1000
ASC_BOUNDS
1002
{
1070
    19
1005
0
1002
}
  0
LINE
  5
98
  8
図形
 10
100.75855167028929
 20
69.938692122722443
 30
0.0
 11
100.75855167028941
 21
74.938692122722557
 31
0.0
1001
ACAD
1000
ASC_BOUNDS
1002
{
1070
    19
1005
0
1002
}
  0
LINE
  5
99
  8
基準線
 10
99.258551670289307
 20
76.938692122722557
 30
0.0
 11
99.258551670289307
 21
67.938692122722443
 31
0.0
  0
LINE
  5
9A
  8
図形
 10
107.25855167028929
 20
74.938692122722443
 30
0.0
 11
107.25855167028929
 21
68.438692122722443
 31
0.0
  0
LINE
  5
9B
  8
図形
 10
98.058551670289376
 20
69.938692122722443
 30
0.0
 11
98.058551670289376
 21
74.938692122722557
 31
0.0
1001
ACAD
1000
ASC_BOUNDS
1002
{
1070
    19
1005
0
1002
}
  0
LINE
  5
9C
  8
図形
 10
97.758551670289364
 20
69.938692122722443
 30
0.0
 11
97.758551670289435
 21
74.938692122722557
 31
0.0
1001
ACAD
1000
ASC_BOUNDS
1002
{
1070
    19
1005
0
1002
}
  0
LINE
  5
9D
  8
図形
 10
103.25855167028929
 20
69.938692122722443
 30
0.0
 11
105.25855167028929
 21
68.438692122722443
 31
0.0
  0
LINE
  5
9E
  8
図形
 10
102.86306407673661
 20
69.073659641532402
 30
0.0
 11
103.7693718637733
 21
68.651041379791707
 31
0.0
  0
LINE
  5
9F
  8
図形
 10
102.3113388607679
 20
65.524279514515285
 30
0.0
 11
105.03026222187781
 21
64.256424729293201
 31
0.0
  0
LINE
  5
A0
  8
図形
 10
103.7693718637733
 20
68.651041379791707
 30
0.0
 11
102.1634224691586
 21
65.207071789052463
 31
0.0
  0
ARC
  5
A1
  8
図形
 10
103.9948474806131
 20
62.035970651053333
 30
0.0
 40
1.55
 50
245.0000000000004
 51
64.99999999999882
  0
ARC
  5
A2
  8
図形
 10
103.9948474806131
 20
62.035970651053333
 30
0.0
 40
1.55
 50
245.0000000000004
 51
64.99999999999882
  0
LINE
  5
A3
  8
図形
 10
101.93098242520119
 20
64.708602506182331
 30
0.0
 11
104.64990578631119
 21
63.440747720960253
 31
0.0
  0
LINE
  5
A4
  8
図形
 10
101.93098242520119
 20
64.708602506182331
 30
0.0
 11
104.64990578631119
 21
63.440747720960253
 31
0.0
  0
LINE
  5
A5
  8
図形
 10
102.07889881681039
 20
65.025810231645153
 30
0.0
 11
100.4729494221958
 21
61.581840640905902
 31
0.0
  0
LINE
  5
A6
  8
図形
 10
102.07889881681039
 20
65.025810231645153
 30
0.0
 11
100.4729494221958
 21
61.581840640905902
 31
0.0
  0
LINE
  5
A7
  8
図形
 10
97.664859457325974
 20
57.926073860981717
 30
0.0
 11
103.0743732076069
 21
69.526813535050835
 31
0.0
1001
ACAD
1000
ASC_BOUNDS
1002
{
1070
    19
1002
}
  0
LINE
  5
A8
  8
図形
 10
102.1680654205703
 20
69.9494317967916
 30
0.0
 11
96.758551670289307
 21
58.348692122722412
 31
0.0
  0
LINE
  5
A9
  8
図形
 10
100.3884257698476
 20
61.400579083498492
 30
0.0
 11
98.782476375233045
 21
57.956609492759242
 31
0.0
  0
LINE
  5
AA
  8
図形
 10
99.258551670289307
 20
57.438692122722387
 30
0.0
 11
96.758551670289307
 21
57.438692122722387
 31
0.0
  0
LINE
  5
AB
  8
図形
 10
98.930392766842274
 20
58.273817218222057
 30
0.0
 11
101.6493161279522
 21
57.005962432999972
 31
0.0
  0
LINE
  5
AC
  8
図形
 10
98.782476375233045
 20
57.956609492759242
 30
0.0
 11
97.876168588196393
 21
58.379227754499929
 31
0.0
  0
LINE
  5
AD
  8
図形
 10
98.782476375233045
 20
57.956609492759242
 30
0.0
 11
98.930392766842274
 21
58.273817218222057
 31
0.0
  0
LINE
  5
AE
  8
図形
 10
98.782476375233045
 20
57.956609492759242
 30
0.0
 11
98.782476375233045
 21
57.956609492759242
 31
0.0
  0
LINE
  5
AF
  8
図形
 10
97.664859457325974
 20
57.926073860981717
 30
0.0
 11
96.758551670289307
 21
58.348692122722412
 31
0.0
  0
LINE
  5
B0
  8
図形
 10
96.358549670289506
 20
58.438687122722392
 30
0.0
 11
95.758551670289535
 21
58.785097122722391
 31
0.0
  0
LINE
  5
B1
  8
図形
 10
96.358549670289506
 20
58.038692122722352
 30
0.0
 11
96.558555670289081
 21
57.938692122722379
 31
0.0
  0
LINE
  5
B2
  8
図形
 10
96.758551670289307
 20
57.438692122722387
 30
0.0
 11
96.758551670289307
 21
59.438692122722387
 31
0.0
  0
LINE
  5
B3
  8
図形
 10
96.358549670289506
 20
58.438687122722392
 30
0.0
 11
95.158553670289734
 21
58.438687122722392
 31
0.0
  0
LINE
  5
B4
  8
図形
 10
95.158553670289734
 20
58.438687122722392
 30
0.0
 11
95.758551670289535
 21
58.785097122722391
 31
0.0
  0
LINE
  5
B5
  8
図形
 10
99.482117982811019
 20
61.823197345239286
 30
0.0
 11
100.3884257698476
 21
61.400579083498492
 31
0.0
  0
LINE
  5
B6
  8
図形
 10
100.2405093782384
 20
61.08337135803577
 30
0.0
 11
102.9594327393483
 21
59.815516572813571
 31
0.0
  0
LINE
  5
B7
  8
図形
 10
100.4729494221958
 20
61.581840640905902
 30
0.0
 11
99.566641635159172
 21
62.004458902646597
 31
0.0
  0
LINE
  5
B8
  8
図形
 10
100.4729494221958
 20
61.581840640905902
 30
0.0
 11
99.566641635159172
 21
62.004458902646597
 31
0.0
  0
LINE
  5
B9
  8
図形
 10
100.620865813805
 20
61.899048366368731
 30
0.0
 11
103.339789174915
 21
60.631193581146647
 31
0.0
  0
LINE
  5
BA
  8
図形
 10
100.620865813805
 20
61.899048366368731
 30
0.0
 11
103.339789174915
 21
60.631193581146647
 31
0.0
  0
LINE
  5
BB
  8
図形
 10
96.758551670289307
 20
69.938692122722443
 30
0.0
 11
103.25855167028929
 21
69.938692122722443
 31
0.0
  0
LINE
  5
BC
  8
図形
 10
96.758551670289307
 20
67.938692122722443
 30
0.0
 11
96.758551670289307
 21
69.938692122722443
 31
0.0
  0
LINE
  5
BD
  8
図形
 10
102.1680654205703
 20
69.9494317967916
 30
0.0
 11
103.0743732076069
 21
69.526813535050835
 31
0.0
  0
LINE
  5
BE
  8
図形
 10
102.1634224691586
 20
65.207071789052463
 30
0.0
 11
101.25711468212199
 21
65.629690050793158
 31
0.0
  0
LINE
  5
BF
  8
図形
 10
101.1725910297739
 20
65.448428493385848
 30
0.0
 11
102.07889881681039
 21
65.025810231645153
 31
0.0
  0
LINE
  5
C0
  8
図形
 10
101.1725910297739
 20
65.448428493385848
 30
0.0
 11
102.07889881681039
 21
65.025810231645153
 31
0.0
  0
ARC
  5
C1
  8
図形
 10
105.6853205275759
 20
65.661201799199944
 30
0.0
 40
1.55
 50
245.0000000000004
 51
64.99999999999882
  0
LINE
  5
C2
  8
図形
 10
107.25855167028929
 20
68.438692122722443
 30
0.0
 11
105.25855167028929
 21
68.438692122722443
 31
0.0
  0
LINE
  5
C3
  8
図形
 10
103.621455472164
 20
68.333833654328885
 30
0.0
 11
106.340378833274
 21
67.0659788691068
 31
0.0
  0
LINE
  5
C4
  8
図形
 10
99.769527280045509
 20
74.938692122722557
 30
0.0
 11
98.269527280045509
 21
74.938692122722557
 31
0.0
  0
LINE
  5
C5
  8
図形
 10
99.769527280045509
 20
74.938692122722557
 30
0.0
 11
98.269527280045509
 21
74.938692122722557
 31
0.0
  0
LINE
  5
C6
  8
図形
 10
99.769527280045395
 20
74.938692122722443
 30
0.0
 11
98.269527280045395
 21
74.938692122722443
 31
0.0
  0
CIRCLE
  5
C7
  8
図形
 10
192.25855167028931
 20
131.93809342376829
 30
0.0
 40
1.5
  0
LINE
  5
C8
  8
基準線
 10
189.75855167028931
 20
131.93809342376841
 30
0.0
 11
194.75855167028931
 21
131.93809342376841
 31
0.0
  0
LINE
  5
C9
  8
基準線
 10
192.25855167028931
 20
134.43809342376841
 30
0.0
 11
192.25855167028931
 21
129.43809342376841
 31
0.0
  0
CIRCLE
  5
CA
  8
図形
 10
192.25855167028931
 20
131.93809342376829
 30
0.0
 40
1.1999999999999991
  0
LINE
  5
CB
  8
基準線
 10
96.758551670289421
 20
224.93809342376841
 30
0.0
 11
101.75855167028941
 21
224.93809342376841
 31
0.0
  0
CIRCLE
  5
CC
  8
図形
 10
99.258551670289364
 20
224.93809342376841
 30
0.0
 40
1.1999999999999991
  0
CIRCLE
  5
CD
  8
図形
 10
99.258551670289364
 20
224.93809342376841
 30
0.0
 40
1.5
  0
LINE
  5
CE
  8
基準線
 10
99.258551670289421
 20
227.43809342376829
 30
0.0
 11
99.258551670289421
 21
222.43809342376841
 31
0.0
  0
LINE
  5
CF
  8
基準線
 10
192.25855167028931
 20
320.43809342376829
 30
0.0
 11
192.25855167028931
 21
315.43809342376829
 31
0.0
  0
CIRCLE
  5
D0
  8
図形
 10
192.25855167028939
 20
317.93809342376829
 30
0.0
 40
1.5
  0
LINE
  5
D1
  8
基準線
 10
189.75855167028931
 20
317.93809342376829
 30
0.0
 11
194.75855167028931
 21
317.93809342376829
 31
0.0
  0
CIRCLE
  5
D2
  8
図形
 10
192.25855167028939
 20
317.93809342376829
 30
0.0
 40
1.1999999999999991
  0
INSERT
  5
D3
  8
0
  2
*U10
 10
0.0
 20
0.0
 30
0.0
  0
LINE
  5
D5
  8
図形
 10
342.51970167028941
 20
98.211587122722506
 30
0.0
 11
332.51970167028941
 21
98.211587122722506
 31
0.0
  0
LINE
  5
D6
  8
図形
 10
342.51970167028941
 20
99.211587122722506
 30
0.0
 11
332.51970167028941
 21
99.211587122722506
 31
0.0
  0
LINE
  5
D7
  8
図形
 10
338.01970167028941
 20
97.211587122722406
 30
0.0
 11
346.01970167028941
 21
97.211587122722406
 31
0.0
  0
LINE
  5
D8
  8
図形
 10
338.01970167028941
 20
90.211587122722506
 30
0.0
 11
346.01970167028929
 21
90.211587122722506
 31
0.0
  0
LINE
  5
D9
  8
図形
 10
287.95854767028919
 20
57.938692122722379
 30
0.0
 11
287.95854767028948
 21
52.938692122722379
 31
0.0
  0
LINE
  5
DA
  8
図形
 10
288.15855367028928
 20
58.438687122722392
 30
0.0
 11
288.15855367028968
 21
52.938692122722379
 31
0.0
  0
LINE
  5
DB
  8
図形
 10
289.55855567028902
 20
57.938692122722379
 30
0.0
 11
289.55855567028931
 21
52.938692122722379
 31
0.0
  0
LINE
  5
DC
  8
図形
 10
289.35854967028939
 20
58.438687122722392
 30
0.0
 11
289.35854967028939
 21
52.938692122722379
 31
0.0
  0
LINE
  5
DD
  8
基準線
 10
288.75855167028931
 20
59.785097122722391
 30
0.0
 11
288.75855167028931
 21
51.938692122722387
 31
0.0
  0
ARC
  5
DE
  8
図形
 10
282.25653603401071
 20
58.415008970940328
 30
0.0
 40
1.55
 50
114.9999999999995
 51
295.00000000000108
  0
LINE
  5
DF
  8
図形
 10
285.25855167028931
 20
52.938692122722451
 30
0.0
 11
285.25855167028931
 21
57.438692122722443
 31
0.0
  0
INSERT
  5
E0
  8
図形
  6
CONTINUOUS
  2
*X11
 10
0.0
 20
0.0
 30
0.0
1001
ACAD
1000
HATCH
1002
{
1070
    19
1000
ANSI31
1040
1.0
1040
0.0
1000
R14_HATCH_DATA
1000
E0
1011
1.0
1021
-8.5425790982705074E+242
1031
-0.0
1021
0.0
1031
0.0
1011
0.0
1021
-8.5425790982705074E+242
1031
-0.0
1021
1.0
1031
0.0
1011
0.0
1021
-8.5425790982705074E+242
1031
-0.0
1021
0.0
1031
1.0
1040
0.0
1010
0.0
1020
0.0
1030
1.0
1000
ANSI31
1070
     0
1070
     0
1071
        3
1071
        7
1070
     0
1070
     1
1071
        6
1040
283.75855167028931
1040
74.938692122722443
1040
277.25855167028931
1040
74.938692122722443
1040
277.25855167028931
1040
68.438692122722443
1040
279.25855167028931
1040
68.438692122722443
1040
281.25855167028931
1040
69.938692122722443
1040
283.75855167028931
1040
69.938692122722443
1071
        0
1071
        7
1070
     0
1070
     1
1071
       14
1040
292.25855167028942
1040
74.938692122722443
1040
286.75855167028919
1040
74.938692122722443
1040
286.75855167028919
1040
69.938692122722443
1040
287.75855167028931
1040
69.938692122722443
1040
287.75855167028931
1040
67.938692122722443
1040
290.25855167028931
1040
67.938692122722443
1040
290.25855167028931
1040
59.438692122722443
1040
288.75855167028931
1040
59.438692122722443
1040
288.75855167028931
1040
58.785097122722512
1040
289.35854967028939
1040
58.438687122722392
1040
289.35854967028939
1040
58.038692122722409
1040
289.55855567028902
1040
57.938692122722379
1040
289.55855567028931
1040
52.938692122722451
1040
292.25855167028908
1040
52.938692122722451
1071
        0
1071
        7
1070
     0
1070
     1
1071
       10
1040
287.95854767028919
1040
57.938692122722209
1040
288.15855367028928
1040
58.038692122722239
1040
288.15855367028928
1040
58.438687122722229
1040
288.75855167028931
1040
58.785097122722277
1040
288.75855167028942
1040
59.438692122722443
1040
287.75855167028931
1040
59.438692122722443
1040
287.75855167028931
1040
57.438692122722443
1040
285.25855167028931
1040
57.438692122722443
1040
285.25855167028931
1040
52.938692122722451
1040
287.95854767028948
1040
52.938692122722451
1071
        0
1070
     0
1070
     1
1040
0.0
1040
1.0
1070
     0
1070
     1
1040
0.7853981633974483
1040
-305.08968262962981
1040
-236.39905695659581
1040
-2.2450640302672871
1040
2.245064030267288
1070
     0
1040
0.1246720069465504
1071
        3
1040
282.76153859803821
1040
72.13317250033964
1040
0.0
1040
290.37154919432191
1040
72.257844233762114
1040
0.0
1040
287.00318426015968
1040
55.177779663546573
1040
0.0
1002
}
  0
LINE
  5
E1
  8
図形
 10
292.25855167028931
 20
52.938692122722451
 30
0.0
 11
292.25855167028931
 21
74.938692122722443
 31
0.0
1001
ACAD
1000
ASC_BOUNDS
1002
{
1070
    19
1005
0
1002
}
  0
LINE
  5
E2
  8
図形
 10
292.25855167028931
 20
52.938692122722451
 30
0.0
 11
285.25855167028931
 21
52.938692122722451
 31
0.0
  0
ARC
  5
E3
  8
図形
 10
273.91503926348338
 20
156.02646819157329
 30
0.0
 40
10.6
 50
225.0
 51
315.0
  0
ARC
  5
E4
  8
図形
 10
273.6345512165899
 20
155.7354583957765
 30
0.0
 40
6.9999999999999973
 50
225.0
 51
315.0
  0
POLYLINE
  5
E5
  8
図形
 66
     1
 10
0.0
 20
0.0
 30
0.0
1001
ACAD
1000
ASC_BOUNDS
1002
{
1070
    19
1005
0
1005
0
1002
}
  0
VERTEX
  5
1A8
  8
図形
 10
292.25855167028931
 20
74.938692122722443
 30
0.0
  0
VERTEX
  5
1A9
  8
図形
 10
222.25855167028919
 20
74.938692122722443
 30
0.0
  0
SEQEND
  5
1AA
  8
図形
  0
LINE
  5
E6
  8
図形
 10
261.66082894350001
 20
153.29001475040209
 30
0.0
 11
266.41970738290593
 21
148.531136310996
 31
0.0
  0
LINE
  5
E7
  8
図形
 10
263.92551396728521
 20
155.5450007084695
 30
0.0
 11
268.6848037482838
 21
150.78571092747069
 31
0.0
  0
ARC
  5
E8
  8
図形
 10
316.60308167029001
 20
85.116287038477765
 30
0.0
 40
7.0
 50
90.0
 51
180.0
  0
ARC
  5
E9
  8
図形
 10
316.61052167028942
 20
84.716277206966936
 30
0.0
 40
10.6
 50
90.0
 51
180.0
  0
ARC
  5
EA
  8
図形
 10
299.00308167028999
 20
75.93869212272233
 30
0.0
 40
10.6
 50
270.0
 51
0.0
  0
LINE
  5
EB
  8
図形
 10
306.01052167028939
 20
84.716277206966936
 30
0.0
 11
306.01052167028939
 21
75.534582122722497
 31
0.0
  0
LINE
  5
EC
  8
図形
 10
286.4585516702893
 20
69.938692122722443
 30
0.0
 11
286.4585516702893
 21
74.938692122722443
 31
0.0
1001
ACAD
1000
ASC_BOUNDS
1002
{
1070
    19
1005
0
1002
}
  0
LINE
  5
ED
  8
図形
 10
286.75855167028919
 20
69.938692122722443
 30
0.0
 11
286.75855167028919
 21
74.938692122722443
 31
0.0
1001
ACAD
1000
ASC_BOUNDS
1002
{
1070
    19
1005
0
1002
}
  0
LINE
  5
EE
  8
基準線
 10
285.25855167028931
 20
76.938692122722443
 30
0.0
 11
285.25855167028931
 21
67.938692122722443
 31
0.0
  0
LINE
  5
EF
  8
図形
 10
284.05855167028921
 20
69.938692122722443
 30
0.0
 11
284.05855167028921
 21
74.938692122722443
 31
0.0
1001
ACAD
1000
ASC_BOUNDS
1002
{
1070
    19
1005
0
1002
}
  0
LINE
  5
F0
  8
図形
 10
283.75855167028931
 20
69.938692122722443
 30
0.0
 11
283.75855167028931
 21
74.938692122722443
 31
0.0
1001
ACAD
1000
ASC_BOUNDS
1002
{
1070
    19
1005
0
1002
}
  0
LINE
  5
F1
  8
図形
 10
277.25855167028931
 20
74.938692122722443
 30
0.0
 11
277.25855167028931
 21
68.438692122722443
 31
0.0
  0
LINE
  5
F2
  8
図形
 10
285.63051770081881
 20
58.278086686255683
 30
0.0
 11
282.91159433970893
 21
57.010231901033592
 31
0.0
  0
LINE
  5
F3
  8
図形
 10
284.3204010894226
 20
61.087640826069283
 30
0.0
 11
281.60147772831272
 21
59.819786040847191
 31
0.0
  0
LINE
  5
F4
  8
図形
 10
283.94004465385598
 20
61.90331783440228
 30
0.0
 11
281.22112129274609
 21
60.635463049180203
 31
0.0
  0
LINE
  5
F5
  8
図形
 10
283.94004465385598
 20
61.90331783440228
 30
0.0
 11
281.22112129274609
 21
60.635463049180203
 31
0.0
  0
LINE
  5
F6
  8
図形
 10
282.48201165085061
 20
65.030079699678708
 30
0.0
 11
284.08796104546531
 21
61.586110108939458
 31
0.0
  0
LINE
  5
F7
  8
図形
 10
282.48201165085061
 20
65.030079699678708
 30
0.0
 11
284.08796104546531
 21
61.586110108939458
 31
0.0
  0
LINE
  5
F8
  8
図形
 10
286.89605101033521
 20
57.930343329015159
 30
0.0
 11
281.48653726005398
 21
69.531083003084404
 31
0.0
1001
ACAD
1000
ASC_BOUNDS
1002
{
1070
    19
1002
}
  0
LINE
  5
F9
  8
図形
 10
287.75855167028931
 20
69.938692122722443
 30
0.0
 11
281.25855167028931
 21
69.938692122722443
 31
0.0
  0
LINE
  5
FA
  8
図形
 10
282.36065783798063
 20
69.938692122722443
 30
0.0
 11
287.75855167028931
 21
58.44690627795228
 31
0.0
  0
LINE
  5
FB
  8
図形
 10
282.62992804245982
 20
64.712871974215886
 30
0.0
 11
279.91100468134982
 21
63.445017188993802
 31
0.0
  0
LINE
  5
FC
  8
図形
 10
282.62992804245982
 20
64.712871974215886
 30
0.0
 11
279.91100468134982
 21
63.445017188993802
 31
0.0
  0
ARC
  5
FD
  8
図形
 10
280.56606298704793
 20
62.040240119086889
 30
0.0
 40
1.55
 50
114.9999999999995
 51
295.00000000000108
  0
ARC
  5
FE
  8
図形
 10
280.56606298704793
 20
62.040240119086889
 30
0.0
 40
1.55
 50
114.9999999999995
 51
295.00000000000108
  0
LINE
  5
FF
  8
図形
 10
279.25855167028931
 20
68.438692122722443
 30
0.0
 11
281.25855167028931
 21
69.938692122722443
 31
0.0
  0
LINE
  5
100
  8
図形
 10
282.2495716068932
 20
65.528548982548841
 30
0.0
 11
279.53064824578331
 21
64.260694197326757
 31
0.0
  0
ARC
  5
101
  8
図形
 10
278.87558994008498
 20
65.665471267233485
 30
0.0
 40
1.55
 50
114.9999999999995
 51
295.00000000000108
  0
LINE
  5
102
  8
図形
 10
280.93945499549699
 20
68.33810312236244
 30
0.0
 11
278.22053163438699
 21
67.070248337140413
 31
0.0
  0
LINE
  5
103
  8
図形
 10
277.25855167028931
 20
68.438692122722443
 30
0.0
 11
279.25855167028931
 21
68.438692122722443
 31
0.0
  0
LINE
  5
104
  8
図形
 10
282.3928450470907
 20
69.953701264825099
 30
0.0
 11
281.48653726005398
 21
69.531083003084404
 31
0.0
  0
LINE
  5
105
  8
図形
 10
281.6978463909245
 20
69.077929109566014
 30
0.0
 11
280.79153860388777
 21
68.655310847825305
 31
0.0
  0
LINE
  5
106
  8
図形
 10
280.79153860388777
 20
68.655310847825305
 30
0.0
 11
282.3974879985023
 21
65.211341257086019
 31
0.0
  0
LINE
  5
107
  8
図形
 10
282.3974879985023
 20
65.211341257086019
 30
0.0
 11
283.30379578553908
 21
65.633959518826714
 31
0.0
  0
LINE
  5
108
  8
図形
 10
283.38831943788722
 20
65.452697961419403
 30
0.0
 11
282.48201165085061
 21
65.030079699678708
 31
0.0
  0
LINE
  5
109
  8
図形
 10
283.38831943788722
 20
65.452697961419403
 30
0.0
 11
282.48201165085061
 21
65.030079699678708
 31
0.0
  0
LINE
  5
10A
  8
図形
 10
290.25855167028931
 20
59.438692122722443
 30
0.0
 11
290.25855167028931
 21
67.938692122722443
 31
0.0
  0
LINE
  5
10B
  8
図形
 10
287.75855167028931
 20
59.438692122722443
 30
0.0
 11
290.25855167028931
 21
59.438692122722443
 31
0.0
  0
LINE
  5
10C
  8
図形
 10
287.75855167028931
 20
57.438692122722443
 30
0.0
 11
287.75855167028931
 21
59.438692122722443
 31
0.0
  0
LINE
  5
10D
  8
図形
 10
285.07879248485
 20
61.827466813272792
 30
0.0
 11
284.17248469781327
 21
61.404848551532098
 31
0.0
  0
LINE
  5
10E
  8
図形
 10
285.77843409242809
 20
57.960878960792797
 30
0.0
 11
286.68474187946481
 21
58.383497222533492
 31
0.0
  0
LINE
  5
10F
  8
図形
 10
284.17248469781327
 20
61.404848551532098
 30
0.0
 11
285.77843409242809
 21
57.960878960792797
 31
0.0
  0
LINE
  5
110
  8
図形
 10
284.08796104546531
 20
61.586110108939458
 30
0.0
 11
284.99426883250192
 21
62.008728370680103
 31
0.0
  0
LINE
  5
111
  8
図形
 10
284.08796104546531
 20
61.586110108939458
 30
0.0
 11
284.99426883250192
 21
62.008728370680103
 31
0.0
  0
LINE
  5
112
  8
図形
 10
286.89605101033521
 20
57.930343329015159
 30
0.0
 11
287.80235879737182
 21
58.35296159075596
 31
0.0
  0
LINE
  5
113
  8
図形
 10
285.25855167028931
 20
57.438692122722443
 30
0.0
 11
287.75855167028931
 21
57.438692122722443
 31
0.0
  0
LINE
  5
114
  8
図形
 10
289.35854967028939
 20
58.438687122722392
 30
0.0
 11
288.15855367028962
 21
58.438687122722392
 31
0.0
  0
LINE
  5
115
  8
図形
 10
288.15855367028962
 20
58.438687122722392
 30
0.0
 11
288.75855167028948
 21
58.785097122722391
 31
0.0
  0
LINE
  5
116
  8
図形
 10
287.95854767028948
 20
57.938692122722379
 30
0.0
 11
288.15855367028968
 21
58.038692122722352
 31
0.0
  0
LINE
  5
117
  8
図形
 10
289.35854967028939
 20
58.438687122722392
 30
0.0
 11
288.75855167028948
 21
58.785097122722391
 31
0.0
  0
LINE
  5
118
  8
図形
 10
287.95854767028919
 20
57.938692122722209
 30
0.0
 11
289.55855567028902
 21
57.938692122722379
 31
0.0
  0
LINE
  5
119
  8
図形
 10
289.35854967028939
 20
58.038692122722352
 30
0.0
 11
289.55855567028902
 21
57.938692122722379
 31
0.0
  0
LINE
  5
11A
  8
図形
 10
290.25855167028931
 20
67.938692122722443
 30
0.0
 11
287.75855167028931
 21
67.938692122722443
 31
0.0
  0
LINE
  5
11B
  8
図形
 10
287.75855167028931
 20
67.938692122722443
 30
0.0
 11
287.75855167028931
 21
69.938692122722443
 31
0.0
  0
LINE
  5
11C
  8
図形
 10
284.24757606053322
 20
74.938692122722443
 30
0.0
 11
277.25855167028931
 21
74.938692122722443
 31
0.0
  0
LINE
  5
11D
  8
図形
 10
284.74757606053322
 20
74.938692122722443
 30
0.0
 11
286.24757606053322
 21
74.938692122722443
 31
0.0
  0
ARC
  5
11E
  8
図形
 10
299.01052167028939
 20
75.534582122722497
 30
0.0
 40
6.9999999999999973
 50
270.0
 51
0.0
  0
LINE
  5
11F
  8
図形
 10
292.25855167028931
 20
65.338692122722421
 30
0.0
 11
299.00308167028999
 21
65.338692122722421
 31
0.0
  0
LINE
  5
120
  8
図形
 10
292.25855167028931
 20
68.534582122722497
 30
0.0
 11
299.01052167028939
 21
68.534582122722497
 31
0.0
  0
LINE
  5
121
  8
図形
 10
292.25855167028931
 20
74.938692122722443
 30
0.0
 11
292.25855167028931
 21
74.938692122722443
 31
0.0
  0
LINE
  5
122
  8
図形
 10
309.6030816702899
 20
85.116287038477765
 30
0.0
 11
309.6030816702899
 21
75.93869212272233
 31
0.0
  0
TEXT
  5
123
  8
0
 10
313.2239366709095
 20
83.156458687904262
 30
0.0
 40
5.0
  1
L=500
  7
NISSIN5
  0
LINE
  5
124
  8
図形
 10
319.90270325805028
 20
92.116287038477935
 30
0.0
 11
327.81973167028929
 21
92.111572122722393
 31
0.0
  0
LINE
  5
125
  8
図形
 10
319.89941453545049
 20
95.312656198313277
 30
0.0
 11
327.81973167028929
 21
95.311602122722491
 31
0.0
  0
LINE
  5
126
  8
図形
 10
317.60262008252852
 20
95.316277206967072
 30
0.0
 11
316.61052167028942
 21
95.316277206967072
 31
0.0
  0
LINE
  5
127
  8
図形
 10
317.60268325805038
 20
92.116287038477878
 30
0.0
 11
316.60308167029001
 21
92.116287038477878
 31
0.0
  0
ARC
  5
128
  8
図形
 10
319.00827167028939
 20
92.916282122722521
 30
0.0
 40
1.199999999999978
 50
318.1900000000021
 51
41.809997000001331
  0
ARC
  5
129
  8
図形
 10
316.70825167028943
 20
92.916282122722521
 30
0.0
 40
1.199999999999978
 50
318.1900000000021
 51
41.809997000001331
  0
ARC
  5
12A
  8
図形
 10
320.79697922235169
 20
92.916317434405926
 30
0.0
 40
1.1999075525789289
 50
138.18831386179249
 51
221.81621077947889
  0
ARC
  5
12B
  8
図形
 10
318.4970516702893
 20
94.516282122722316
 30
0.0
 40
1.200000000000039
 50
138.1900000000021
 51
221.8099900000004
  0
ARC
  5
12C
  8
図形
 10
316.70825167028943
 20
94.516282122722316
 30
0.0
 40
1.199999999999978
 50
318.1900000000021
 51
41.809997000001331
  0
ARC
  5
12D
  8
図形
 10
320.79707167028943
 20
94.516282122722316
 30
0.0
 40
1.2000000000002089
 50
138.1900000000069
 51
221.80998999999801
  0
LINE
  5
12E
  8
図形
 10
337.51970167028941
 20
98.211587122722506
 30
0.0
 11
337.51970167028941
 21
96.211587122722406
 31
0.0
  0
LINE
  5
12F
  8
図形
 10
336.51970167028941
 20
98.211587122722506
 30
0.0
 11
336.51970167028941
 21
96.211587122722406
 31
0.0
  0
LINE
  5
130
  8
図形
 10
338.01970167028941
 20
97.211587122722406
 30
0.0
 11
338.01970167028941
 21
90.211587122722506
 31
0.0
  0
LINE
  5
131
  8
図形
 10
327.81973167028929
 20
96.211587122722449
 30
0.0
 11
338.01970167028941
 21
96.211587122722406
 31
0.0
  0
LINE
  5
132
  8
図形
 10
327.81973167028929
 20
91.211587122722449
 30
0.0
 11
338.01970167028941
 21
91.211587122722449
 31
0.0
  0
LINE
  5
133
  8
図形
 10
327.81973167028929
 20
96.211587122722449
 30
0.0
 11
327.81973167028929
 21
91.211587122722449
 31
0.0
  0
LINE
  5
134
  8
図形
 10
332.51970167028941
 20
99.211587122722506
 30
0.0
 11
332.51970167028941
 21
98.211587122722506
 31
0.0
  0
LINE
  5
135
  8
図形
 10
308.35408814254532
 20
143.88649834770459
 30
0.0
 11
311.18250819622392
 21
146.7149184013831
 31
0.0
  0
LINE
  5
136
  8
図形
 10
307.6469460060199
 20
144.59364048423029
 30
0.0
 11
310.4753660596981
 21
147.42206053790869
 31
0.0
  0
LINE
  5
137
  8
図形
 10
307.32877623875697
 20
151.62931053062971
 30
0.0
 11
314.54125833579212
 21
144.41682843359459
 31
0.0
  0
LINE
  5
138
  8
図形
 10
310.65217811033392
 20
140.5277482081365
 30
0.0
 11
303.43969601329883
 21
147.74023030517151
 31
0.0
  0
LINE
  5
139
  8
図形
 10
316.83934830358061
 20
135.40123818666959
 30
0.0
 11
307.6469460060199
 21
144.59364048423029
 31
0.0
  0
ARC
  5
13A
  8
図形
 10
292.84965821228047
 20
150.07092844260379
 30
0.0
 40
7.0
 50
44.999999999999993
 51
135.0
  0
ARC
  5
13B
  8
図形
 10
292.57206942232961
 20
149.7828179037497
 30
0.0
 40
10.6
 50
44.999999999999993
 51
135.0
  0
LINE
  5
13C
  8
図形
 10
287.89991074397471
 20
155.02067591090969
 30
0.0
 11
281.41037114406072
 21
148.53113631099589
 31
0.0
  0
LINE
  5
13D
  8
図形
 10
285.07673754175221
 20
157.2781497843271
 30
0.0
 11
278.5842986848956
 21
150.7857109274706
 31
0.0
  0
LINE
  5
13E
  8
図形
 10
300.13327177553828
 20
152.6996156389047
 30
0.0
 11
304.25984795559361
 21
148.56038224746629
 31
0.0
  0
LINE
  5
13F
  8
図形
 10
303.43969601329883
 20
147.74023030517151
 30
0.0
 11
307.32877623875697
 21
151.62931053062971
 31
0.0
  0
LINE
  5
140
  8
図形
 10
300.76892081780568
 20
156.57663026942851
 30
0.0
 11
300.06740130290689
 21
157.2781497843271
 31
0.0
  0
ARC
  5
141
  8
図形
 10
300.83569750983338
 20
155.37848967943
 30
0.0
 40
1.200000000000031
 50
93.189999999997752
 51
176.8099900000023
  0
ARC
  5
142
  8
図形
 10
300.0658137886133
 20
153.88563170085339
 30
0.0
 40
1.1999999999999891
 50
273.18999999999772
 51
356.80999700000029
  0
ARC
  5
143
  8
図形
 10
301.3306863987998
 20
152.62075909066709
 30
0.0
 40
1.199999999999978
 50
93.190000000001007
 51
176.80999000000551
  0
ARC
  5
144
  8
図形
 10
299.57082489964699
 20
156.6433622896165
 30
0.0
 40
1.1999999999999811
 50
273.18999999999772
 51
356.80999700000029
  0
ARC
  5
145
  8
図形
 10
298.43945404974869
 20
155.51199143971809
 30
0.0
 40
1.1999999999999891
 50
273.18999999999772
 51
356.80999700000029
  0
LINE
  5
146
  8
図形
 10
298.50623074177651
 20
154.3138508497195
 30
0.0
 11
297.7994056805864
 21
155.02067591090969
 31
0.0
  0
LINE
  5
147
  8
図形
 10
302.40179053773772
 20
154.95666512911311
 30
0.0
 11
306.51563172466371
 21
150.81616601653641
 31
0.0
  0
ARC
  5
148
  8
図形
 10
302.4620572486981
 20
153.7521299405654
 30
0.0
 40
1.200000000000021
 50
93.189999999997752
 51
176.80999000000551
  0
LINE
  5
149
  8
図形
  6
CONTINUOUS
 10
310.47539434396953
 20
138.93677916367011
 30
0.0
 11
315.42514181227529
 21
133.98703169536429
 31
0.0
  0
LINE
  5
14A
  8
図形
 10
321.0819748485643
 20
139.6438647316532
 30
0.0
 11
315.42514181227529
 21
133.98703169536429
 31
0.0
  0
LINE
  5
14B
  8
図形
 10
318.96066157607248
 20
138.9367650215344
 30
0.0
 11
316.13224152239411
 21
136.10834496785611
 31
0.0
  0
LINE
  5
14C
  8
図形
 10
317.54644094263148
 20
140.3509856549754
 30
0.0
 11
314.71802088895322
 21
137.522565601297
 31
0.0
  0
LINE
  5
14D
  8
図形
 10
316.13222738025843
 20
144.59361219995901
 30
0.0
 11
321.0819748485643
 21
139.6438647316532
 31
0.0
  0
LINE
  5
14E
  8
図形
 10
316.98075551768221
 20
139.78530023002611
 30
0.0
 11
310.61682277127449
 21
146.14923297643381
 31
0.0
  0
LINE
  5
14F
  8
図形
 10
319.66776835725909
 20
138.2296582403479
 30
0.0
 11
310.4753660596981
 21
147.42206053790869
 31
0.0
  0
LINE
  5
150
  8
図形
 10
316.415070092733
 20
139.21961480507679
 30
0.0
 11
310.05113734632539
 21
145.5835475514846
 31
0.0
  0
LINE
  5
151
  8
図形
 10
315.84939173885152
 20
138.65393645119539
 30
0.0
 11
309.48545899244391
 21
145.0178691976032
 31
0.0
  0
LINE
  5
152
  8
図形
 10
315.28370631390231
 20
138.08825102624621
 30
0.0
 11
308.91977356749459
 21
144.45218377265391
 31
0.0
  0
LINE
  5
153
  8
図形
 10
310.47541555717288
 20
140.35098565497549
 30
0.0
 11
310.65217811033392
 21
140.5277482081365
 31
0.0
  0
LINE
  5
154
  8
図形
 10
310.65217811033392
 20
140.5277482081365
 30
0.0
 11
311.18250819622369
 21
141.05807829402639
 31
0.0
  0
ARC
  5
155
  8
図形
 10
311.18250819622392
 20
139.64389301592459
 30
0.0
 40
1.0
 50
135.0
 51
225.0
  0
LINE
  5
156
  8
図形
 10
314.54125833579212
 20
144.41682843359459
 30
0.0
 11
314.01092824990212
 21
143.8864983477047
 31
0.0
  0
ARC
  5
157
  8
図形
 10
315.42511352800392
 20
143.8864983477047
 30
0.0
 40
1.0
 50
44.999999999999993
 51
135.0
  0
LINE
  5
158
  8
図形
 10
314.71802088895322
 20
144.59359098675569
 30
0.0
 11
314.54125833579212
 21
144.41682843359459
 31
0.0
  0
LINE
  5
159
  8
図形
 10
314.71802088895299
 20
144.59359098675569
 30
0.0
 11
314.54125833579201
 21
144.41682843359459
 31
0.0
  0
LINE
  5
15A
  8
図形
 10
346.01970167028941
 20
97.211587122722406
 30
0.0
 11
346.01970167028941
 21
95.711587122722392
 31
0.0
  0
LINE
  5
15B
  8
図形
 10
343.01970167028941
 20
95.711587122722392
 30
0.0
 11
346.01970167028941
 21
95.711587122722392
 31
0.0
  0
LINE
  5
15C
  8
図形
 10
343.01970167028929
 20
91.711587122722392
 30
0.0
 11
346.01970167028941
 21
91.711587122722392
 31
0.0
  0
LINE
  5
15D
  8
図形
 10
343.01970167028941
 20
95.711587122722392
 30
0.0
 11
343.01970167028941
 21
91.711587122722392
 31
0.0
  0
LINE
  5
15E
  8
図形
 10
346.01970167028941
 20
91.711587122722392
 30
0.0
 11
346.01970167028929
 21
90.211587122722506
 31
0.0
  0
LINE
  5
15F
  8
図形
 10
342.51970167028941
 20
98.211587122722506
 30
0.0
 11
342.51970167028941
 21
99.211587122722506
 31
0.0
  0
CIRCLE
  5
160
  8
図形
 10
285.25855167028942
 20
224.93809342376829
 30
0.0
 40
1.5
  0
LINE
  5
161
  8
基準線
 10
282.75855167028919
 20
224.93809342376841
 30
0.0
 11
287.75855167028931
 21
224.93809342376841
 31
0.0
  0
CIRCLE
  5
162
  8
図形
 10
285.25855167028942
 20
224.93809342376829
 30
0.0
 40
1.1999999999999991
  0
LINE
  5
163
  8
基準線
 10
285.25855167028931
 20
227.43809342376829
 30
0.0
 11
285.25855167028931
 21
222.43809342376841
 31
0.0
  0
ENDSEC
  0
EOF
