  0
SECTION
  2
HEADER
  9
$ACADVER
  1
AC1009
  9
$INSBASE
 10
0.0
 20
0.0
 30
0.0
  9
$EXTMIN
 10
153.39169285369309
 20
16.9447324321727
 30
0.0
  9
$EXTMAX
 10
478.68914573484977
 20
379.37638560635139
 30
0.0
  9
$LIMMIN
 10
0.0
 20
0.0
  9
$LIMMAX
 10
420.0
 20
297.0
  9
$ORTHOMODE
 70
     0
  9
$REGENMODE
 70
     1
  9
$FILLMODE
 70
     1
  9
$QTEXTMODE
 70
     0
  9
$MIRRTEXT
 70
     1
  9
$DRAGMODE
 70
     2
  9
$LTSCALE
 40
1.0
  9
$OSMODE
 70
    39
  9
$ATTMODE
 70
     1
  9
$TEXTSIZE
 40
2.5
  9
$TRACEWID
 40
1.0
  9
$TEXTSTYLE
  7
STANDARD
  9
$CLAYER
  8
0
  9
$CELTYPE
  6
BYLAYER
  9
$CECOLOR
 62
   256
  9
$DIMSCALE
 40
1.0
  9
$DIMASZ
 40
2.5
  9
$DIMEXO
 40
0.625
  9
$DIMDLI
 40
3.75
  9
$DIMRND
 40
0.0
  9
$DIMDLE
 40
0.0
  9
$DIMEXE
 40
1.25
  9
$DIMTP
 40
0.0
  9
$DIMTM
 40
0.0
  9
$DIMTXT
 40
2.5
  9
$DIMCEN
 40
2.5
  9
$DIMTSZ
 40
0.0
  9
$DIMTOL
 70
     0
  9
$DIMLIM
 70
     0
  9
$DIMTIH
 70
     0
  9
$DIMTOH
 70
     0
  9
$DIMSE1
 70
     0
  9
$DIMSE2
 70
     0
  9
$DIMTAD
 70
     1
  9
$DIMZIN
 70
     8
  9
$DIMBLK
  1

  9
$DIMASO
 70
     1
  9
$DIMSHO
 70
     1
  9
$DIMPOST
  1

  9
$DIMAPOST
  1

  9
$DIMALT
 70
     0
  9
$DIMALTD
 70
     3
  9
$DIMALTF
 40
0.03937007874016
  9
$DIMLFAC
 40
1.0
  9
$DIMTOFL
 70
     1
  9
$DIMTVP
 40
0.0
  9
$DIMTIX
 70
     0
  9
$DIMSOXD
 70
     0
  9
$DIMSAH
 70
     0
  9
$DIMBLK1
  1

  9
$DIMBLK2
  1

  9
$DIMSTYLE
  2
ISO-25
  9
$DIMCLRD
 70
     0
  9
$DIMCLRE
 70
     0
  9
$DIMCLRT
 70
     0
  9
$DIMTFAC
 40
1.0
  9
$DIMGAP
 40
0.625
  9
$LUNITS
 70
     2
  9
$LUPREC
 70
     4
  9
$SKETCHINC
 40
1.0
  9
$FILLETRAD
 40
10.0
  9
$AUNITS
 70
     0
  9
$AUPREC
 70
     0
  9
$MENU
  1
.
  9
$ELEVATION
 40
0.0
  9
$PELEVATION
 40
0.0
  9
$THICKNESS
 40
0.0
  9
$LIMCHECK
 70
     0
  9
$BLIPMODE
 70
     0
  9
$CHAMFERA
 40
10.0
  9
$CHAMFERB
 40
10.0
  9
$SKPOLY
 70
     0
  9
$TDCREATE
 40
2454873.669344224
  9
$TDUPDATE
 40
2455105.7331776158
  9
$TDINDWG
 40
0.1792554861
  9
$TDUSRTIMER
 40
0.1792554861
  9
$USRTIMER
 70
     1
  9
$ANGBASE
 50
0.0
  9
$ANGDIR
 70
     0
  9
$PDMODE
 70
     0
  9
$PDSIZE
 40
0.0
  9
$PLINEWID
 40
0.0
  9
$COORDS
 70
     2
  9
$SPLFRAME
 70
     0
  9
$SPLINETYPE
 70
     6
  9
$SPLINESEGS
 70
     8
  9
$ATTDIA
 70
     0
  9
$ATTREQ
 70
     1
  9
$HANDLING
 70
 22529
  9
$HANDSEED
  5
19C
  9
$SURFTAB1
 70
     6
  9
$SURFTAB2
 70
     6
  9
$SURFTYPE
 70
     6
  9
$SURFU
 70
     6
  9
$SURFV
 70
     6
  9
$UCSNAME
  2

  9
$UCSORG
 10
0.0
 20
0.0
 30
0.0
  9
$UCSXDIR
 10
1.0
 20
0.0
 30
0.0
  9
$UCSYDIR
 10
0.0
 20
1.0
 30
0.0
  9
$PUCSNAME
  2

  9
$PUCSORG
 10
0.0
 20
0.0
 30
0.0
  9
$PUCSXDIR
 10
1.0
 20
0.0
 30
0.0
  9
$PUCSYDIR
 10
0.0
 20
1.0
 30
0.0
  9
$USERI1
 70
     0
  9
$USERI2
 70
     0
  9
$USERI3
 70
     0
  9
$USERI4
 70
     0
  9
$USERI5
 70
     0
  9
$USERR1
 40
0.0
  9
$USERR2
 40
0.0
  9
$USERR3
 40
0.0
  9
$USERR4
 40
0.0
  9
$USERR5
 40
0.0
  9
$WORLDVIEW
 70
     1
  9
$SHADEDGE
 70
     3
  9
$SHADEDIF
 70
    70
  9
$TILEMODE
 70
     1
  9
$MAXACTVP
 70
    64
  9
$PLIMCHECK
 70
     0
  9
$PEXTMIN
 10
1.144338676220513
 20
2.391762241006858
 30
-0.0015258207003583
  9
$PEXTMAX
 10
288.44975390501378
 20
201.0559707003888
 30
0.0000000349246037
  9
$PLIMMIN
 10
-3.17498779296875
 20
-3.1749999523162842
  9
$PLIMMAX
 10
293.85684204101562
 20
206.7348358631134
  9
$UNITMODE
 70
     0
  9
$VISRETAIN
 70
     1
  9
$PLINEGEN
 70
     0
  9
$PSLTSCALE
 70
     1
  0
ENDSEC
  0
SECTION
  2
TABLES
  0
TABLE
  2
VPORT
 70
     1
  0
VPORT
  2
*ACTIVE
 70
     0
 10
0.0
 20
0.0
 11
1.0
 21
1.0
 12
289.74035085990988
 22
215.533359664122
 13
0.0
 23
0.0
 14
10.0
 24
10.0
 15
10.0
 25
10.0
 16
0.0
 26
0.0
 36
1.0
 17
0.0
 27
0.0
 37
0.0
 40
394.1366183049509
 41
1.7106518282988861
 42
50.0
 43
0.0
 44
0.0
 50
0.0
 51
0.0
 71
     0
 72
   100
 73
     1
 74
     3
 75
     0
 76
     0
 77
     0
 78
     0
  0
ENDTAB
  0
TABLE
  2
LTYPE
 70
     2
  0
LTYPE
  2
CONTINUOUS
 70
     0
  3
Solid line
 72
    65
 73
     0
 40
0.0
  0
LTYPE
  2
CENTER
 70
     0
  3
Center ____ _ ____ _ ____ _ ____ _ ____ _ ____
 72
    65
 73
     4
 40
50.799999999999997
 49
31.75
 49
-6.3499999999999988
 49
6.3499999999999988
 49
-6.3499999999999988
  0
ENDTAB
  0
TABLE
  2
LAYER
 70
     5
  0
LAYER
  2
0
 70
     0
 62
     7
  6
CONTINUOUS
  0
LAYER
  2
基準線
 70
     0
 62
     1
  6
CENTER
  0
LAYER
  2
図形
 70
     0
 62
     7
  6
CONTINUOUS
  0
LAYER
  2
寸法
 70
     0
 62
     5
  6
CONTINUOUS
  0
LAYER
  2
DEFPOINTS
 70
     0
 62
     7
  6
CONTINUOUS
  0
ENDTAB
  0
TABLE
  2
STYLE
 70
     5
  0
STYLE
  2
STANDARD
 70
     0
 40
0.0
 41
1.0
 50
0.0
 71
     0
 42
2.5
  3
txt
  4

  0
STYLE
  2
NISSIN5
 70
     0
 40
5.0
 41
1.0
 50
0.0
 71
     0
 42
3.5
  3
txt
  4

  0
STYLE
  2
NISSIN3_5
 70
     0
 40
3.5
 41
1.0
 50
0.0
 71
     0
 42
3.5
  3
txt
  4

  0
STYLE
  2
NISSIN3
 70
     0
 40
3.0
 41
1.0
 50
0.0
 71
     0
 42
4.0
  3
txt
  4

  0
STYLE
  2
NISSIN2
 70
     0
 40
2.0
 41
1.0
 50
0.0
 71
     0
 42
4.0
  3
txt
  4

  0
ENDTAB
  0
TABLE
  2
VIEW
 70
     0
  0
ENDTAB
  0
TABLE
  2
UCS
 70
     0
  0
ENDTAB
  0
TABLE
  2
APPID
 70
     1
  0
APPID
  2
ACAD
 70
     0
  0
ENDTAB
  0
TABLE
  2
DIMSTYLE
 70
     3
  0
DIMSTYLE
  2
ISO-25
 70
     0
  3

  4

  5

  6

  7

 40
1.0
 41
2.5
 42
0.625
 43
3.75
 44
1.25
 45
0.0
 46
0.0
 47
0.0
 48
0.0
140
2.5
141
2.5
142
0.0
143
0.03937007874016
144
1.0
145
0.0
146
1.0
147
0.625
 71
     0
 72
     0
 73
     0
 74
     0
 75
     0
 76
     0
 77
     1
 78
     8
170
     0
171
     3
172
     1
173
     0
174
     0
175
     0
176
     0
177
     0
178
     0
  0
DIMSTYLE
  2
NISSINSTYLE
 70
     0
  3

  4

  5

  6

  7

 40
1.0
 41
3.0
 42
2.0
 43
3.75
 44
3.0
 45
0.0
 46
0.0
 47
0.0
 48
0.0
140
3.5
141
3.0
142
0.0
143
0.03937007874016
144
1.0
145
0.0
146
1.0
147
0.625
 71
     0
 72
     0
 73
     0
 74
     0
 75
     0
 76
     0
 77
     1
 78
     8
170
     0
171
     3
172
     1
173
     0
174
     0
175
     0
176
     0
177
     0
178
     0
  0
DIMSTYLE
  2
STANDARD
 70
     0
  3

  4

  5

  6

  7

 40
1.0
 41
0.18
 42
0.0625
 43
0.38
 44
0.18
 45
0.0
 46
0.0
 47
0.0
 48
0.0
140
0.18
141
0.09
142
0.0
143
25.399999999999999
144
1.0
145
0.0
146
1.0
147
0.09
 71
     0
 72
     0
 73
     1
 74
     1
 75
     0
 76
     0
 77
     0
 78
     0
170
     0
171
     2
172
     0
173
     0
174
     0
175
     0
176
     0
177
     0
178
     0
  0
ENDTAB
  0
ENDSEC
  0
SECTION
  2
BLOCKS
  0
BLOCK
  8
0
  2
$MODEL_SPACE
 70
     0
 10
0.0
 20
0.0
 30
0.0
  3
$MODEL_SPACE
  1

  0
ENDBLK
  5
9
  8
0
  0
BLOCK
 67
     1
  8
0
  2
$PAPER_SPACE
 70
     0
 10
0.0
 20
0.0
 30
0.0
  3
$PAPER_SPACE
  1

  0
ENDBLK
  5
E
 67
     1
  8
0
  0
BLOCK
  8
0
  2
*D0
 70
     1
 10
0.0
 20
0.0
 30
0.0
  3
*D0
  1

  0
LINE
  5
30
  8
寸法
 62
     0
 10
167.22656960186461
 20
106.37638560635141
 30
0.0
 11
167.22656960186461
 21
137.34537797069481
 31
0.0
  0
LINE
  5
31
  8
寸法
 62
     0
 10
387.22656960186458
 20
106.37638560635131
 30
0.0
 11
387.22656960186458
 21
137.34537797069481
 31
0.0
  0
LINE
  5
32
  8
寸法
 62
     0
 10
170.22656960186461
 20
134.34537797069481
 30
0.0
 11
384.22656960186458
 21
134.34537797069481
 31
0.0
  0
SOLID
  5
33
  8
寸法
 62
     0
 10
170.22656960186461
 20
134.84537797069481
 30
0.0
 11
170.22656960186461
 21
133.84537797069481
 31
0.0
 12
167.22656960186461
 22
134.34537797069481
 32
0.0
 13
167.22656960186461
 23
134.34537797069481
 33
0.0
  0
SOLID
  5
34
  8
寸法
 62
     0
 10
384.22656960186458
 20
134.84537797069481
 30
0.0
 11
384.22656960186458
 21
133.84537797069481
 31
0.0
 12
387.22656960186458
 22
134.34537797069481
 32
0.0
 13
387.22656960186458
 23
134.34537797069481
 33
0.0
  0
INSERT
  5
35
  8
0
  2
*U5
 10
0.0
 20
0.0
 30
0.0
  0
POINT
  5
36
  8
DEFPOINTS
 62
     0
 10
167.22656960186461
 20
104.37638560635141
 30
0.0
  0
POINT
  5
38
  8
DEFPOINTS
 62
     0
 10
387.22656960186458
 20
104.37638560635131
 30
0.0
  0
POINT
  5
39
  8
DEFPOINTS
 62
     0
 10
387.22656960186458
 20
134.34537797069481
 30
0.0
  0
ENDBLK
  5
3B
  8
0
  0
BLOCK
  8
0
  2
*D1
 70
     1
 10
0.0
 20
0.0
 30
0.0
  3
*D1
  1

  0
LINE
  5
3E
  8
寸法
 62
     0
 10
183.22656960186461
 20
106.37638560635141
 30
0.0
 11
183.22656960186461
 21
117.359175456705
 31
0.0
  0
LINE
  5
3F
  8
寸法
 62
     0
 10
371.22656960186458
 20
106.37638560635131
 30
0.0
 11
371.22656960186458
 21
117.359175456705
 31
0.0
  0
LINE
  5
40
  8
寸法
 62
     0
 10
186.22656960186461
 20
114.359175456705
 30
0.0
 11
368.22656960186458
 21
114.359175456705
 31
0.0
  0
SOLID
  5
41
  8
寸法
 62
     0
 10
186.22656960186461
 20
114.859175456705
 30
0.0
 11
186.22656960186461
 21
113.859175456705
 31
0.0
 12
183.22656960186461
 22
114.359175456705
 32
0.0
 13
183.22656960186461
 23
114.359175456705
 33
0.0
  0
SOLID
  5
42
  8
寸法
 62
     0
 10
368.22656960186458
 20
114.859175456705
 30
0.0
 11
368.22656960186458
 21
113.859175456705
 31
0.0
 12
371.22656960186458
 22
114.359175456705
 32
0.0
 13
371.22656960186458
 23
114.359175456705
 33
0.0
  0
INSERT
  5
43
  8
0
  2
*U6
 10
0.0
 20
0.0
 30
0.0
  0
POINT
  5
44
  8
DEFPOINTS
 62
     0
 10
183.22656960186461
 20
104.37638560635141
 30
0.0
  0
POINT
  5
45
  8
DEFPOINTS
 62
     0
 10
371.22656960186458
 20
104.37638560635131
 30
0.0
  0
POINT
  5
46
  8
DEFPOINTS
 62
     0
 10
371.22656960186458
 20
114.359175456705
 30
0.0
  0
ENDBLK
  5
48
  8
0
  0
BLOCK
  8
0
  2
*D2
 70
     1
 10
0.0
 20
0.0
 30
0.0
  3
*D2
  1

  0
LINE
  5
71
  8
寸法
 62
     0
 10
165.22656960186461
 20
104.37638560635141
 30
0.0
 11
154.9253222953175
 21
104.3763856063515
 31
0.0
  0
LINE
  5
72
  8
寸法
 62
     0
 10
165.22656960186461
 20
80.376385606351505
 30
0.0
 11
154.9253222953175
 21
80.376385606351505
 31
0.0
  0
LINE
  5
73
  8
寸法
 62
     0
 10
157.9253222953175
 20
101.3763856063515
 30
0.0
 11
157.9253222953175
 21
83.376385606351519
 31
0.0
  0
SOLID
  5
74
  8
寸法
 62
     0
 10
157.4253222953175
 20
101.3763856063515
 30
0.0
 11
158.4253222953175
 21
101.3763856063515
 31
0.0
 12
157.9253222953175
 22
104.3763856063515
 32
0.0
 13
157.9253222953175
 23
104.3763856063515
 33
0.0
  0
SOLID
  5
75
  8
寸法
 62
     0
 10
157.4253222953175
 20
83.376385606351519
 30
0.0
 11
158.4253222953175
 21
83.376385606351519
 31
0.0
 12
157.9253222953175
 22
80.376385606351505
 32
0.0
 13
157.9253222953175
 23
80.376385606351505
 33
0.0
  0
TEXT
  5
76
  8
0
 62
     0
 10
157.30032229531739
 20
90.075624185031756
 30
0.0
 40
3.5
  1
24
 50
90.0
  7
NISSIN3_5
  0
POINT
  5
77
  8
DEFPOINTS
 62
     0
 10
167.22656960186461
 20
104.37638560635141
 30
0.0
  0
POINT
  5
78
  8
DEFPOINTS
 62
     0
 10
167.22656960186461
 20
80.376385606351505
 30
0.0
  0
POINT
  5
79
  8
DEFPOINTS
 62
     0
 10
157.9253222953175
 20
80.376385606351505
 30
0.0
  0
ENDBLK
  5
7B
  8
0
  0
BLOCK
  8
0
  2
*D3
 70
     1
 10
0.0
 20
0.0
 30
0.0
  3
*D3
  1

  0
LINE
  5
4B
  8
寸法
 62
     0
 10
379.72656960186458
 20
106.37638560635131
 30
0.0
 11
379.72656960186458
 21
127.3763856063515
 31
0.0
  0
LINE
  5
4C
  8
寸法
 62
     0
 10
174.72754521162071
 20
106.37638560635141
 30
0.0
 11
174.72754521162071
 21
127.3763856063515
 31
0.0
  0
LINE
  5
4D
  8
寸法
 62
     0
 10
376.72656960186458
 20
124.3763856063515
 30
0.0
 11
177.72754521162071
 21
124.3763856063515
 31
0.0
  0
SOLID
  5
4E
  8
寸法
 62
     0
 10
376.72656960186458
 20
124.8763856063515
 30
0.0
 11
376.72656960186458
 21
123.8763856063515
 31
0.0
 12
379.72656960186458
 22
124.3763856063515
 32
0.0
 13
379.72656960186458
 23
124.3763856063515
 33
0.0
  0
SOLID
  5
4F
  8
寸法
 62
     0
 10
177.72754521162071
 20
124.8763856063515
 30
0.0
 11
177.72754521162071
 21
123.8763856063515
 31
0.0
 12
174.72754521162071
 22
124.3763856063515
 32
0.0
 13
174.72754521162071
 23
124.3763856063515
 33
0.0
  0
INSERT
  5
50
  8
0
  2
*U7
 10
0.0
 20
0.0
 30
0.0
  0
POINT
  5
51
  8
DEFPOINTS
 62
     0
 10
379.72656960186458
 20
104.37638560635131
 30
0.0
  0
POINT
  5
52
  8
DEFPOINTS
 62
     0
 10
174.72754521162071
 20
104.37638560635141
 30
0.0
  0
POINT
  5
53
  8
DEFPOINTS
 62
     0
 10
174.72754521162071
 20
124.3763856063515
 30
0.0
  0
ENDBLK
  5
55
  8
0
  0
BLOCK
  8
0
  2
*D4
 70
     1
 10
0.0
 20
0.0
 30
0.0
  3
*D4
  1

  0
LINE
  5
5F
  8
寸法
 62
     0
 10
372.101643392737
 20
102.0494182138271
 30
0.0
 11
371.12096815454498
 21
105.709348028484
 31
0.0
  0
ARC
  5
60
  8
寸法
 62
     0
 10
377.90891497744371
 20
80.376385606351391
 30
0.0
 40
23.226612574857651
 50
112.4056018734191
 51
172.59439812658121
  0
SOLID
  5
61
  8
寸法
 62
     0
 10
368.89551183249682
 20
102.3231899659056
 30
0.0
 11
369.21617112761152
 21
101.3759953626395
 31
0.0
 12
371.89742528985261
 22
102.8115705496167
 32
0.0
 13
371.89742528985261
 23
102.8115705496167
 33
0.0
  0
SOLID
  5
62
  8
寸法
 62
     0
 10
355.3750019093186
 20
83.337832447571486
 30
0.0
 11
354.37708944693742
 21
83.402413539418887
 31
0.0
 12
354.682302402586
 22
80.376385606351434
 32
0.0
 13
354.682302402586
 23
80.376385606351434
 33
0.0
  0
TEXT
  5
63
  8
0
 62
     0
 10
356.53875211566037
 20
91.706805303154241
 30
0.0
 40
3.0
  1
75°
 50
52.50000000000022
  7
NISSIN3
  0
POINT
  5
64
  8
DEFPOINTS
 62
     0
 10
362.97913619933553
 20
98.16900310179841
 30
0.0
  0
POINT
  5
65
  8
DEFPOINTS
 62
     0
 10
372.61928148294197
 20
100.11756656124891
 30
0.0
  0
POINT
  5
66
  8
DEFPOINTS
 62
     0
 10
177.22656960186461
 20
80.376385606351505
 30
0.0
  0
POINT
  5
67
  8
DEFPOINTS
 62
     0
 10
377.22656960186458
 20
80.376385606351391
 30
0.0
  0
POINT
  5
68
  8
DEFPOINTS
 62
     0
 10
377.50699118879692
 20
81.876385606351391
 30
0.0
  0
ENDBLK
  5
6A
  8
0
  0
BLOCK
  8
0
  2
*U5
 70
     1
 10
0.0
 20
0.0
 30
0.0
  3
*U5
  1

  0
TEXT
  5
15A
  8
0
 62
     0
 10
272.77606198765142
 20
134.97037797069481
 30
0.0
 40
3.5
  1
\U+2205
  7
NISSIN3_5
  0
TEXT
  5
15B
  8
0
 62
     0
 10
275.05017366277832
 20
134.97037797069481
 30
0.0
 40
3.5
  1
220
  7
NISSIN3_5
  0
ENDBLK
  5
15D
  8
0
  0
BLOCK
  8
0
  2
*U6
 70
     1
 10
0.0
 20
0.0
 30
0.0
  3
*U6
  1

  0
TEXT
  5
15F
  8
0
 62
     0
 10
272.80271173384432
 20
114.984175456705
 30
0.0
 40
3.5
  1
\U+2205
  7
NISSIN3_5
  0
TEXT
  5
160
  8
0
 62
     0
 10
275.07682340897122
 20
114.984175456705
 30
0.0
 40
3.5
  1
188
  7
NISSIN3_5
  0
ENDBLK
  5
162
  8
0
  0
BLOCK
  8
0
  2
*U7
 70
     1
 10
0.0
 20
0.0
 30
0.0
  3
*U7
  1

  0
TEXT
  5
164
  8
0
 62
     0
 10
272.8209660361843
 20
125.0013856063515
 30
0.0
 40
3.5
  1
\U+2205
  7
NISSIN3_5
  0
TEXT
  5
165
  8
0
 62
     0
 10
275.09507771131121
 20
125.0013856063515
 30
0.0
 40
3.5
  1
205
  7
NISSIN3_5
  0
ENDBLK
  5
167
  8
0
  0
BLOCK
  8
0
  2
*D8
 70
     1
 10
0.0
 20
0.0
 30
0.0
  3
*D8
  1

  0
LINE
  5
16C
  8
寸法
 62
     0
 10
372.101643392737
 20
102.0494182138271
 30
0.0
 11
371.12096815454498
 21
105.709348028484
 31
0.0
  0
ARC
  5
16D
  8
寸法
 62
     0
 10
377.90891497744371
 20
80.376385606351391
 30
0.0
 40
23.226612574857661
 50
112.4056018734191
 51
172.59439812658121
  0
SOLID
  5
16E
  8
寸法
 62
     0
 10
368.89551183249682
 20
102.3231899659056
 30
0.0
 11
369.21617112761152
 21
101.3759953626395
 31
0.0
 12
371.89742528985261
 22
102.8115705496167
 32
0.0
 13
371.89742528985261
 23
102.8115705496167
 33
0.0
  0
SOLID
  5
16F
  8
寸法
 62
     0
 10
355.3750019093186
 20
83.337832447571486
 30
0.0
 11
354.37708944693742
 21
83.402413539418887
 31
0.0
 12
354.682302402586
 22
80.376385606351434
 32
0.0
 13
354.682302402586
 23
80.376385606351434
 33
0.0
  0
TEXT
  8
0
  40
3
  5
19B
  62
0
  72
0
  71
0
 10
357.796
 20
91.9095
 30
0.000000
  1
75°
  7
NISSIN3
  0
POINT
  5
171
  8
DEFPOINTS
 62
     0
 10
362.97913619933553
 20
98.16900310179841
 30
0.0
  0
POINT
  5
172
  8
DEFPOINTS
 62
     0
 10
372.61928148294197
 20
100.11756656124891
 30
0.0
  0
POINT
  5
173
  8
DEFPOINTS
 62
     0
 10
177.22656960186461
 20
80.376385606351505
 30
0.0
  0
POINT
  5
174
  8
DEFPOINTS
 62
     0
 10
377.22656960186458
 20
80.376385606351391
 30
0.0
  0
POINT
  5
175
  8
DEFPOINTS
 62
     0
 10
377.50699118879692
 20
81.876385606351391
 30
0.0
  0
ENDBLK
  5
177
  8
0
  0
BLOCK
  8
0
  2
*X9
 70
     1
 10
0.0
 20
0.0
 30
0.0
  3
*X9
  1

  0
LINE
  5
179
  8
0
 62
     0
 10
176.3334882697217
 20
80.376385606351434
 30
0.0
 11
177.22656960186461
 21
81.269466938494361
 31
0.0
  0
LINE
  5
17A
  8
0
 62
     0
 10
171.8433602091871
 20
80.376385606351505
 30
0.0
 11
173.3433602091871
 21
81.876385606351505
 31
0.0
  0
LINE
  5
17B
  8
0
 62
     0
 10
171.02657360186441
 20
84.049727059563281
 30
0.0
 11
171.22656960186461
 21
84.249723059563493
 31
0.0
  0
LINE
  5
17C
  8
0
 62
     0
 10
167.35323214865261
 20
80.376385606351576
 30
0.0
 11
169.4265656018647
 21
82.449719059563563
 31
0.0
  0
LINE
  5
17D
  8
0
 62
     0
 10
182.22656960186461
 20
99.739851120098024
 30
0.0
 11
183.22656960186461
 21
100.739851120098
 31
0.0
  0
LINE
  5
17E
  8
0
 62
     0
 10
167.2265696018647
 20
84.739851120098081
 30
0.0
 11
171.22656960186461
 21
88.739851120098024
 31
0.0
  0
LINE
  5
17F
  8
0
 62
     0
 10
178.37297602758341
 20
100.3763856063515
 30
0.0
 11
182.37297602758349
 21
104.37638560635141
 31
0.0
  0
LINE
  5
180
  8
0
 62
     0
 10
167.2265696018645
 20
89.229979180632597
 30
0.0
 11
171.22656960186441
 21
93.229979180632483
 31
0.0
  0
LINE
  5
181
  8
0
 62
     0
 10
176.22754521162059
 20
102.7210828509232
 30
0.0
 11
177.8828479670488
 21
104.37638560635141
 31
0.0
  0
LINE
  5
182
  8
0
 62
     0
 10
167.22656960186461
 20
93.720107241167284
 30
0.0
 11
173.22754521162071
 21
99.721082850923324
 31
0.0
  0
LINE
  5
183
  8
0
 62
     0
 10
167.22656960186461
 20
98.2102353017018
 30
0.0
 11
173.22754521162079
 21
104.211210911458
 31
0.0
  0
LINE
  5
184
  8
0
 62
     0
 10
167.2265696018647
 20
102.7003633622364
 30
0.0
 11
168.9025918459798
 21
104.3763856063515
 31
0.0
  0
ENDBLK
  5
186
  8
0
  0
BLOCK
  8
0
  2
*U10
 70
     1
 10
0.0
 20
0.0
 30
0.0
  3
*U10
  1

  0
TEXT
  5
188
  8
0
 10
366.07632914546338
 20
48.713863400038377
 30
0.0
 40
5.0
  1
MODEL []DR-LA220
  7
NISSIN2
  0
TEXT
  5
189
  8
0
 10
366.0509484348035
 20
40.380530066705042
 30
0.0
 40
5.0
  1
NISSIN ELECTRONIC CO.,LTD.
  7
NISSIN2
  0
ENDBLK
  5
18B
  8
0
  0
BLOCK
  8
0
  2
*X11
 70
     1
 10
0.0
 20
0.0
 30
0.0
  3
*X11
  1

  0
LINE
  5
18D
  8
0
 62
     0
 10
385.0265736018647
 20
82.523580153903936
 30
0.0
 11
387.22656960186453
 21
84.723576153903764
 31
0.0
  0
LINE
  5
18E
  8
0
 62
     0
 10
382.87937905431221
 20
80.376385606351391
 30
0.0
 11
383.42656560186481
 21
80.923572153904047
 31
0.0
  0
LINE
  5
18F
  8
0
 62
     0
 10
383.22656960186441
 20
85.213704214438167
 30
0.0
 11
383.62657160186473
 21
85.613706214438466
 31
0.0
  0
LINE
  5
190
  8
0
 62
     0
 10
381.22656960186453
 20
83.213704214438295
 30
0.0
 11
381.88925099377758
 21
83.876385606351391
 31
0.0
  0
LINE
  5
191
  8
0
 62
     0
 10
384.23233013746358
 20
86.219464750037332
 30
0.0
 11
387.22656960186453
 21
89.21370421443828
 31
0.0
  0
LINE
  5
192
  8
0
 62
     0
 10
378.38925099377769
 20
80.376385606351391
 30
0.0
 11
379.88925099377758
 21
81.876385606351391
 31
0.0
  0
LINE
  5
193
  8
0
 62
     0
 10
383.22656960186453
 20
89.703832274972967
 30
0.0
 11
387.22656960186458
 21
93.703832274972967
 31
0.0
  0
LINE
  5
194
  8
0
 62
     0
 10
383.22656960186458
 20
94.193960335507484
 30
0.0
 11
387.22656960186458
 21
98.193960335507583
 31
0.0
  0
LINE
  5
195
  8
0
 62
     0
 10
381.2255939921086
 20
96.683112786286074
 30
0.0
 11
387.2265696018647
 21
102.6840883960421
 31
0.0
  0
LINE
  5
196
  8
0
 62
     0
 10
381.22559399210837
 20
101.1732408468206
 30
0.0
 11
384.42873875163929
 21
104.37638560635141
 31
0.0
  0
LINE
  5
197
  8
0
 62
     0
 10
375.93861069110483
 20
100.37638560635141
 30
0.0
 11
378.22559399210837
 21
102.66336890735499
 31
0.0
  0
LINE
  5
198
  8
0
 62
     0
 10
371.22656960186441
 20
100.15447257764571
 30
0.0
 11
375.44848263057008
 21
104.37638560635141
 31
0.0
  0
ENDBLK
  5
19A
  8
0
  0
ENDSEC
  0
SECTION
  2
ENTITIES
  0
LINE
  5
27
  8
基準線
 10
392.22656960186458
 20
264.37638560635139
 30
0.0
 11
162.22656960186461
 21
264.3763856063515
 31
0.0
  0
DIMENSION
  5
2A
  8
寸法
  2
*D0
 10
387.22656960186458
 20
134.34537797069481
 30
0.0
 11
277.22656960186458
 21
136.72037797069481
 31
0.0
  1
%%c<>
 13
167.22656960186461
 23
104.37638560635141
 33
0.0
 14
387.22656960186458
 24
104.37638560635131
 34
0.0
1001
ACAD
1000
DSTYLE
1002
{
1070
   340
1005
2E
1002
}
  0
DIMENSION
  5
3C
  8
寸法
  2
*D1
 10
371.22656960186458
 20
114.359175456705
 30
0.0
 11
277.22656960186458
 21
116.734175456705
 31
0.0
  1
%%c<>
 13
183.22656960186461
 23
104.37638560635141
 33
0.0
 14
371.22656960186458
 24
104.37638560635131
 34
0.0
1001
ACAD
1000
DSTYLE
1002
{
1070
   340
1005
2E
1002
}
  0
DIMENSION
  5
49
  8
寸法
  2
*D3
 10
174.72754521162071
 20
124.3763856063515
 30
0.0
 11
277.22705740674257
 21
126.7513856063515
 31
0.0
  1
%%c<>
 13
379.72656960186458
 23
104.37638560635131
 33
0.0
 14
174.72754521162071
 24
104.37638560635141
 34
0.0
1001
ACAD
1000
DSTYLE
1002
{
1070
   340
1005
2E
1002
}
  0
LINE
  5
56
  8
図形
 10
371.22656960186458
 20
99.376385606351391
 30
0.0
 11
183.22656960186461
 21
99.376385606351505
 31
0.0
  0
POLYLINE
  5
58
  8
図形
 66
     1
 10
0.0
 20
0.0
 30
0.0
  0
VERTEX
  5
168
  8
図形
 10
387.22656960186458
 20
104.37638560635131
 30
0.0
  0
VERTEX
  5
169
  8
図形
 10
167.22656960186461
 20
104.37638560635141
 30
0.0
  0
SEQEND
  5
16A
  8
図形
  0
LINE
  5
59
  8
図形
 10
177.22656960186461
 20
80.376385606351505
 30
0.0
 11
377.22656960186458
 21
80.376385606351391
 31
0.0
  0
DIMENSION
  5
5A
  8
寸法
  2
*D8
 10
377.50699118879692
 20
81.876385606351391
 30
0.0
 11
357.79612845941091
 21
95.809469505097127
 31
0.0
 70
     2
 13
177.22656960186461
 23
80.376385606351505
 33
0.0
 14
377.22656960186458
 24
80.376385606351391
 34
0.0
 15
372.61928148294197
 25
100.11756656124891
 35
0.0
 16
362.97913619933553
 26
98.16900310179841
 36
0.0
1001
ACAD
1000
DSTYLE
1002
{
1070
   271
1070
     0
1070
   340
1005
5D
1002
}
  0
CIRCLE
  5
6B
  8
図形
 10
277.2265696018647
 20
264.37638560635128
 30
0.0
 40
110.0
  0
CIRCLE
  5
6C
  8
図形
 10
277.2265696018647
 20
264.37638560635128
 30
0.0
 40
94.0
  0
DIMENSION
  5
6D
  8
寸法
  2
*D2
 10
157.9253222953175
 20
80.376385606351505
 30
0.0
 11
155.5503222953175
 21
92.376385606351519
 31
0.0
 13
167.22656960186461
 23
104.37638560635141
 33
0.0
 14
167.22656960186461
 24
80.376385606351505
 34
0.0
 50
270.0
1001
ACAD
1000
DSTYLE
1002
{
1070
   340
1005
2E
1002
}
  0
LINE
  5
7C
  8
図形
 10
183.22656960186461
 20
104.37638560635141
 30
0.0
 11
183.22656960186461
 21
99.376385606351505
 31
0.0
  0
LINE
  5
7D
  8
基準線
 10
174.72754521162071
 20
106.37638560635141
 30
0.0
 11
174.72754521162071
 21
94.376385606351505
 31
0.0
  0
LINE
  5
7E
  8
図形
 10
175.9275452116207
 20
104.37638560635141
 30
0.0
 11
175.9275452116207
 21
96.376385606351505
 31
0.0
  0
LINE
  5
7F
  8
図形
 10
176.22754521162071
 20
104.37638560635141
 30
0.0
 11
176.22754521162071
 21
96.376385606351505
 31
0.0
  0
LINE
  5
80
  8
図形
 10
173.5275452116208
 20
104.37638560635141
 30
0.0
 11
173.5275452116208
 21
96.376385606351505
 31
0.0
  0
LINE
  5
81
  8
図形
 10
173.22754521162071
 20
104.37638560635141
 30
0.0
 11
173.22754521162071
 21
96.376385606351505
 31
0.0
  0
INSERT
  5
82
  8
図形
  6
CONTINUOUS
  2
*X9
 10
0.0
 20
0.0
 30
0.0
1001
ACAD
1000
HATCH
1002
{
1070
    19
1000
ANSI31
1040
1.0
1040
0.0
1000
R14_HATCH_DATA
1000
82
1011
1.0
1021
0.0
1031
-0.0
1021
0.0
1031
0.0
1011
0.0
1021
0.0
1031
-0.0
1021
1.0
1031
0.0
1011
0.0
1021
0.0
1031
-0.0
1021
0.0
1031
1.0
1040
0.0
1010
0.0
1020
0.0
1030
1.0
1000
ANSI31
1070
     0
1070
     0
1071
        2
1071
        7
1070
     0
1070
     1
1071
        6
1040
183.2265696018647
1040
104.3763856063515
1040
176.22754521162071
1040
104.37638560635141
1040
176.22754521162071
1040
100.3763856063515
1040
182.22656960186461
1040
100.3763856063515
1040
182.22656960186461
1040
99.376385606351505
1040
183.22656960186461
1040
99.376385606351505
1071
        0
1071
        7
1070
     0
1070
     1
1071
       19
1040
173.22754521162079
1040
104.37638560635141
1040
167.22656960186461
1040
104.37638560635141
1040
167.22656960186461
1040
80.376385606351505
1040
169.42656560186489
1040
80.376385606351505
1040
169.42656560186441
1040
85.376385606351334
1040
169.6265716018647
1040
85.476385606351343
1040
169.6265716018647
1040
85.876380606351404
1040
170.2265696018649
1040
86.222790606351495
1040
170.82656760186481
1040
85.876380606351518
1040
170.82656760186481
1040
85.476385606351485
1040
171.02657360186441
1040
85.376385606351434
1040
171.02657360186441
1040
80.376385606351505
1040
177.22656960186461
1040
80.376385606351505
1040
177.22656960186461
1040
81.876385606351505
1040
173.22656960186461
1040
81.876385606351505
1040
173.22656960186461
1040
83.376385606351505
1040
171.22656960186461
1040
83.376385606351505
1040
171.2265696018645
1040
96.376385606351505
1040
173.22754521162071
1040
96.376385606351505
1071
        0
1070
     0
1070
     1
1040
0.0
1040
1.0
1070
     0
1070
     1
1040
0.7853981633974483
1040
-499.69986610436149
1040
-209.5059555617581
1040
-2.2450640302672871
1040
2.245064030267288
1070
     0
1040
0.1217976310586745
1071
        2
1040
181.3207480556411
1040
102.02526520507131
1040
0.0
1040
168.2798020914162
1040
100.9290863682124
1040
0.0
1002
}
  0
LINE
  5
83
  8
図形
 10
167.22656960186461
 20
80.376385606351505
 30
0.0
 11
167.22656960186461
 21
104.37638560635141
 31
0.0
1001
ACAD
1000
ASC_BOUNDS
1002
{
1070
    19
1002
}
  0
LINE
  5
84
  8
図形
 10
167.22656960186461
 20
104.37638560635141
 30
0.0
 11
167.22656960186461
 21
80.376385606351505
 31
0.0
  0
LINE
  5
85
  8
図形
 10
181.14894693362299
 20
94.163412792878816
 30
0.0
 11
184.04672441249019
 21
93.386955657571335
 31
0.0
  0
LINE
  5
86
  8
図形
 10
182.1842231140331
 20
98.027116098035208
 30
0.0
 11
185.0820005929003
 21
97.250658962727471
 31
0.0
  0
ARC
  5
87
  8
図形
 10
183.63929953397971
 20
91.891432754793655
 30
0.0
 40
1.5499999999999781
 50
255.23925318840531
 51
75.239253188411624
  0
LINE
  5
88
  8
図形
 10
181.38188407421529
 20
95.032746036538924
 30
0.0
 11
184.27966155308249
 21
94.256288901231414
 31
0.0
  0
ARC
  5
89
  8
図形
 10
184.67457571438979
 20
95.755136059949905
 30
0.0
 40
1.5499999999999781
 50
255.23925318840531
 51
75.239253188411624
  0
ARC
  5
8A
  8
図形
 10
182.6040233535696
 20
88.027729449637377
 30
0.0
 40
1.5499999999999781
 50
255.23925318840531
 51
75.239253188411624
  0
LINE
  5
8B
  8
図形
 10
179.07839457280281
 20
86.436006182566302
 30
0.0
 11
181.97617205167001
 21
85.659549047258793
 31
0.0
  0
LINE
  5
8C
  8
図形
 10
179.1689812385886
 20
86.774080221767576
 30
0.0
 11
178.18546886719909
 21
83.103562081868972
 31
0.0
  0
LINE
  5
8D
  8
図形
 10
170.8265676018647
 20
85.876380606351518
 30
0.0
 11
170.22656960186481
 21
86.222790606351495
 31
0.0
  0
LINE
  5
8E
  8
図形
 10
169.6265716018649
 20
85.876380606351518
 30
0.0
 11
170.22656960186481
 21
86.222790606351495
 31
0.0
  0
LINE
  5
8F
  8
基準線
 10
170.22656960186461
 20
87.222790606351495
 30
0.0
 11
170.22656960186461
 21
79.376385606351505
 31
0.0
  0
LINE
  5
90
  8
図形
 10
181.7090814470584
 20
100.11756656124879
 30
0.0
 11
176.82137174120359
 21
81.876385606351505
 31
0.0
  0
LINE
  5
91
  8
図形
 10
180.74315562076939
 20
100.3763856063515
 30
0.0
 11
175.8554459149145
 21
82.13520465145416
 31
0.0
  0
LINE
  5
92
  8
図形
 10
171.22656960186461
 20
96.376385606351505
 30
0.0
 11
171.22656960186461
 21
83.376385606351505
 31
0.0
  0
LINE
  5
93
  8
図形
 10
173.22656960186461
 20
81.876385606351505
 30
0.0
 11
177.22656960186461
 21
81.876385606351505
 31
0.0
  0
LINE
  5
94
  8
図形
 10
177.22656960186461
 20
80.376385606351505
 30
0.0
 11
167.22656960186461
 21
80.376385606351505
 31
0.0
  0
LINE
  5
95
  8
図形
 10
170.8265676018647
 20
85.476385606351528
 30
0.0
 11
171.0265736018643
 21
85.376385606351505
 31
0.0
  0
LINE
  5
96
  8
図形
 10
169.42656560186489
 20
85.376385606351505
 30
0.0
 11
169.62657160186501
 21
85.476385606351528
 31
0.0
  0
LINE
  5
97
  8
図形
 10
169.4265656018645
 20
85.376385606351391
 30
0.0
 11
171.0265736018643
 21
85.376385606351505
 31
0.0
  0
LINE
  5
98
  8
図形
 10
170.8265676018647
 20
85.876380606351518
 30
0.0
 11
169.6265716018649
 21
85.876380606351518
 31
0.0
  0
LINE
  5
99
  8
図形
 10
171.22656960186461
 20
83.376385606351505
 30
0.0
 11
173.22656960186461
 21
83.376385606351505
 31
0.0
  0
LINE
  5
9A
  8
図形
 10
173.22656960186461
 20
83.376385606351505
 30
0.0
 11
173.22656960186461
 21
81.876385606351505
 31
0.0
  0
LINE
  5
9B
  8
図形
 10
171.0265736018643
 20
85.376385606351505
 30
0.0
 11
171.0265736018647
 21
80.376385606351505
 31
0.0
  0
LINE
  5
9C
  8
図形
 10
170.8265676018647
 20
85.876380606351518
 30
0.0
 11
170.8265676018647
 21
80.376385606351505
 31
0.0
  0
LINE
  5
9D
  8
図形
 10
169.6265716018647
 20
85.876380606351518
 30
0.0
 11
169.62657160186501
 21
80.376385606351505
 31
0.0
  0
LINE
  5
9E
  8
図形
 10
169.4265656018645
 20
85.376385606351505
 30
0.0
 11
169.42656560186489
 21
80.376385606351505
 31
0.0
  0
LINE
  5
9F
  8
図形
 10
178.27605553298491
 20
83.441636121070246
 30
0.0
 11
181.17383301185211
 21
82.665178985762623
 31
0.0
  0
LINE
  5
A0
  8
図形
 10
178.18546886719909
 20
83.103562081868972
 30
0.0
 11
177.21954304091
 21
83.362381126971627
 31
0.0
  0
LINE
  5
A1
  8
図形
 10
176.82137174120359
 20
81.876385606351505
 30
0.0
 11
175.8554459149145
 21
82.13520465145416
 31
0.0
  0
LINE
  5
A2
  8
図形
 10
177.22656960186461
 20
81.876385606351505
 30
0.0
 11
177.22656960186461
 21
80.376385606351505
 31
0.0
  0
ARC
  5
A3
  8
図形
 10
181.5687471731502
 20
84.164026144483614
 30
0.0
 40
1.5499999999999781
 50
255.23925318840531
 51
75.239253188411624
  0
LINE
  5
A4
  8
図形
 10
176.22656960186461
 20
96.376385606351505
 30
0.0
 11
171.22656960186461
 21
96.376385606351505
 31
0.0
  0
LINE
  5
A5
  8
図形
 10
181.23953359940879
 20
94.501486832080104
 30
0.0
 11
180.25602122801931
 21
90.830968692181514
 31
0.0
  0
LINE
  5
A6
  8
図形
 10
178.20305541229951
 20
87.032899266870004
 30
0.0
 11
179.1689812385886
 21
86.774080221767576
 31
0.0
  0
LINE
  5
A7
  8
図形
 10
178.25481922131999
 20
87.226084432127763
 30
0.0
 11
179.22074504760911
 21
86.967265387025336
 31
0.0
  0
LINE
  5
A8
  8
図形
 10
180.3466078938051
 20
91.169042731382774
 30
0.0
 11
183.24438537267241
 21
90.392585596075165
 31
0.0
  0
LINE
  5
A9
  8
図形
 10
180.1136707532128
 20
90.29970948772268
 30
0.0
 11
183.01144823208
 21
89.523252352414929
 31
0.0
  0
LINE
  5
AA
  8
図形
 10
180.25602122801931
 20
90.830968692181514
 30
0.0
 11
179.29009540173021
 21
91.089787737284155
 31
0.0
  0
LINE
  5
AB
  8
図形
 10
179.23833159270961
 20
90.896602572026268
 30
0.0
 11
180.20425741899879
 21
90.637783526923727
 31
0.0
  0
LINE
  5
AC
  8
図形
 10
179.31133171339499
 20
87.305339426226396
 30
0.0
 11
182.20910919226219
 21
86.528882290918887
 31
0.0
  0
LINE
  5
AD
  8
図形
 10
180.20425741899879
 20
90.637783526923727
 30
0.0
 11
179.22074504760911
 21
86.967265387025336
 31
0.0
  0
LINE
  5
AE
  8
図形
 10
182.22656960186461
 20
100.3763856063515
 30
0.0
 11
176.22656960186461
 21
100.3763856063515
 31
0.0
  0
LINE
  5
AF
  8
図形
 10
180.74315562076939
 20
100.3763856063515
 30
0.0
 11
181.7090814470584
 21
100.11756656124879
 31
0.0
  0
LINE
  5
B0
  8
図形
 10
183.22656960186461
 20
99.376385606351505
 30
0.0
 11
182.22656960186461
 21
99.376385606351505
 31
0.0
  0
LINE
  5
B1
  8
図形
 10
182.22656960186461
 20
99.376385606351505
 30
0.0
 11
182.22656960186461
 21
100.3763856063515
 31
0.0
  0
LINE
  5
B2
  8
図形
 10
181.30888395352989
 20
98.624009182338909
 30
0.0
 11
182.27480977981901
 21
98.365190137236254
 31
0.0
  0
LINE
  5
B3
  8
図形
 10
181.2912974084293
 20
94.694671997337878
 30
0.0
 11
180.32537158214009
 21
94.953491042440305
 31
0.0
  0
LINE
  5
B4
  8
図形
 10
180.27360777311989
 20
94.760305877182546
 30
0.0
 11
181.23953359940879
 21
94.501486832080104
 31
0.0
  0
LINE
  5
B5
  8
図形
 10
182.27480977981901
 20
98.365190137236254
 30
0.0
 11
181.2912974084293
 21
94.694671997337878
 31
0.0
  0
LINE
  5
B6
  8
基準線
 10
174.7265696018647
 20
266.87638560635139
 30
0.0
 11
174.7265696018647
 21
261.8763856063515
 31
0.0
  0
CIRCLE
  5
B7
  8
図形
 10
174.7265696018647
 20
264.37638560635139
 30
0.0
 40
1.5
  0
CIRCLE
  5
B8
  8
図形
 10
174.7265696018647
 20
264.37638560635139
 30
0.0
 40
1.1999999999999991
  0
LINE
  5
B9
  8
基準線
 10
172.2265696018647
 20
264.3763856063515
 30
0.0
 11
177.2265696018647
 21
264.3763856063515
 31
0.0
  0
ARC
  5
BA
  8
図形
 10
384.78575988723412
 20
181.95850246350531
 30
0.0
 40
10.6
 50
44.999999999999993
 51
135.0
  0
LINE
  5
BB
  8
基準線
 10
277.22656960186458
 20
379.37638560635139
 30
0.0
 11
277.22656960186458
 21
149.3763856063515
 31
0.0
  0
INSERT
  5
BC
  8
0
  2
*U10
 10
0.0
 20
0.0
 30
0.0
  0
ARC
  5
BE
  8
図形
 10
385.06334867718499
 20
182.2466130023594
 30
0.0
 40
7.0
 50
44.999999999999993
 51
135.0
  0
LINE
  5
BF
  8
図形
 10
387.22656960186458
 20
92.776385606351369
 30
0.0
 11
393.97109960186538
 21
92.776385606351369
 31
0.0
  0
LINE
  5
C0
  8
図形
 10
387.22656960186458
 20
95.972275606351445
 30
0.0
 11
393.9785396018649
 21
95.972275606351445
 31
0.0
  0
LINE
  5
C1
  8
基準線
 10
277.22656960186458
 20
107.37638560635141
 30
0.0
 11
277.22656960186458
 21
77.376385606351505
 31
0.0
  0
CIRCLE
  5
C2
  8
図形
 10
277.2265696018647
 20
161.87638560635131
 30
0.0
 40
1.5
  0
CIRCLE
  5
C3
  8
図形
 10
277.2265696018647
 20
161.87638560635131
 30
0.0
 40
1.1999999999999991
  0
LINE
  5
C4
  8
基準線
 10
274.72656960186458
 20
161.8763856063515
 30
0.0
 11
279.72656960186458
 21
161.8763856063515
 31
0.0
  0
LINE
  5
C5
  8
基準線
 10
277.22656960186458
 20
164.3763856063515
 30
0.0
 11
277.22656960186458
 21
159.3763856063515
 31
0.0
  0
LINE
  5
C6
  8
基準線
 10
379.72656960186458
 20
106.37638560635131
 30
0.0
 11
379.72656960186458
 21
94.376385606351391
 31
0.0
  0
LINE
  5
C7
  8
図形
 10
380.92559399210859
 20
104.37638560635131
 30
0.0
 11
380.92559399210859
 21
96.376385606351391
 31
0.0
  0
LINE
  5
C8
  8
図形
 10
378.5255939921085
 20
104.37638560635131
 30
0.0
 11
378.52559399210861
 21
96.376385606351391
 31
0.0
  0
LINE
  5
C9
  8
図形
 10
378.22559399210849
 20
96.376385606351391
 30
0.0
 11
378.22559399210849
 21
104.37638560635131
 31
0.0
1001
ACAD
1000
ASC_BOUNDS
1002
{
1070
    19
1002
}
  0
LINE
  5
CA
  8
図形
 10
381.22559399210849
 20
104.37638560635131
 30
0.0
 11
381.22559399210849
 21
96.376385606351391
 31
0.0
  0
LINE
  5
CB
  8
図形
 10
371.22656960186458
 20
99.376385606351391
 30
0.0
 11
371.22656960186458
 21
104.37638560635131
 31
0.0
  0
INSERT
  5
CC
  8
図形
  6
CONTINUOUS
  2
*X11
 10
0.0
 20
0.0
 30
0.0
1001
ACAD
1000
HATCH
1002
{
1070
    19
1000
ANSI31
1040
1.0
1040
0.0
1000
R14_HATCH_DATA
1000
CC
1011
1.0
1021
0.0
1031
-0.0
1021
0.0
1031
0.0
1011
0.0
1021
0.0
1031
-0.0
1021
1.0
1031
0.0
1011
0.0
1021
0.0
1031
-0.0
1021
0.0
1031
1.0
1040
0.0
1010
0.0
1020
0.0
1030
1.0
1000
ANSI31
1070
     0
1070
     0
1071
        2
1071
        7
1070
     0
1070
     1
1071
       19
1040
387.2265696018647
1040
104.37638560635131
1040
381.22559399210849
1040
104.37638560635131
1040
381.2255939921086
1040
96.376385606351391
1040
383.2265696018647
1040
96.376385606351391
1040
383.22656960186453
1040
83.876385606351391
1040
381.22656960186458
1040
83.876385606351391
1040
381.22656960186458
1040
81.876385606351391
1040
377.22656960186458
1040
81.876385606351391
1040
377.22656960186458
1040
80.376385606351391
1040
383.42656560186498
1040
80.376385606351434
1040
383.42656560186441
1040
85.376385606351278
1040
383.62657160186473
1040
85.476385606351343
1040
383.62657160186473
1040
85.876380606351347
1040
384.2265696018647
1040
86.222790606351495
1040
384.82656760186461
1040
85.876380606351518
1040
384.82656760186461
1040
85.476385606351528
1040
385.02657360186453
1040
85.376385606351505
1040
385.02657360186492
1040
80.376385606351434
1040
387.22656960186458
1040
80.376385606351391
1071
        0
1071
        7
1070
     0
1070
     1
1071
        6
1040
378.22559399210849
1040
104.37638560635131
1040
371.22656960186458
1040
104.37638560635131
1040
371.22656960186453
1040
99.376385606351391
1040
372.22656960186458
1040
99.376385606351391
1040
372.22656960186458
1040
100.37638560635141
1040
378.22559399210849
1040
100.37638560635141
1071
        0
1070
     0
1070
     1
1040
0.0
1040
1.0
1070
     0
1070
     1
1040
0.7853981633974483
1040
-499.69986610436149
1040
-209.5059555617581
1040
-2.2450640302672871
1040
2.245064030267288
1070
     0
1040
0.0580333526654996
1071
        2
1040
385.43824676917279
1040
96.456369867173422
1040
0.0
1040
376.55328495646057
1040
101.8534719272828
1040
0.0
1002
}
  0
LINE
  5
CD
  8
図形
 10
387.22656960186458
 20
80.376385606351391
 30
0.0
 11
387.22656960186458
 21
104.37638560635131
 31
0.0
  0
LINE
  5
CE
  8
図形
 10
372.14545629216758
 20
98.022202941968658
 30
0.0
 11
369.2476788133003
 21
97.245745806661134
 31
0.0
  0
ARC
  5
CF
  8
図形
 10
371.71939566434469
 20
88.021152817891405
 30
0.0
 40
1.55
 50
105.0001924811158
 51
285.00019248111579
  0
ARC
  5
D0
  8
図形
 10
370.68411944744429
 20
91.884856113270004
 30
0.0
 40
1.55
 50
105.0001924811158
 51
285.00019248111579
  0
LINE
  5
D1
  8
図形
 10
372.9477953319855
 20
95.027832880472587
 30
0.0
 11
370.05001785311828
 21
94.251375745164864
 31
0.0
  0
ARC
  5
D2
  8
図形
 10
369.64884330352442
 20
95.748559428203805
 30
0.0
 40
1.55
 50
105.0001924811158
 51
285.00019248111579
  0
LINE
  5
D3
  8
図形
 10
384.82656760186472
 20
85.876380606351518
 30
0.0
 11
384.22656960186481
 21
86.222790606351495
 31
0.0
  0
LINE
  5
D4
  8
図形
 10
383.6265716018649
 20
85.876380606351518
 30
0.0
 11
384.22656960186481
 21
86.222790606351495
 31
0.0
  0
LINE
  5
D5
  8
基準線
 10
384.22656960186458
 20
87.222790606351495
 30
0.0
 11
384.22656960186458
 21
79.376385606351505
 31
0.0
  0
LINE
  5
D6
  8
図形
 10
375.160698167612
 20
86.769167065701026
 30
0.0
 11
376.14421053900168
 21
83.098648925802635
 31
0.0
  0
LINE
  5
D7
  8
図形
 10
372.61928148294197
 20
100.11756656124891
 30
0.0
 11
377.50699118879692
 21
81.876385606351391
 31
0.0
  0
LINE
  5
D8
  8
図形
 10
378.47291701508601
 20
82.135204651453819
 30
0.0
 11
373.58520730923112
 21
100.37638560635141
 31
0.0
  0
LINE
  5
D9
  8
図形
 10
383.22656960186458
 20
83.876385606351391
 30
0.0
 11
383.22656960186458
 21
96.376385606351391
 31
0.0
  0
LINE
  5
DA
  8
図形
 10
375.25128483339779
 20
86.43109302649998
 30
0.0
 11
372.35350735453068
 21
85.654635891192228
 31
0.0
  0
LINE
  5
DB
  8
図形
 10
377.22656960186458
 20
81.876385606351391
 30
0.0
 11
381.22656960186458
 21
81.876385606351391
 31
0.0
  0
LINE
  5
DC
  8
図形
 10
387.22656960186458
 20
80.376385606351391
 30
0.0
 11
377.22656960186458
 21
80.376385606351391
 31
0.0
  0
LINE
  5
DD
  8
図形
 10
376.05362387321571
 20
83.436722965003696
 30
0.0
 11
373.1558463943486
 21
82.660265829696186
 31
0.0
  0
ARC
  5
DE
  8
図形
 10
372.75467184475468
 20
84.157449512735127
 30
0.0
 40
1.55
 50
105.0001924811158
 51
285.00019248111579
  0
LINE
  5
DF
  8
図形
 10
376.14421053900168
 20
83.098648925802635
 30
0.0
 11
377.11013636529083
 21
83.357467970905077
 31
0.0
  0
LINE
  5
E0
  8
図形
 10
377.22656960186458
 20
80.376385606351391
 30
0.0
 11
377.22656960186458
 21
81.876385606351391
 31
0.0
  0
LINE
  5
E1
  8
図形
 10
377.50699118879692
 20
81.876385606351391
 30
0.0
 11
378.47291701508601
 21
82.135204651453819
 31
0.0
  0
LINE
  5
E2
  8
図形
 10
384.82656760186472
 20
85.876380606351518
 30
0.0
 11
383.6265716018649
 21
85.876380606351518
 31
0.0
  0
LINE
  5
E3
  8
図形
 10
383.42656560186452
 20
85.376385606351391
 30
0.0
 11
385.0265736018643
 21
85.376385606351505
 31
0.0
  0
LINE
  5
E4
  8
図形
 10
383.42656560186492
 20
85.376385606351505
 30
0.0
 11
383.62657160186501
 21
85.476385606351528
 31
0.0
  0
LINE
  5
E5
  8
図形
 10
383.62657160186473
 20
85.876380606351518
 30
0.0
 11
383.62657160186501
 21
80.376385606351505
 31
0.0
  0
LINE
  5
E6
  8
図形
 10
383.42656560186452
 20
85.376385606351505
 30
0.0
 11
383.42656560186492
 21
80.376385606351505
 31
0.0
  0
LINE
  5
E7
  8
図形
 10
381.22656960186458
 20
81.876385606351391
 30
0.0
 11
381.22656960186458
 21
83.876385606351391
 31
0.0
  0
LINE
  5
E8
  8
図形
 10
381.22656960186458
 20
83.876385606351391
 30
0.0
 11
383.22656960186458
 21
83.876385606351391
 31
0.0
  0
LINE
  5
E9
  8
図形
 10
384.82656760186472
 20
85.476385606351528
 30
0.0
 11
385.0265736018643
 21
85.376385606351505
 31
0.0
  0
LINE
  5
EA
  8
図形
 10
385.0265736018643
 20
85.376385606351505
 30
0.0
 11
385.0265736018647
 21
80.376385606351505
 31
0.0
  0
LINE
  5
EB
  8
図形
 10
384.82656760186472
 20
85.876380606351518
 30
0.0
 11
384.82656760186472
 21
80.376385606351505
 31
0.0
  0
LINE
  5
EC
  8
図形
 10
383.22656960186458
 20
96.376385606351391
 30
0.0
 11
378.22656960186458
 21
96.376385606351391
 31
0.0
  0
LINE
  5
ED
  8
図形
 10
373.09014580679178
 20
94.496573676013554
 30
0.0
 11
374.07365817818129
 21
90.826055536115177
 31
0.0
  0
LINE
  5
EE
  8
図形
 10
375.09134781349098
 20
90.891689415959846
 30
0.0
 11
374.12542198720178
 21
90.632870370857404
 31
0.0
  0
LINE
  5
EF
  8
図形
 10
375.03958400447061
 20
91.084874581217605
 30
0.0
 11
374.07365817818129
 21
90.826055536115177
 31
0.0
  0
LINE
  5
F0
  8
図形
 10
374.12542198720178
 20
90.632870370857404
 30
0.0
 11
375.10893435859151
 21
86.962352230958814
 31
0.0
  0
LINE
  5
F1
  8
図形
 10
375.01834769280572
 20
87.300426270160074
 30
0.0
 11
372.12057021393838
 21
86.523969134852464
 31
0.0
  0
LINE
  5
F2
  8
図形
 10
373.9830715123955
 20
91.164129575316224
 30
0.0
 11
371.08529403352833
 21
90.387672440008714
 31
0.0
  0
LINE
  5
F3
  8
図形
 10
374.2160086529878
 20
90.294796331656116
 30
0.0
 11
371.31823117412063
 21
89.518339196348634
 31
0.0
  0
LINE
  5
F4
  8
図形
 10
375.10893435859151
 20
86.962352230958814
 30
0.0
 11
376.07486018488061
 21
87.221171276061455
 31
0.0
  0
LINE
  5
F5
  8
図形
 10
376.12662399390109
 20
87.027986110803681
 30
0.0
 11
375.160698167612
 21
86.769167065701026
 31
0.0
  0
LINE
  5
F6
  8
図形
 10
378.22656960186458
 20
100.37638560635141
 30
0.0
 11
372.22656960186458
 21
100.37638560635141
 31
0.0
  0
LINE
  5
F7
  8
図形
 10
373.58520730923112
 20
100.37638560635141
 30
0.0
 11
372.61928148294197
 21
100.11756656124891
 31
0.0
  0
LINE
  5
F8
  8
図形
 10
373.0383819977713
 20
94.689758841271313
 30
0.0
 11
374.00430782406039
 21
94.948577886373982
 31
0.0
  0
LINE
  5
F9
  8
図形
 10
374.05607163308088
 20
94.755392721116209
 30
0.0
 11
373.09014580679178
 21
94.496573676013554
 31
0.0
  0
LINE
  5
FA
  8
図形
 10
372.22656960186458
 20
100.37638560635141
 30
0.0
 11
372.22656960186458
 21
99.376385606351391
 31
0.0
  0
LINE
  5
FB
  8
図形
 10
372.22656960186458
 20
99.376385606351391
 30
0.0
 11
371.22656960186458
 21
99.376385606351391
 31
0.0
  0
LINE
  5
FC
  8
図形
 10
373.02079545267082
 20
98.619096026272345
 30
0.0
 11
372.05486962638179
 21
98.360276981169932
 31
0.0
  0
LINE
  5
FD
  8
図形
 10
373.1807324725778
 20
94.158499636812508
 30
0.0
 11
370.28295499371052
 21
93.38204250150477
 31
0.0
  0
LINE
  5
FE
  8
図形
 10
372.05486962638179
 20
98.360276981169932
 30
0.0
 11
373.0383819977713
 21
94.689758841271313
 31
0.0
  0
LINE
  5
FF
  8
図形
 10
378.22656960186458
 20
96.376385606351391
 30
0.0
 11
378.22656960186458
 21
100.37638560635141
 31
0.0
  0
ARC
  5
100
  8
図形
 10
365.8482416814943
 20
187.911142955532
 30
0.0
 40
6.9999999999999973
 50
225.0
 51
315.0
  0
ARC
  5
101
  8
図形
 10
366.12872972838778
 20
188.20215275132901
 30
0.0
 40
10.6
 50
225.0
 51
315.0
  0
LINE
  5
102
  8
図形
 10
356.13920443218962
 20
187.72068526822511
 30
0.0
 11
360.89849421318848
 21
182.9613954872263
 31
0.0
  0
LINE
  5
103
  8
図形
 10
353.87451940840441
 20
185.4656993101577
 30
0.0
 11
358.6333978478105
 21
180.70682087075161
 31
0.0
  0
LINE
  5
104
  8
図形
 10
380.11360120887912
 20
187.1963604706653
 30
0.0
 11
373.62406160896518
 21
180.7068208707515
 31
0.0
  0
LINE
  5
105
  8
図形
 10
377.2904280066565
 20
189.45383434408259
 30
0.0
 11
370.7979891498
 21
182.96139548722621
 31
0.0
  0
LINE
  5
106
  8
図形
 10
422.78774960186468
 20
123.6492806063514
 30
0.0
 11
432.9877196018648
 21
123.6492806063513
 31
0.0
  0
LINE
  5
107
  8
図形
 10
422.78774960186468
 20
118.6492806063514
 30
0.0
 11
432.9877196018648
 21
118.6492806063514
 31
0.0
  0
ARC
  5
108
  8
図形
 10
393.9785396018649
 20
102.9722756063514
 30
0.0
 40
6.9999999999999973
 50
270.0
 51
0.0
  0
ARC
  5
109
  8
図形
 10
393.97109960186538
 20
103.37638560635131
 30
0.0
 40
10.6
 50
270.0
 51
0.0
  0
ARC
  5
10A
  8
図形
 10
411.5710996018654
 20
112.5539805221067
 30
0.0
 40
7.0
 50
90.0
 51
180.0
  0
ARC
  5
10B
  8
図形
 10
411.57853960186469
 20
112.1539706905959
 30
0.0
 40
10.6
 50
90.0
 51
180.0
  0
LINE
  5
10C
  8
図形
 10
404.57109960186528
 20
112.5539805221067
 30
0.0
 11
404.57109960186528
 21
103.37638560635131
 31
0.0
  0
LINE
  5
10D
  8
図形
 10
400.97853960186478
 20
112.1539706905959
 30
0.0
 11
400.97853960186478
 21
102.9722756063514
 31
0.0
  0
TEXT
  5
10E
  8
0
 10
408.191954602485
 20
110.5941521715332
 30
0.0
 40
5.0
  1
L=500
  7
NISSIN5
  0
LINE
  5
10F
  8
図形
 10
414.87072118962573
 20
119.5539805221069
 30
0.0
 11
422.78774960186468
 21
119.5492656063513
 31
0.0
  0
LINE
  5
110
  8
図形
 10
414.86743246702599
 20
122.7503496819422
 30
0.0
 11
422.78774960186468
 21
122.7492956063515
 31
0.0
  0
LINE
  5
111
  8
図形
 10
412.57063801410379
 20
122.75397069059601
 30
0.0
 11
411.57853960186469
 21
122.75397069059601
 31
0.0
  0
LINE
  5
112
  8
図形
 10
412.57070118962582
 20
119.5539805221068
 30
0.0
 11
411.5710996018654
 21
119.5539805221068
 31
0.0
  0
ARC
  5
113
  8
図形
 10
413.46506960186468
 20
121.95397560635131
 30
0.0
 40
1.200000000000039
 50
138.1900000000021
 51
221.8099900000004
  0
ARC
  5
114
  8
図形
 10
415.7649971539272
 20
120.3540109180348
 30
0.0
 40
1.1999075525789289
 50
138.18831386179249
 51
221.81621077947889
  0
ARC
  5
115
  8
図形
 10
413.97628960186478
 20
120.3539756063514
 30
0.0
 40
1.199999999999978
 50
318.1900000000021
 51
41.809997000001331
  0
ARC
  5
116
  8
図形
 10
415.76508960186487
 20
121.95397560635131
 30
0.0
 40
1.2000000000002089
 50
138.1900000000069
 51
221.80998999999801
  0
ARC
  5
117
  8
図形
 10
411.6762696018647
 20
120.3539756063514
 30
0.0
 40
1.199999999999978
 50
318.1900000000021
 51
41.809997000001331
  0
ARC
  5
118
  8
図形
 10
411.6762696018647
 20
121.95397560635131
 30
0.0
 40
1.199999999999978
 50
318.1900000000021
 51
41.809997000001331
  0
LINE
  5
119
  8
図形
 10
422.78774960186468
 20
123.6492806063514
 30
0.0
 11
422.78774960186468
 21
118.6492806063514
 31
0.0
  0
LINE
  5
11A
  8
図形
 10
432.9877196018648
 20
124.6492806063514
 30
0.0
 11
440.9877196018648
 21
124.6492806063513
 31
0.0
  0
LINE
  5
11B
  8
図形
 10
437.4877196018648
 20
125.6492806063514
 30
0.0
 11
427.4877196018648
 21
125.6492806063514
 31
0.0
  0
LINE
  5
11C
  8
図形
 10
437.4877196018648
 20
126.6492806063514
 30
0.0
 11
427.4877196018648
 21
126.6492806063514
 31
0.0
  0
LINE
  5
11D
  8
図形
 10
432.9877196018648
 20
117.6492806063514
 30
0.0
 11
440.98771960186468
 21
117.6492806063514
 31
0.0
  0
LINE
  5
11E
  8
図形
 10
432.9877196018648
 20
124.6492806063514
 30
0.0
 11
432.9877196018648
 21
117.6492806063514
 31
0.0
  0
LINE
  5
11F
  8
図形
 10
427.4877196018648
 20
126.6492806063514
 30
0.0
 11
427.4877196018648
 21
125.6492806063514
 31
0.0
  0
LINE
  5
120
  8
図形
 10
432.4877196018648
 20
125.6492806063514
 30
0.0
 11
432.4877196018648
 21
123.6492806063513
 31
0.0
  0
LINE
  5
121
  8
図形
 10
431.4877196018648
 20
125.6492806063514
 30
0.0
 11
431.4877196018648
 21
123.6492806063513
 31
0.0
  0
LINE
  5
122
  8
図形
 10
437.9877196018648
 20
123.1492806063513
 30
0.0
 11
437.9877196018648
 21
119.1492806063513
 31
0.0
  0
LINE
  5
123
  8
図形
 10
437.98771960186468
 20
119.1492806063513
 30
0.0
 11
440.9877196018648
 21
119.1492806063513
 31
0.0
  0
LINE
  5
124
  8
図形
 10
440.9877196018648
 20
119.1492806063513
 30
0.0
 11
440.98771960186468
 21
117.6492806063514
 31
0.0
  0
LINE
  5
125
  8
図形
 10
437.9877196018648
 20
123.1492806063513
 30
0.0
 11
440.9877196018648
 21
123.1492806063513
 31
0.0
  0
LINE
  5
126
  8
図形
 10
437.4877196018648
 20
125.6492806063514
 30
0.0
 11
437.4877196018648
 21
126.6492806063514
 31
0.0
  0
LINE
  5
127
  8
図形
 10
440.9877196018648
 20
124.6492806063513
 30
0.0
 11
440.9877196018648
 21
123.1492806063513
 31
0.0
  0
ARC
  5
128
  8
図形
 10
407.63880399290838
 20
176.0621829074604
 30
0.0
 40
1.0
 50
44.999999999999993
 51
135.0
  0
LINE
  5
129
  8
図形
 10
409.76013140753588
 20
172.5266702147309
 30
0.0
 11
406.93171135385768
 21
169.69825016105261
 31
0.0
  0
LINE
  5
12A
  8
図形
  6
CONTINUOUS
 10
402.68908480887387
 20
171.11246372342561
 30
0.0
 11
407.63883227717969
 21
166.1627162551199
 31
0.0
  0
LINE
  5
12B
  8
図形
 10
409.19444598258673
 20
171.9609847897818
 30
0.0
 11
402.830513236179
 21
178.32491753618939
 31
0.0
  0
LINE
  5
12C
  8
図形
 10
408.62876055763741
 20
171.3952993648324
 30
0.0
 11
402.26482781122979
 21
177.75923211124021
 31
0.0
  0
LINE
  5
12D
  8
図形
 10
408.06308220375598
 20
170.829621010951
 30
0.0
 11
401.69914945734831
 21
177.19355375735881
 31
0.0
  0
LINE
  5
12E
  8
図形
 10
409.05303876848501
 20
167.5769227464252
 30
0.0
 11
399.86063647092442
 21
176.7693250439859
 31
0.0
  0
LINE
  5
12F
  8
図形
 10
411.88145882216349
 20
170.40534280010351
 30
0.0
 11
402.68905652460251
 21
179.5977450976643
 31
0.0
  0
LINE
  5
130
  8
図形
 10
407.49739677880689
 20
170.26393558600191
 30
0.0
 11
401.1334640323991
 21
176.62786833240949
 31
0.0
  0
LINE
  5
131
  8
図形
 10
402.86586857523838
 20
172.703432767892
 30
0.0
 11
395.6533864782034
 21
179.91591486492709
 31
0.0
  0
LINE
  5
132
  8
図形
 10
402.86586857523838
 20
172.703432767892
 30
0.0
 11
403.39619866112821
 21
173.233762853782
 31
0.0
  0
ARC
  5
133
  8
図形
 10
403.39619866112832
 20
171.8195775756802
 30
0.0
 40
1.0
 50
135.0
 51
225.0
  0
LINE
  5
134
  8
図形
 10
402.68910602207728
 20
172.52667021473101
 30
0.0
 11
402.86586857523838
 21
172.703432767892
 31
0.0
  0
LINE
  5
135
  8
図形
 10
394.61548100264213
 20
187.13234968886869
 30
0.0
 11
398.72932218956828
 21
182.99185057629199
 31
0.0
  0
LINE
  5
136
  8
図形
 10
395.6533864782034
 20
179.91591486492709
 30
0.0
 11
399.5424667036616
 21
183.80499509038529
 31
0.0
  0
LINE
  5
137
  8
図形
 10
392.34696224044279
 20
184.8753001986604
 30
0.0
 11
396.47353842049807
 21
180.7360668072219
 31
0.0
  0
ARC
  5
138
  8
図形
 10
392.2795042535177
 20
186.061316260609
 30
0.0
 40
1.1999999999999891
 50
273.18999999999772
 51
356.80999700000029
  0
ARC
  5
139
  8
図形
 10
394.67574771360262
 20
185.92781450032101
 30
0.0
 40
1.200000000000021
 50
93.189999999997752
 51
176.80999000000881
  0
LINE
  5
13A
  8
図形
 10
392.9826112827102
 20
188.75231482918409
 30
0.0
 11
392.2810917678114
 21
189.45383434408279
 31
0.0
  0
ARC
  5
13B
  8
図形
 10
390.65314451465321
 20
187.68767599947381
 30
0.0
 40
1.1999999999999891
 50
273.18999999999772
 51
356.80999700000029
  0
LINE
  5
13C
  8
図形
 10
390.71992120668091
 20
186.48953540947511
 30
0.0
 11
390.01309614549081
 21
187.19636047066541
 31
0.0
  0
ARC
  5
13D
  8
図形
 10
393.0493879747379
 20
187.55417423918561
 30
0.0
 40
1.200000000000031
 50
93.189999999997752
 51
176.8099900000023
  0
ARC
  5
13E
  8
図形
 10
391.78451536455151
 20
188.81904684937211
 30
0.0
 40
1.1999999999999811
 50
273.18999999999772
 51
356.80999700000029
  0
ARC
  5
13F
  8
図形
 10
393.54437686370431
 20
184.7964436504227
 30
0.0
 40
1.199999999999978
 50
93.190000000001007
 51
176.80999000000881
  0
LINE
  5
140
  8
図形
 10
399.5424667036616
 20
183.80499509038529
 30
0.0
 11
406.75494880069658
 21
176.5925129933502
 31
0.0
  0
LINE
  5
141
  8
図形
 10
400.56777860744978
 20
176.06218290746031
 30
0.0
 11
403.39619866112838
 21
178.89060296113871
 31
0.0
  0
LINE
  5
142
  8
図形
 10
399.86063647092442
 20
176.7693250439859
 30
0.0
 11
402.68905652460251
 21
179.5977450976643
 31
0.0
  0
LINE
  5
143
  8
図形
 10
406.93171135385768
 20
176.7692755465113
 30
0.0
 11
406.75494880069658
 21
176.5925129933502
 31
0.0
  0
LINE
  5
144
  8
図形
 10
406.93171135385739
 20
176.7692755465113
 30
0.0
 11
406.75494880069641
 21
176.5925129933502
 31
0.0
  0
LINE
  5
145
  8
図形
 10
406.75494880069658
 20
176.5925129933502
 30
0.0
 11
406.22461871480658
 21
176.06218290746031
 31
0.0
  0
LINE
  5
146
  8
図形
 10
408.34591784516277
 20
176.76929675971459
 30
0.0
 11
413.29566531346882
 21
171.8195492914088
 31
0.0
  0
LINE
  5
147
  8
図形
 10
413.29566531346882
 20
171.8195492914088
 30
0.0
 11
407.63883227717969
 21
166.1627162551199
 31
0.0
  0
LINE
  5
148
  8
図形
 10
411.174352040977
 20
171.11244958129009
 30
0.0
 11
408.34593198729863
 21
168.28402952761169
 31
0.0
  0
LINE
  5
149
  8
基準線
 10
379.72656960186458
 20
266.87638560635139
 30
0.0
 11
379.72656960186458
 21
261.87638560635128
 31
0.0
  0
CIRCLE
  5
14A
  8
図形
 10
379.7265696018647
 20
264.37638560635128
 30
0.0
 40
1.1999999999999991
  0
CIRCLE
  5
14B
  8
図形
 10
379.7265696018647
 20
264.37638560635128
 30
0.0
 40
1.5
  0
LINE
  5
14C
  8
基準線
 10
377.22656960186458
 20
264.37638560635139
 30
0.0
 11
382.22656960186458
 21
264.37638560635139
 31
0.0
  0
LINE
  5
14D
  8
基準線
 10
277.22656960186458
 20
369.3763856063515
 30
0.0
 11
277.22656960186458
 21
364.3763856063515
 31
0.0
  0
CIRCLE
  5
14E
  8
図形
 10
277.2265696018647
 20
366.87638560635139
 30
0.0
 40
1.1999999999999991
  0
CIRCLE
  5
14F
  8
図形
 10
277.2265696018647
 20
366.87638560635139
 30
0.0
 40
1.5
  0
LINE
  5
150
  8
基準線
 10
274.72656960186458
 20
366.87638560635139
 30
0.0
 11
279.72656960186458
 21
366.87638560635139
 31
0.0
  0
ENDSEC
  0
EOF
