  0
SECTION
  2
HEADER
  9
$ACADVER
  1
AC1009
  9
$INSBASE
 10
0.0
 20
0.0
 30
0.0
  9
$EXTMIN
 10
323.19597555287061
 20
120.647985603267
 30
0.0
  9
$EXTMAX
 10
536.48599348107723
 20
281.67819301965869
 30
0.0
  9
$LIMMIN
 10
0.0
 20
0.0
  9
$LIMMAX
 10
420.0
 20
297.0
  9
$ORTHOMODE
 70
     0
  9
$REGENMODE
 70
     1
  9
$FILLMODE
 70
     1
  9
$QTEXTMODE
 70
     0
  9
$MIRRTEXT
 70
     1
  9
$DRAGMODE
 70
     2
  9
$LTSCALE
 40
1.0
  9
$OSMODE
 70
    39
  9
$ATTMODE
 70
     1
  9
$TEXTSIZE
 40
2.5
  9
$TRACEWID
 40
1.0
  9
$TEXTSTYLE
  7
STANDARD
  9
$CLAYER
  8
0
  9
$CELTYPE
  6
BYLAYER
  9
$CECOLOR
 62
   256
  9
$DIMSCALE
 40
1.0
  9
$DIMASZ
 40
2.5
  9
$DIMEXO
 40
0.625
  9
$DIMDLI
 40
3.75
  9
$DIMRND
 40
0.0
  9
$DIMDLE
 40
0.0
  9
$DIMEXE
 40
1.25
  9
$DIMTP
 40
0.0
  9
$DIMTM
 40
0.0
  9
$DIMTXT
 40
2.5
  9
$DIMCEN
 40
2.5
  9
$DIMTSZ
 40
0.0
  9
$DIMTOL
 70
     0
  9
$DIMLIM
 70
     0
  9
$DIMTIH
 70
     0
  9
$DIMTOH
 70
     0
  9
$DIMSE1
 70
     0
  9
$DIMSE2
 70
     0
  9
$DIMTAD
 70
     1
  9
$DIMZIN
 70
     8
  9
$DIMBLK
  1

  9
$DIMASO
 70
     1
  9
$DIMSHO
 70
     1
  9
$DIMPOST
  1

  9
$DIMAPOST
  1

  9
$DIMALT
 70
     0
  9
$DIMALTD
 70
     3
  9
$DIMALTF
 40
0.03937007874016
  9
$DIMLFAC
 40
1.0
  9
$DIMTOFL
 70
     1
  9
$DIMTVP
 40
0.0
  9
$DIMTIX
 70
     0
  9
$DIMSOXD
 70
     0
  9
$DIMSAH
 70
     0
  9
$DIMBLK1
  1

  9
$DIMBLK2
  1

  9
$DIMSTYLE
  2
ISO-25
  9
$DIMCLRD
 70
     0
  9
$DIMCLRE
 70
     0
  9
$DIMCLRT
 70
     0
  9
$DIMTFAC
 40
1.0
  9
$DIMGAP
 40
0.625
  9
$LUNITS
 70
     2
  9
$LUPREC
 70
     4
  9
$SKETCHINC
 40
1.0
  9
$FILLETRAD
 40
10.0
  9
$AUNITS
 70
     0
  9
$AUPREC
 70
     0
  9
$MENU
  1
.
  9
$ELEVATION
 40
0.0
  9
$PELEVATION
 40
0.0
  9
$THICKNESS
 40
0.0
  9
$LIMCHECK
 70
     0
  9
$BLIPMODE
 70
     0
  9
$CHAMFERA
 40
10.0
  9
$CHAMFERB
 40
10.0
  9
$SKPOLY
 70
     0
  9
$TDCREATE
 40
2454873.669344224
  9
$TDUPDATE
 40
2455083.5561794671
  9
$TDINDWG
 40
0.3517384722
  9
$TDUSRTIMER
 40
0.3517384722
  9
$USRTIMER
 70
     1
  9
$ANGBASE
 50
0.0
  9
$ANGDIR
 70
     0
  9
$PDMODE
 70
     0
  9
$PDSIZE
 40
0.0
  9
$PLINEWID
 40
0.0
  9
$COORDS
 70
     2
  9
$SPLFRAME
 70
     0
  9
$SPLINETYPE
 70
     6
  9
$SPLINESEGS
 70
     8
  9
$ATTDIA
 70
     0
  9
$ATTREQ
 70
     1
  9
$HANDLING
 70
 22529
  9
$HANDSEED
  5
1BF
  9
$SURFTAB1
 70
     6
  9
$SURFTAB2
 70
     6
  9
$SURFTYPE
 70
     6
  9
$SURFU
 70
     6
  9
$SURFV
 70
     6
  9
$UCSNAME
  2

  9
$UCSORG
 10
0.0
 20
0.0
 30
0.0
  9
$UCSXDIR
 10
1.0
 20
0.0
 30
0.0
  9
$UCSYDIR
 10
0.0
 20
1.0
 30
0.0
  9
$PUCSNAME
  2

  9
$PUCSORG
 10
0.0
 20
0.0
 30
0.0
  9
$PUCSXDIR
 10
1.0
 20
0.0
 30
0.0
  9
$PUCSYDIR
 10
0.0
 20
1.0
 30
0.0
  9
$USERI1
 70
     0
  9
$USERI2
 70
     0
  9
$USERI3
 70
     0
  9
$USERI4
 70
     0
  9
$USERI5
 70
     0
  9
$USERR1
 40
0.0
  9
$USERR2
 40
0.0
  9
$USERR3
 40
0.0
  9
$USERR4
 40
0.0
  9
$USERR5
 40
0.0
  9
$WORLDVIEW
 70
     1
  9
$SHADEDGE
 70
     3
  9
$SHADEDIF
 70
    70
  9
$TILEMODE
 70
     1
  9
$MAXACTVP
 70
    64
  9
$PLIMCHECK
 70
     0
  9
$PEXTMIN
 10
1.146349085891772
 20
2.3954699130834451
 30
0.0
  9
$PEXTMAX
 10
288.43693587376322
 20
201.0508415499194
 30
0.0
  9
$PLIMMIN
 10
-3.17498779296875
 20
-3.1749999523162842
  9
$PLIMMAX
 10
293.85684204101562
 20
206.7348358631134
  9
$UNITMODE
 70
     0
  9
$VISRETAIN
 70
     1
  9
$PLINEGEN
 70
     0
  9
$PSLTSCALE
 70
     1
  0
ENDSEC
  0
SECTION
  2
TABLES
  0
TABLE
  2
VPORT
 70
     1
  0
VPORT
  2
*ACTIVE
 70
     0
 10
0.0
 20
0.0
 11
1.0
 21
1.0
 12
400.32361620455129
 22
204.76578639725739
 13
0.0
 23
0.0
 14
10.0
 24
10.0
 15
10.0
 25
10.0
 16
0.0
 26
0.0
 36
1.0
 17
0.0
 27
0.0
 37
0.0
 40
200.93090182889389
 41
1.710651828298887
 42
50.0
 43
0.0
 44
0.0
 50
0.0
 51
0.0
 71
     0
 72
   100
 73
     1
 74
     3
 75
     0
 76
     0
 77
     0
 78
     0
  0
ENDTAB
  0
TABLE
  2
LTYPE
 70
     2
  0
LTYPE
  2
CONTINUOUS
 70
     0
  3
Solid line
 72
    65
 73
     0
 40
0.0
  0
LTYPE
  2
CENTER
 70
     0
  3
Center ____ _ ____ _ ____ _ ____ _ ____ _ ____
 72
    65
 73
     4
 40
50.799999999999997
 49
31.75
 49
-6.3499999999999988
 49
6.3499999999999988
 49
-6.3499999999999988
  0
ENDTAB
  0
TABLE
  2
LAYER
 70
     6
  0
LAYER
  2
0
 70
     0
 62
     7
  6
CONTINUOUS
  0
LAYER
  2
基準線
 70
     0
 62
     1
  6
CENTER
  0
LAYER
  2
図形
 70
     0
 62
     7
  6
CONTINUOUS
  0
LAYER
  2
寸法
 70
     0
 62
     5
  6
CONTINUOUS
  0
LAYER
  2
補助
 70
     0
 62
     8
  6
CONTINUOUS
  0
LAYER
  2
DEFPOINTS
 70
     0
 62
     7
  6
CONTINUOUS
  0
ENDTAB
  0
TABLE
  2
STYLE
 70
     5
  0
STYLE
  2
STANDARD
 70
     0
 40
0.0
 41
1.0
 50
0.0
 71
     0
 42
2.5
  3
txt
  4

  0
STYLE
  2
NISSIN5
 70
     0
 40
5.0
 41
1.0
 50
0.0
 71
     0
 42
3.5
  3
txt
  4

  0
STYLE
  2
NISSIN3_5
 70
     0
 40
3.5
 41
1.0
 50
0.0
 71
     0
 42
3.5
  3
txt
  4

  0
STYLE
  2
NISSIN3
 70
     0
 40
3.0
 41
1.0
 50
0.0
 71
     0
 42
4.0
  3
txt
  4

  0
STYLE
  2
NISSIN2
 70
     0
 40
2.0
 41
1.0
 50
0.0
 71
     0
 42
4.0
  3
txt
  4

  0
ENDTAB
  0
TABLE
  2
VIEW
 70
     0
  0
ENDTAB
  0
TABLE
  2
UCS
 70
     0
  0
ENDTAB
  0
TABLE
  2
APPID
 70
     1
  0
APPID
  2
ACAD
 70
     0
  0
ENDTAB
  0
TABLE
  2
DIMSTYLE
 70
     4
  0
DIMSTYLE
  2
ISO-25
 70
     0
  3

  4

  5

  6

  7

 40
1.0
 41
2.5
 42
0.625
 43
3.75
 44
1.25
 45
0.0
 46
0.0
 47
0.0
 48
0.0
140
2.5
141
2.5
142
0.0
143
0.03937007874016
144
1.0
145
0.0
146
1.0
147
0.625
 71
     0
 72
     0
 73
     0
 74
     0
 75
     0
 76
     0
 77
     1
 78
     8
170
     0
171
     3
172
     1
173
     0
174
     0
175
     0
176
     0
177
     0
178
     0
  0
DIMSTYLE
  2
NISSINSTYLE
 70
     0
  3

  4

  5

  6

  7

 40
1.0
 41
3.0
 42
2.0
 43
3.75
 44
3.0
 45
0.0
 46
0.0
 47
0.0
 48
0.0
140
3.5
141
3.0
142
0.0
143
0.03937007874016
144
1.0
145
0.0
146
1.0
147
0.625
 71
     0
 72
     0
 73
     0
 74
     0
 75
     0
 76
     0
 77
     1
 78
     8
170
     0
171
     3
172
     1
173
     0
174
     0
175
     0
176
     0
177
     0
178
     0
  0
DIMSTYLE
  2
JIS
 70
     0
  3

  4

  5

  6

  7

 40
1.0
 41
2.5
 42
1.0
 43
7.0
 44
1.0
 45
0.0
 46
0.0
 47
0.0
 48
0.0
140
2.5
141
0.0
142
0.0
143
0.0394
144
1.0
145
0.0
146
1.0
147
0.0
 71
     0
 72
     0
 73
     0
 74
     0
 75
     0
 76
     0
 77
     1
 78
     8
170
     0
171
     2
172
     1
173
     0
174
     1
175
     1
176
     0
177
     0
178
     0
  0
DIMSTYLE
  2
STANDARD
 70
     0
  3

  4

  5

  6

  7

 40
1.0
 41
0.18
 42
0.0625
 43
0.38
 44
0.18
 45
0.0
 46
0.0
 47
0.0
 48
0.0
140
0.18
141
0.09
142
0.0
143
25.399999999999999
144
1.0
145
0.0
146
1.0
147
0.09
 71
     0
 72
     0
 73
     1
 74
     1
 75
     0
 76
     0
 77
     0
 78
     0
170
     0
171
     2
172
     0
173
     0
174
     0
175
     0
176
     0
177
     0
178
     0
  0
ENDTAB
  0
ENDSEC
  0
SECTION
  2
BLOCKS
  0
BLOCK
  8
0
  2
$MODEL_SPACE
 70
     0
 10
0.0
 20
0.0
 30
0.0
  3
$MODEL_SPACE
  1

  0
ENDBLK
  5
B
  8
0
  0
BLOCK
 67
     1
  8
0
  2
$PAPER_SPACE
 70
     0
 10
0.0
 20
0.0
 30
0.0
  3
$PAPER_SPACE
  1

  0
ENDBLK
  5
10
 67
     1
  8
0
  0
BLOCK
  8
0
  2
*D0
 70
     1
 10
0.0
 20
0.0
 30
0.0
  3
*D0
  1

  0
LINE
  5
141
  8
寸法
 62
     0
 10
356.72960499449499
 20
177.67819301965869
 30
0.0
 11
324.72960499449499
 21
177.67819301965869
 31
0.0
  0
LINE
  5
142
  8
寸法
 62
     0
 10
345.72960499449499
 20
157.67819301965861
 30
0.0
 11
324.72960499449499
 21
157.67819301965861
 31
0.0
  0
LINE
  5
143
  8
寸法
 62
     0
 10
327.72960499449499
 20
174.67819301965861
 30
0.0
 11
327.72960499449499
 21
160.67819301965861
 31
0.0
  0
SOLID
  5
144
  8
寸法
 62
     0
 10
327.22960499449499
 20
174.67819301965861
 30
0.0
 11
328.22960499449499
 21
174.67819301965861
 31
0.0
 12
327.72960499449499
 22
177.67819301965869
 32
0.0
 13
327.72960499449499
 23
177.67819301965869
 33
0.0
  0
SOLID
  5
145
  8
寸法
 62
     0
 10
327.22960499449499
 20
160.67819301965861
 30
0.0
 11
328.22960499449499
 21
160.67819301965861
 31
0.0
 12
327.72960499449499
 22
157.67819301965861
 32
0.0
 13
327.72960499449499
 23
157.67819301965861
 33
0.0
  0
TEXT
  5
146
  8
0
 62
     0
 10
327.10460499449499
 20
164.84485968632541
 30
0.0
 40
3.5
  1
20
 50
90.0
  7
NISSIN3_5
  0
POINT
  5
147
  8
DEFPOINTS
 62
     0
 10
358.72960499449499
 20
177.67819301965869
 30
0.0
  0
POINT
  5
148
  8
DEFPOINTS
 62
     0
 10
347.72960499449499
 20
157.67819301965861
 30
0.0
  0
POINT
  5
149
  8
DEFPOINTS
 62
     0
 10
327.72960499449499
 20
157.67819301965861
 30
0.0
  0
ENDBLK
  5
14B
  8
0
  0
BLOCK
  8
0
  2
*D1
 70
     1
 10
0.0
 20
0.0
 30
0.0
  3
*D1
  1

  0
LINE
  5
D8
  8
寸法
 62
     0
 10
388.66738016233887
 20
256.94870700503122
 30
0.0
 11
393.11536908176328
 21
258.14054204393352
 31
0.0
  0
LINE
  5
D9
  8
寸法
 62
     0
 10
361.06234381202381
 20
264.34545420212999
 30
0.0
 11
357.80618993150131
 21
267.60160808265272
 31
0.0
  0
ARC
  5
DA
  8
寸法
 62
     0
 10
372.72960499449448
 20
252.67819301965829
 30
0.0
 40
18.10489597900882
 50
24.504865077871472
 51
125.4951349221264
  0
SOLID
  5
DB
  8
寸法
 62
     0
 10
389.67430240855879
 20
260.35654825030889
 30
0.0
 11
388.73314074067991
 21
260.0185915742166
 31
0.0
 12
390.21759160289611
 22
257.3640849086259
 32
0.0
 13
390.21759160289611
 23
257.3640849086259
 33
0.0
  0
SOLID
  5
DC
  8
寸法
 62
     0
 10
362.54033576520521
 20
267.03693251490148
 30
0.0
 11
361.89424418980002
 21
267.80019241571551
 31
0.0
 12
359.9275102750608
 22
265.480287739093
 32
0.0
 13
359.9275102750608
 23
265.480287739093
 33
0.0
  0
TEXT
  5
DD
  8
0
 62
     0
 10
371.04116069542857
 20
272.5212254746844
 30
0.0
 40
3.5
  1
120°
 50
344.9999999999992
  7
NISSIN3_5
  0
POINT
  5
DE
  8
DEFPOINTS
 62
     0
 10
383.1141467106408
 20
267.5088555725028
 30
0.0
  0
POINT
  5
DF
  8
DEFPOINTS
 62
     0
 10
364.59787701084957
 20
260.80992100330383
 30
0.0
  0
POINT
  5
E0
  8
DEFPOINTS
 62
     0
 10
383.83775199681929
 20
255.65461203833749
 30
0.0
  0
POINT
  5
E1
  8
DEFPOINTS
 62
     0
 10
386.7355285097608
 20
256.43106891482608
 30
0.0
  0
POINT
  5
E2
  8
DEFPOINTS
 62
     0
 10
362.4765573743968
 20
262.93124063975682
 30
0.0
  0
ENDBLK
  5
E4
  8
0
  0
BLOCK
  8
0
  2
*D2
 70
     1
 10
0.0
 20
0.0
 30
0.0
  3
*D2
  1

  0
LINE
  5
C7
  8
寸法
 62
     0
 10
361.0623438120237
 20
264.34545420212999
 30
0.0
 11
357.77069373063841
 21
267.63710428351561
 31
0.0
  0
LINE
  5
C8
  8
寸法
 62
     0
 10
368.58850053167367
 20
237.22338076495939
 30
0.0
 11
367.25426345896602
 21
232.24394022027241
 31
0.0
  0
ARC
  5
C9
  8
寸法
 62
     0
 10
372.72960499449482
 20
252.67819301965821
 30
0.0
 40
18.15509518768215
 50
144.47852374592819
 51
245.52147625407031
  0
SOLID
  5
CA
  8
寸法
 62
     0
 10
357.57165736282491
 20
263.54958335710921
 30
0.0
 11
358.33476872544401
 21
262.90331634708798
 31
0.0
 12
359.8920140741979
 22
265.51578393995578
 32
0.0
 13
359.8920140741979
 23
265.51578393995578
 33
0.0
  0
SOLID
  5
CB
  8
寸法
 62
     0
 10
365.37587276589369
 20
236.6255583267498
 30
0.0
 11
365.03813244495961
 21
235.6843189971342
 31
0.0
 12
368.03072059427359
 22
235.1417176991396
 32
0.0
 13
368.03072059427359
 23
235.1417176991396
 33
0.0
  0
TEXT
  5
CC
  8
0
 62
     0
 10
349.45734343534019
 20
253.44777814961199
 30
0.0
 40
3.5
  1
120°
 50
284.99999999999892
  7
NISSIN3_5
  0
POINT
  5
CD
  8
DEFPOINTS
 62
     0
 10
354.64359542517491
 20
254.26051382539529
 30
0.0
  0
POINT
  5
CE
  8
DEFPOINTS
 62
     0
 10
369.62377645326472
 20
241.08708310418979
 30
0.0
  0
POINT
  5
CF
  8
DEFPOINTS
 62
     0
 10
364.59787701084957
 20
260.80992100330383
 30
0.0
  0
POINT
  5
D0
  8
DEFPOINTS
 62
     0
 10
362.47655737439669
 20
262.93124063975682
 30
0.0
  0
POINT
  5
D1
  8
DEFPOINTS
 62
     0
 10
369.1061386218787
 20
239.15523241753749
 30
0.0
  0
ENDBLK
  5
D3
  8
0
  0
BLOCK
  8
0
  2
*D3
 70
     1
 10
0.0
 20
0.0
 30
0.0
  3
*D3
  1

  0
LINE
  5
75
  8
寸法
 62
     0
 10
347.72960499449499
 20
171.67819301965861
 30
0.0
 11
347.72960499449499
 21
207.67819301965861
 31
0.0
  0
LINE
  5
76
  8
寸法
 62
     0
 10
397.73138547775898
 20
171.67819301965861
 30
0.0
 11
397.73138547775898
 21
207.67819301965861
 31
0.0
  0
LINE
  5
77
  8
寸法
 62
     0
 10
350.72960499449499
 20
204.67819301965869
 30
0.0
 11
394.73138547775898
 21
204.67819301965869
 31
0.0
  0
SOLID
  5
78
  8
寸法
 62
     0
 10
350.72960499449499
 20
205.17819301965861
 30
0.0
 11
350.72960499449499
 21
204.17819301965869
 31
0.0
 12
347.72960499449499
 22
204.67819301965869
 32
0.0
 13
347.72960499449499
 23
204.67819301965869
 33
0.0
  0
SOLID
  5
79
  8
寸法
 62
     0
 10
394.73138547775898
 20
205.17819301965861
 30
0.0
 11
394.73138547775898
 21
204.17819301965869
 31
0.0
 12
397.73138547775898
 22
204.67819301965869
 32
0.0
 13
397.73138547775898
 23
204.67819301965869
 33
0.0
  0
INSERT
  5
7A
  8
0
  2
*U12
 10
0.0
 20
0.0
 30
0.0
  0
POINT
  5
7B
  8
DEFPOINTS
 62
     0
 10
347.72960499449499
 20
169.67819301965861
 30
0.0
  0
POINT
  5
7C
  8
DEFPOINTS
 62
     0
 10
397.73138547775898
 20
169.67819301965861
 30
0.0
  0
POINT
  5
7D
  8
DEFPOINTS
 62
     0
 10
397.73138547775898
 20
204.67819301965869
 30
0.0
  0
ENDBLK
  5
7F
  8
0
  0
BLOCK
  8
0
  2
*D4
 70
     1
 10
0.0
 20
0.0
 30
0.0
  3
*D4
  1

  0
LINE
  5
66
  8
寸法
 62
     0
 10
358.72960499449499
 20
179.67819301965869
 30
0.0
 11
358.72960499449499
 21
197.67819301965869
 31
0.0
  0
LINE
  5
67
  8
寸法
 62
     0
 10
386.73138547775898
 20
179.67819301965869
 30
0.0
 11
386.73138547775898
 21
197.67819301965869
 31
0.0
  0
LINE
  5
68
  8
寸法
 62
     0
 10
361.72960499449499
 20
194.67819301965861
 30
0.0
 11
383.73138547775898
 21
194.67819301965861
 31
0.0
  0
SOLID
  5
69
  8
寸法
 62
     0
 10
361.72960499449499
 20
195.17819301965869
 30
0.0
 11
361.72960499449499
 21
194.17819301965869
 31
0.0
 12
358.72960499449499
 22
194.67819301965861
 32
0.0
 13
358.72960499449499
 23
194.67819301965861
 33
0.0
  0
SOLID
  5
6A
  8
寸法
 62
     0
 10
383.73138547775898
 20
195.17819301965869
 30
0.0
 11
383.73138547775898
 21
194.17819301965869
 31
0.0
 12
386.73138547775898
 22
194.67819301965861
 32
0.0
 13
386.73138547775898
 23
194.67819301965861
 33
0.0
  0
INSERT
  5
6B
  8
0
  2
*U11
 10
0.0
 20
0.0
 30
0.0
  0
POINT
  5
6C
  8
DEFPOINTS
 62
     0
 10
358.72960499449499
 20
177.67819301965869
 30
0.0
  0
POINT
  5
6D
  8
DEFPOINTS
 62
     0
 10
386.73138547775898
 20
177.67819301965869
 30
0.0
  0
POINT
  5
6E
  8
DEFPOINTS
 62
     0
 10
386.73138547775898
 20
194.67819301965861
 30
0.0
  0
ENDBLK
  5
70
  8
0
  0
BLOCK
  8
0
  2
*D5
 70
     1
 10
0.0
 20
0.0
 30
0.0
  3
*D5
  1

  0
LINE
  5
57
  8
寸法
 62
     0
 10
360.72960499449499
 20
179.67819301965869
 30
0.0
 11
360.72960499449499
 21
187.67819301965861
 31
0.0
  0
LINE
  5
58
  8
寸法
 62
     0
 10
384.73138547775898
 20
179.67819301965869
 30
0.0
 11
384.73138547775898
 21
187.67819301965861
 31
0.0
  0
LINE
  5
59
  8
寸法
 62
     0
 10
363.72960499449499
 20
184.67819301965861
 30
0.0
 11
381.73138547775898
 21
184.67819301965861
 31
0.0
  0
SOLID
  5
5A
  8
寸法
 62
     0
 10
363.72960499449499
 20
185.17819301965869
 30
0.0
 11
363.72960499449499
 21
184.17819301965869
 31
0.0
 12
360.72960499449499
 22
184.67819301965861
 32
0.0
 13
360.72960499449499
 23
184.67819301965861
 33
0.0
  0
SOLID
  5
5B
  8
寸法
 62
     0
 10
381.73138547775898
 20
185.17819301965869
 30
0.0
 11
381.73138547775898
 21
184.17819301965869
 31
0.0
 12
384.73138547775898
 22
184.67819301965861
 32
0.0
 13
384.73138547775898
 23
184.67819301965861
 33
0.0
  0
INSERT
  5
5C
  8
0
  2
*U10
 10
0.0
 20
0.0
 30
0.0
  0
POINT
  5
5D
  8
DEFPOINTS
 62
     0
 10
360.72960499449499
 20
177.67819301965869
 30
0.0
  0
POINT
  5
5E
  8
DEFPOINTS
 62
     0
 10
384.73138547775898
 20
177.67819301965869
 30
0.0
  0
POINT
  5
5F
  8
DEFPOINTS
 62
     0
 10
384.73138547775898
 20
184.67819301965861
 30
0.0
  0
ENDBLK
  5
61
  8
0
  0
BLOCK
  8
0
  2
*D6
 70
     1
 10
0.0
 20
0.0
 30
0.0
  3
*D6
  1

  0
LINE
  5
48
  8
寸法
 62
     0
 10
345.72960499449499
 20
169.67819301965861
 30
0.0
 11
334.72960499449499
 21
169.67819301965861
 31
0.0
  0
LINE
  5
49
  8
寸法
 62
     0
 10
356.72960499449499
 20
177.67819301965869
 30
0.0
 11
334.72960499449499
 21
177.67819301965869
 31
0.0
  0
LINE
  5
4A
  8
寸法
 62
     0
 10
337.72960499449499
 20
172.67819301965869
 30
0.0
 11
337.72960499449499
 21
174.67819301965861
 31
0.0
  0
SOLID
  5
4B
  8
寸法
 62
     0
 10
337.22960499449499
 20
172.67819301965869
 30
0.0
 11
338.22960499449499
 21
172.67819301965869
 31
0.0
 12
337.72960499449499
 22
169.67819301965861
 32
0.0
 13
337.72960499449499
 23
169.67819301965861
 33
0.0
  0
SOLID
  5
4C
  8
寸法
 62
     0
 10
337.22960499449499
 20
174.67819301965861
 30
0.0
 11
338.22960499449499
 21
174.67819301965861
 31
0.0
 12
337.72960499449499
 22
177.67819301965869
 32
0.0
 13
337.72960499449499
 23
177.67819301965869
 33
0.0
  0
TEXT
  5
4D
  8
0
 62
     0
 10
337.10460499449499
 20
172.51152635299201
 30
0.0
 40
3.5
  1
8
 50
90.0
  7
NISSIN3_5
  0
POINT
  5
4E
  8
DEFPOINTS
 62
     0
 10
347.72960499449499
 20
169.67819301965861
 30
0.0
  0
POINT
  5
4F
  8
DEFPOINTS
 62
     0
 10
358.72960499449499
 20
177.67819301965869
 30
0.0
  0
POINT
  5
50
  8
DEFPOINTS
 62
     0
 10
337.72960499449499
 20
177.67819301965869
 30
0.0
  0
ENDBLK
  5
52
  8
0
  0
BLOCK
  8
0
  2
*D7
 70
     1
 10
0.0
 20
0.0
 30
0.0
  3
*D7
  1

  0
LINE
  5
153
  8
寸法
 62
     0
 10
388.73138547775898
 20
177.67819301965869
 30
0.0
 11
394.73138547775898
 21
177.67819301965869
 31
0.0
  0
LINE
  5
154
  8
寸法
 62
     0
 10
374.72960499449499
 20
173.67819301965861
 30
0.0
 11
394.73138547775898
 21
173.67819301965861
 31
0.0
  0
LINE
  5
155
  8
寸法
 62
     0
 10
391.73138547775898
 20
180.67819301965869
 30
0.0
 11
391.73138547775898
 21
183.67819301965861
 31
0.0
  0
LINE
  5
156
  8
寸法
 62
     0
 10
391.73138547775898
 20
170.67819301965861
 30
0.0
 11
391.73138547775898
 21
167.67819301965861
 31
0.0
  0
LINE
  5
157
  8
寸法
 62
     0
 10
391.73138547775898
 20
177.67819301965869
 30
0.0
 11
391.73138547775898
 21
173.67819301965861
 31
0.0
  0
SOLID
  5
158
  8
寸法
 62
     0
 10
391.23138547775898
 20
180.67819301965869
 30
0.0
 11
392.23138547775898
 21
180.67819301965869
 31
0.0
 12
391.73138547775898
 22
177.67819301965869
 32
0.0
 13
391.73138547775898
 23
177.67819301965869
 33
0.0
  0
SOLID
  5
159
  8
寸法
 62
     0
 10
391.23138547775898
 20
170.67819301965861
 30
0.0
 11
392.23138547775898
 21
170.67819301965861
 31
0.0
 12
391.73138547775898
 22
173.67819301965861
 32
0.0
 13
391.73138547775898
 23
173.67819301965861
 33
0.0
  0
TEXT
  5
15A
  8
0
 62
     0
 10
395.85638547775892
 20
174.42819301965869
 30
0.0
 40
3.5
  1
4
 50
90.0
  7
NISSIN3_5
  0
POINT
  5
15B
  8
DEFPOINTS
 62
     0
 10
386.73138547775898
 20
177.67819301965869
 30
0.0
  0
POINT
  5
15C
  8
DEFPOINTS
 62
     0
 10
372.72960499449499
 20
173.67819301965861
 30
0.0
  0
POINT
  5
15D
  8
DEFPOINTS
 62
     0
 10
391.73138547775898
 20
173.67819301965861
 30
0.0
  0
ENDBLK
  5
15F
  8
0
  0
BLOCK
  8
0
  2
*D8
 70
     1
 10
0.0
 20
0.0
 30
0.0
  3
*D8
  1

  0
LINE
  5
30
  8
寸法
 62
     0
 10
384.77176579514122
 20
166.80382796497889
 30
0.0
 11
381.60741551104559
 21
169.4590309881082
 31
0.0
  0
ARC
  5
31
  8
寸法
 62
     0
 10
395.6472827632349
 20
157.67819301965861
 30
0.0
 40
15.32773896851316
 50
117.53579791582899
 51
128.76791029083461
  0
ARC
  5
32
  8
寸法
 62
     0
 10
395.6472827632349
 20
157.67819301965861
 30
0.0
 40
15.32773896851316
 50
191.2321123750055
 51
202.46422475001111
  0
ARC
  5
33
  8
寸法
 62
     0
 10
395.6472827632349
 20
157.67819301965861
 30
0.0
 40
15.32773896851316
 50
140.00002266584019
 51
180.0
  0
SOLID
  5
34
  8
寸法
 62
     0
 10
386.39928662319721
 20
169.27172497633751
 30
0.0
 11
385.6998232464988
 21
169.98639342020351
 31
0.0
 12
383.90554960325022
 22
167.5306690681754
 32
0.0
 13
383.90554960325022
 23
167.5306690681754
 33
0.0
  0
SOLID
  5
35
  8
寸法
 62
     0
 10
380.11552916271881
 20
154.64366207898121
 30
0.0
 11
381.11072917764142
 21
154.74152387080059
 31
0.0
 12
380.31954379472171
 22
157.67819301965861
 32
0.0
 13
380.31954379472171
 23
157.67819301965861
 33
0.0
  0
TEXT
  5
36
  8
0
 62
     0
 10
379.06598304154232
 20
160.87271570518919
 30
0.0
 40
3.0
  1
40°
 50
63.085687338779017
  7
NISSIN3
  0
POINT
  5
37
  8
DEFPOINTS
 62
     0
 10
380.73270451621943
 20
161.21301092169159
 30
0.0
  0
POINT
  5
39
  8
DEFPOINTS
 62
     0
 10
393.85965093817413
 20
159.17819301965861
 30
0.0
  0
POINT
  5
3A
  8
DEFPOINTS
 62
     0
 10
352.22960499449488
 20
157.67819301965861
 30
0.0
  0
POINT
  5
3B
  8
DEFPOINTS
 62
     0
 10
393.23138547775892
 20
157.67819301965861
 30
0.0
  0
POINT
  5
3C
  8
DEFPOINTS
 62
     0
 10
386.30385518994427
 20
165.51825335169039
 30
0.0
  0
ENDBLK
  5
3E
  8
0
  0
BLOCK
  8
0
  2
*D9
 70
     1
 10
0.0
 20
0.0
 30
0.0
  3
*D9
  1

  0
LINE
  5
168
  8
寸法
 62
     0
 10
384.77176579514122
 20
166.80382796497881
 30
0.0
 11
381.60741551104559
 21
169.4590309881082
 31
0.0
  0
ARC
  5
169
  8
寸法
 62
     0
 10
395.6472827632349
 20
157.67819301965861
 30
0.0
 40
15.327738968513209
 50
151.232135040846
 51
168.76788762499439
  0
SOLID
  5
16A
  8
寸法
 62
     0
 10
381.79870730592552
 20
165.33722074778959
 30
0.0
 11
382.62397931779788
 21
164.77248531732681
 31
0.0
 12
383.90554960325028
 22
167.5306690681754
 32
0.0
 13
383.90554960325028
 23
167.5306690681754
 33
0.0
  0
SOLID
  5
16B
  8
寸法
 62
     0
 10
381.11072917764142
 20
160.61486216851659
 30
0.0
 11
380.11552916271887
 21
160.71272396033609
 31
0.0
 12
380.31954379472171
 22
157.67819301965861
 32
0.0
 13
380.31954379472171
 23
157.67819301965861
 33
0.0
  0
TEXT
  8
0
  40
3
  5
1BC
  62
0
  72
0
  71
0
 10
379.837
 20
161.804
 30
0.000000
  1
40°
  7
NISSIN3
  0
POINT
  5
16D
  8
DEFPOINTS
 62
     0
 10
380.73270451621943
 20
161.21301092169159
 30
0.0
  0
POINT
  5
16E
  8
DEFPOINTS
 62
     0
 10
393.85965093817418
 20
159.17819301965861
 30
0.0
  0
POINT
  5
16F
  8
DEFPOINTS
 62
     0
 10
352.22960499449499
 20
157.67819301965861
 30
0.0
  0
POINT
  5
170
  8
DEFPOINTS
 62
     0
 10
393.23138547775892
 20
157.67819301965869
 30
0.0
  0
POINT
  5
171
  8
DEFPOINTS
 62
     0
 10
386.30385518994427
 20
165.5182533516903
 30
0.0
  0
ENDBLK
  5
173
  8
0
  0
BLOCK
  8
0
  2
*U10
 70
     1
 10
0.0
 20
0.0
 30
0.0
  3
*U10
  1

  0
TEXT
  5
175
  8
0
 62
     0
 10
368.23049523612701
 20
185.30319301965861
 30
0.0
 40
3.5
  1
\U+2205
  7
NISSIN3_5
  0
TEXT
  5
176
  8
0
 62
     0
 10
371.3971619027937
 20
185.30319301965861
 30
0.0
 40
3.5
  1
24
  7
NISSIN3_5
  0
ENDBLK
  5
178
  8
0
  0
BLOCK
  8
0
  2
*U11
 70
     1
 10
0.0
 20
0.0
 30
0.0
  3
*U11
  1

  0
TEXT
  5
17A
  8
0
 62
     0
 10
368.31382856946033
 20
195.30319301965869
 30
0.0
 40
3.5
  1
\U+2205
  7
NISSIN3_5
  0
TEXT
  5
17B
  8
0
 62
     0
 10
371.48049523612701
 20
195.30319301965869
 30
0.0
 40
3.5
  1
28
  7
NISSIN3_5
  0
ENDBLK
  5
17D
  8
0
  0
BLOCK
  8
0
  2
*U12
 70
     1
 10
0.0
 20
0.0
 30
0.0
  3
*U12
  1

  0
TEXT
  5
17F
  8
0
 62
     0
 10
368.31382856946033
 20
205.30319301965869
 30
0.0
 40
3.5
  1
\U+2205
  7
NISSIN3_5
  0
TEXT
  5
180
  8
0
 62
     0
 10
371.48049523612701
 20
205.30319301965869
 30
0.0
 40
3.5
  1
50
  7
NISSIN3_5
  0
ENDBLK
  5
182
  8
0
  0
BLOCK
  8
0
  2
*X13
 70
     1
 10
0.0
 20
0.0
 30
0.0
  3
*X13
  1

  0
LINE
  5
184
  8
0
 62
     0
 10
395.9681914341312
 20
157.67819301965869
 30
0.0
 11
397.73138547775892
 21
159.44138706328641
 31
0.0
  0
LINE
  5
185
  8
0
 62
     0
 10
396.23138547775898
 20
162.43151512382099
 30
0.0
 11
397.73138547775909
 21
163.9315151238211
 31
0.0
  0
LINE
  5
186
  8
0
 62
     0
 10
394.73138547775898
 20
160.93151512382099
 30
0.0
 11
394.97806337359663
 21
161.17819301965869
 31
0.0
  0
LINE
  5
187
  8
0
 62
     0
 10
395.59403864509369
 20
166.28429635169039
 30
0.0
 11
397.73138547775909
 21
168.4216431843557
 31
0.0
  0
LINE
  5
188
  8
0
 62
     0
 10
391.10391058455917
 20
166.2842963516903
 30
0.0
 11
394.49780725252748
 21
169.67819301965869
 31
0.0
  0
LINE
  5
189
  8
0
 62
     0
 10
386.6137825240246
 20
166.2842963516903
 30
0.0
 11
390.00767919199291
 21
169.67819301965861
 31
0.0
  0
LINE
  5
18A
  8
0
 62
     0
 10
384.73138547775892
 20
164.40189930542471
 30
0.0
 11
386.23138547775892
 21
165.90189930542479
 31
0.0
  0
LINE
  5
18B
  8
0
 62
     0
 10
384.73138547775898
 20
168.89202736595931
 30
0.0
 11
386.73138547775892
 21
170.89202736595919
 31
0.0
  0
LINE
  5
18C
  8
0
 62
     0
 10
384.73138547775892
 20
173.38215542649391
 30
0.0
 11
386.73138547775892
 21
175.38215542649391
 31
0.0
  0
ENDBLK
  5
18E
  8
0
  0
BLOCK
  8
0
  2
*X14
 70
     1
 10
0.0
 20
0.0
 30
0.0
  3
*X14
  1

  0
LINE
  5
190
  8
0
 62
     0
 10
359.22960499449499
 20
165.8408871853683
 30
0.0
 11
360.72960499449488
 21
167.34088718536819
 31
0.0
  0
LINE
  5
191
  8
0
 62
     0
 10
351.06691082878541
 20
157.67819301965861
 30
0.0
 11
352.22960499449499
 21
158.84088718536819
 31
0.0
  0
LINE
  5
192
  8
0
 62
     0
 10
355.18288610028247
 20
166.2842963516903
 30
0.0
 11
358.57678276825078
 21
169.67819301965861
 31
0.0
  0
LINE
  5
193
  8
0
 62
     0
 10
358.72960499449499
 20
169.83101524590279
 30
0.0
 11
360.72960499449499
 21
171.83101524590279
 31
0.0
  0
LINE
  5
194
  8
0
 62
     0
 10
347.72960499449499
 20
158.83101524590279
 30
0.0
 11
350.07678276825078
 21
161.17819301965861
 31
0.0
  0
LINE
  5
195
  8
0
 62
     0
 10
350.69275803974801
 20
166.2842963516903
 30
0.0
 11
354.08665470771632
 21
169.67819301965861
 31
0.0
  0
LINE
  5
196
  8
0
 62
     0
 10
358.72960499449499
 20
174.32114330643739
 30
0.0
 11
360.72960499449499
 21
176.32114330643739
 31
0.0
  0
LINE
  5
197
  8
0
 62
     0
 10
347.72960499449499
 20
163.32114330643731
 30
0.0
 11
349.22960499449499
 21
164.82114330643739
 31
0.0
  0
LINE
  5
198
  8
0
 62
     0
 10
347.72960499449499
 20
167.81127136697199
 30
0.0
 11
349.59652664718169
 21
169.67819301965861
 31
0.0
  0
ENDBLK
  5
19A
  8
0
  0
BLOCK
  8
0
  2
*D15
 70
     1
 10
0.0
 20
0.0
 30
0.0
  3
*D15
  1

  0
LINE
  5
19C
  8
寸法
 62
     0
 10
361.0623438120237
 20
264.34545420212999
 30
0.0
 11
357.77069373063819
 21
267.63710428351561
 31
0.0
  0
LINE
  5
19D
  8
寸法
 62
     0
 10
368.58850053167362
 20
237.2233807649593
 30
0.0
 11
367.25426345896602
 21
232.24394022027229
 31
0.0
  0
ARC
  5
19E
  8
寸法
 62
     0
 10
372.72960499449482
 20
252.67819301965821
 30
0.0
 40
18.1550951876822
 50
144.4785237459281
 51
245.52147625407031
  0
SOLID
  5
19F
  8
寸法
 62
     0
 10
357.57165736282491
 20
263.54958335710921
 30
0.0
 11
358.33476872544401
 21
262.90331634708809
 31
0.0
 12
359.89201407419779
 22
265.5157839399559
 32
0.0
 13
359.89201407419779
 23
265.5157839399559
 33
0.0
  0
SOLID
  5
1A0
  8
寸法
 62
     0
 10
365.37587276589369
 20
236.6255583267498
 30
0.0
 11
365.03813244495961
 21
235.68431899713411
 31
0.0
 12
368.03072059427348
 22
235.14171769913949
 32
0.0
 13
368.03072059427348
 23
235.14171769913949
 33
0.0
  0
TEXT
  8
0
  40
3.5
  5
1BD
  62
0
  72
0
  71
0
 10
352.899
 20
242.815
 30
0.000000
  1
120°
  7
NISSIN3_5
  0
POINT
  5
1A2
  8
DEFPOINTS
 62
     0
 10
354.64359542517479
 20
254.26051382539529
 30
0.0
  0
POINT
  5
1A3
  8
DEFPOINTS
 62
     0
 10
369.62377645326472
 20
241.08708310418979
 30
0.0
  0
POINT
  5
1A4
  8
DEFPOINTS
 62
     0
 10
364.59787701084957
 20
260.80992100330383
 30
0.0
  0
POINT
  5
1A5
  8
DEFPOINTS
 62
     0
 10
362.47655737439669
 20
262.93124063975682
 30
0.0
  0
POINT
  5
1A6
  8
DEFPOINTS
 62
     0
 10
369.1061386218787
 20
239.15523241753749
 30
0.0
  0
ENDBLK
  5
1A8
  8
0
  0
BLOCK
  8
0
  2
*D16
 70
     1
 10
0.0
 20
0.0
 30
0.0
  3
*D16
  1

  0
LINE
  5
1AA
  8
寸法
 62
     0
 10
388.66738016233887
 20
256.94870700503122
 30
0.0
 11
393.11536908176328
 21
258.14054204393352
 31
0.0
  0
LINE
  5
1AB
  8
寸法
 62
     0
 10
361.06234381202381
 20
264.34545420212999
 30
0.0
 11
357.80618993150131
 21
267.60160808265272
 31
0.0
  0
ARC
  5
1AC
  8
寸法
 62
     0
 10
372.72960499449448
 20
252.67819301965829
 30
0.0
 40
18.10489597900882
 50
24.504865077871472
 51
125.4951349221264
  0
SOLID
  5
1AD
  8
寸法
 62
     0
 10
389.67430240855879
 20
260.35654825030889
 30
0.0
 11
388.73314074067991
 21
260.0185915742166
 31
0.0
 12
390.21759160289611
 22
257.3640849086259
 32
0.0
 13
390.21759160289611
 23
257.3640849086259
 33
0.0
  0
SOLID
  5
1AE
  8
寸法
 62
     0
 10
362.54033576520521
 20
267.03693251490148
 30
0.0
 11
361.89424418980002
 21
267.80019241571551
 31
0.0
 12
359.9275102750608
 22
265.480287739093
 32
0.0
 13
359.9275102750608
 23
265.480287739093
 33
0.0
  0
TEXT
  8
0
  40
3.5
  5
1BE
  62
0
  72
0
  71
0
 10
378.030
 20
267.910
 30
0.000000
  1
120°
  7
NISSIN3_5
  0
POINT
  5
1B0
  8
DEFPOINTS
 62
     0
 10
383.1141467106408
 20
267.5088555725028
 30
0.0
  0
POINT
  5
1B1
  8
DEFPOINTS
 62
     0
 10
364.59787701084957
 20
260.80992100330383
 30
0.0
  0
POINT
  5
1B2
  8
DEFPOINTS
 62
     0
 10
383.83775199681929
 20
255.65461203833749
 30
0.0
  0
POINT
  5
1B3
  8
DEFPOINTS
 62
     0
 10
386.7355285097608
 20
256.43106891482608
 30
0.0
  0
POINT
  5
1B4
  8
DEFPOINTS
 62
     0
 10
362.4765573743968
 20
262.93124063975682
 30
0.0
  0
ENDBLK
  5
1B6
  8
0
  0
BLOCK
  8
0
  2
*U17
 70
     1
 10
0.0
 20
0.0
 30
0.0
  3
*U17
  1

  0
TEXT
  5
1B8
  8
0
 10
452.298176222194
 20
129.14568925325489
 30
0.0
 40
5.0
  1
MODEL []DR-LA50
  7
NISSIN2
  0
TEXT
  5
1B9
  8
0
 10
452.298176222194
 20
120.8123559199216
 30
0.0
 40
5.0
  1
NISSIN ELECTRONIC CO.,LTD.
  7
NISSIN2
  0
ENDBLK
  5
1BB
  8
0
  0
ENDSEC
  0
SECTION
  2
ENTITIES
  0
DIMENSION
  5
2A
  8
寸法
  2
*D9
 10
386.30385518994427
 20
165.51825335169039
 30
0.0
 11
379.83654681647607
 21
165.7044039257386
 31
0.0
 70
   130
 13
352.22960499449499
 23
157.67819301965861
 33
0.0
 14
393.23138547775898
 24
157.67819301965861
 34
0.0
 15
393.85965093817418
 25
159.17819301965861
 35
0.0
 16
380.73270451621943
 26
161.21301092169159
 36
0.0
1001
ACAD
1000
DSTYLE
1002
{
1070
   287
1070
     5
1070
   271
1070
     0
1070
   279
1070
     2
1070
   340
1005
2E
1002
}
  0
LINE
  5
3F
  8
基準線
 10
372.72960499449499
 20
171.17819301965861
 30
0.0
 11
372.72960499449499
 21
176.17819301965861
 31
0.0
  0
LINE
  5
42
  8
基準線
 10
370.22960499449499
 20
173.67819301965861
 30
0.0
 11
375.22960499449499
 21
173.67819301965861
 31
0.0
  0
DIMENSION
  5
43
  8
寸法
  2
*D6
 10
337.72960499449499
 20
177.67819301965869
 30
0.0
 11
335.35460499449499
 21
173.67819301965869
 31
0.0
 13
347.72960499449499
 23
169.67819301965861
 33
0.0
 14
358.72960499449499
 24
177.67819301965869
 34
0.0
 50
90.0
1001
ACAD
1000
DSTYLE
1002
{
1070
   340
1005
46
1002
}
  0
DIMENSION
  5
53
  8
寸法
  2
*D5
 10
384.73138547775898
 20
184.67819301965861
 30
0.0
 11
372.73049523612701
 21
187.05319301965869
 31
0.0
  1
%%c<>
 13
360.72960499449499
 23
177.67819301965869
 33
0.0
 14
384.73138547775898
 24
177.67819301965869
 34
0.0
1001
ACAD
1000
DSTYLE
1002
{
1070
   340
1005
46
1002
}
  0
DIMENSION
  5
62
  8
寸法
  2
*D4
 10
386.73138547775898
 20
194.67819301965861
 30
0.0
 11
372.73049523612701
 21
197.05319301965861
 31
0.0
  1
%%c<>
 13
358.72960499449499
 23
177.67819301965869
 33
0.0
 14
386.73138547775898
 24
177.67819301965869
 34
0.0
1001
ACAD
1000
DSTYLE
1002
{
1070
   340
1005
46
1002
}
  0
DIMENSION
  5
71
  8
寸法
  2
*D3
 10
397.73138547775898
 20
204.67819301965869
 30
0.0
 11
372.73049523612701
 21
207.05319301965861
 31
0.0
  1
%%c<>
 13
347.72960499449499
 23
169.67819301965861
 33
0.0
 14
397.73138547775898
 24
169.67819301965861
 34
0.0
1001
ACAD
1000
DSTYLE
1002
{
1070
   340
1005
46
1002
}
  0
INSERT
  5
80
  8
0
  6
CONTINUOUS
  2
*X13
 10
0.0
 20
0.0
 30
0.0
1001
ACAD
1000
HATCH
1002
{
1070
    19
1000
ANSI31
1040
1.0
1040
0.0
1000
ASC_BOUNDS
1070
     1
1070
     1
1070
    14
1005
B9
1005
BB
1005
9D
1005
83
1005
89
1005
82
1005
BA
1005
8A
1005
8B
1005
8C
1005
B1
1005
B2
1005
B5
1005
B7
1000
ASC_SEEDPOINT
1011
388.60180788461969
1021
-0.0
1031
-0.0
1021
167.10492634086401
1031
0.0
1000
R14_HATCH_DATA
1000
80
1011
1.0
1021
-0.0
1031
-0.0
1021
0.0
1031
0.0
1011
0.0
1021
-0.0
1031
-0.0
1021
1.0
1031
0.0
1011
0.0
1021
-0.0
1031
-0.0
1021
0.0
1031
1.0
1040
0.0
1010
0.0
1020
0.0
1030
1.0
1000
ANSI31
1070
     0
1070
     1
1071
        1
1071
        7
1070
     0
1070
     1
1071
       14
1040
396.23138547775898
1040
166.2842963516903
1040
396.23138547775898
1040
161.17819301965861
1040
394.73138547775898
1040
161.17819301965861
1040
394.73138547775898
1040
159.17819301965861
1040
393.23138547775898
1040
159.17819301965861
1040
393.23138547775898
1040
157.67819301965861
1040
397.73138547775898
1040
157.67819301965861
1040
397.73138547775909
1040
169.67819301965861
1040
386.73138547775892
1040
169.67819301965861
1040
386.73138547775898
1040
177.67819301965869
1040
384.73138547775898
1040
177.67819301965869
1040
384.73138547775898
1040
163.67819301965861
1040
386.23138547775892
1040
163.67819301965861
1040
386.23138547775898
1040
166.2842963516903
1071
       14
1005
B7
1005
B5
1005
B2
1005
B1
1005
8C
1005
8B
1005
8A
1005
BA
1005
82
1005
89
1005
83
1005
9D
1005
BB
1005
B9
1070
     0
1070
     1
1040
0.0
1040
1.0
1070
     0
1070
     1
1040
0.7853981633974483
1040
87.417008080065315
1040
6.2814917843030003
1040
-2.2450640302672871
1040
2.245064030267288
1070
     0
1040
0.1154707092384599
1071
        1
1040
388.60180788461969
1040
167.10492634086401
1040
0.0
1002
}
  0
INSERT
  5
81
  8
0
  6
CONTINUOUS
  2
*X14
 10
0.0
 20
0.0
 30
0.0
1001
ACAD
1000
HATCH
1002
{
1070
    19
1000
ANSI31
1040
1.0
1040
0.0
1000
ASC_BOUNDS
1070
     1
1070
     1
1070
    14
1005
B3
1005
B0
1005
9E
1005
84
1005
BE
1005
85
1005
87
1005
88
1005
BD
1005
BF
1005
BC
1005
B8
1005
B6
1005
B4
1000
ASC_SEEDPOINT
1011
356.49360039018541
1021
-0.0
1031
-0.0
1021
168.1441623921138
1031
0.0
1000
R14_HATCH_DATA
1000
81
1011
1.0
1021
-0.0
1031
-0.0
1021
0.0
1031
0.0
1011
0.0
1021
-0.0
1031
-0.0
1021
1.0
1031
0.0
1011
0.0
1021
-0.0
1031
-0.0
1021
0.0
1031
1.0
1040
0.0
1010
0.0
1020
0.0
1030
1.0
1000
ANSI31
1070
     0
1070
     1
1071
        1
1071
        7
1070
     0
1070
     1
1071
       14
1040
347.72960499449499
1040
169.67819301965861
1040
347.72960499449499
1040
157.67819301965861
1040
352.22960499449499
1040
157.67819301965861
1040
352.22960499449499
1040
159.17819301965861
1040
350.72960499449499
1040
159.17819301965861
1040
350.72960499449499
1040
161.17819301965861
1040
349.22960499449499
1040
161.17819301965861
1040
349.22960499449499
1040
166.2842963516903
1040
359.22960499449499
1040
166.2842963516903
1040
359.22960499449499
1040
163.67819301965861
1040
360.72960499449488
1040
163.67819301965869
1040
360.72960499449499
1040
177.67819301965869
1040
358.72960499449499
1040
177.67819301965869
1040
358.72960499449499
1040
169.67819301965861
1071
       14
1005
B4
1005
B6
1005
B8
1005
BC
1005
BF
1005
BD
1005
88
1005
87
1005
85
1005
BE
1005
84
1005
9E
1005
B0
1005
B3
1070
     0
1070
     1
1040
0.0
1040
1.0
1070
     0
1070
     1
1040
0.7853981633974483
1040
87.417008080065315
1040
6.2814917843030003
1040
-2.2450640302672871
1040
2.245064030267288
1070
     0
1040
0.1154707092384599
1071
        1
1040
356.49360039018541
1040
168.1441623921138
1040
0.0
1002
}
  0
LINE
  5
82
  8
0
 10
394.73138547775898
 20
161.17819301965861
 30
0.0
 11
396.23138547775898
 21
161.17819301965861
 31
0.0
1001
ACAD
1000
ASC_BOUNDS
1002
{
1070
    19
1005
80
1002
}
  0
LINE
  5
83
  8
0
 10
393.23138547775898
 20
159.17819301965861
 30
0.0
 11
394.73138547775898
 21
159.17819301965861
 31
0.0
1001
ACAD
1000
ASC_BOUNDS
1002
{
1070
    19
1005
80
1002
}
  0
LINE
  5
84
  8
0
 10
359.22960499449499
 20
166.2842963516903
 30
0.0
 11
349.22960499449499
 21
166.2842963516903
 31
0.0
1001
ACAD
1000
ASC_BOUNDS
1002
{
1070
    19
1005
81
1002
}
  0
LINE
  5
85
  8
0
 10
350.72960499449499
 20
161.17819301965861
 30
0.0
 11
349.22960499449499
 21
161.17819301965861
 31
0.0
1001
ACAD
1000
ASC_BOUNDS
1002
{
1070
    19
1005
81
1002
}
  0
LINE
  5
86
  8
0
 10
352.22960499449499
 20
157.67819301965861
 30
0.0
 11
393.23138547775898
 21
157.67819301965861
 31
0.0
  0
LINE
  5
87
  8
0
 10
350.72960499449499
 20
159.17819301965861
 30
0.0
 11
350.72960499449499
 21
161.17819301965861
 31
0.0
1001
ACAD
1000
ASC_BOUNDS
1002
{
1070
    19
1005
81
1002
}
  0
LINE
  5
88
  8
0
 10
352.22960499449499
 20
159.17819301965861
 30
0.0
 11
350.72960499449499
 21
159.17819301965861
 31
0.0
1001
ACAD
1000
ASC_BOUNDS
1002
{
1070
    19
1005
81
1002
}
  0
LINE
  5
89
  8
0
 10
394.73138547775898
 20
159.17819301965861
 30
0.0
 11
394.73138547775898
 21
161.17819301965861
 31
0.0
1001
ACAD
1000
ASC_BOUNDS
1002
{
1070
    19
1005
80
1002
}
  0
LINE
  5
8A
  8
0
 10
386.23138547775898
 20
166.2842963516903
 30
0.0
 11
396.23138547775898
 21
166.2842963516903
 31
0.0
1001
ACAD
1000
ASC_BOUNDS
1002
{
1070
    19
1005
80
1002
}
  0
LINE
  5
8B
  8
0
 10
386.23138547775898
 20
163.67819301965861
 30
0.0
 11
386.23138547775898
 21
166.2842963516903
 31
0.0
1001
ACAD
1000
ASC_BOUNDS
1002
{
1070
    19
1005
80
1002
}
  0
LINE
  5
8C
  8
0
 10
384.73138547775898
 20
163.67819301965861
 30
0.0
 11
386.23138547775898
 21
163.67819301965861
 31
0.0
1001
ACAD
1000
ASC_BOUNDS
1002
{
1070
    19
1005
80
1002
}
  0
LINE
  5
8D
  8
0
 10
391.1289071899443
 20
163.55818935169029
 30
0.0
 11
388.21793818994411
 21
166.00079235169039
 31
0.0
  0
LINE
  5
8E
  8
0
 10
394.19307818994412
 20
160.98704835169039
 30
0.0
 11
391.28210918994409
 21
163.42965135169021
 31
0.0
  0
LINE
  5
8F
  8
0
 10
386.9466421899441
 20
166.2842963516903
 30
0.0
 11
386.30385518994427
 21
165.51825335169039
 31
0.0
  0
LINE
  5
90
  8
0
 10
388.21793818994411
 20
166.00079235169039
 30
0.0
 11
387.83226618994411
 21
165.54117235169039
 31
0.0
  0
LINE
  5
91
  8
0
 10
389.79404138773521
 20
162.58964175320949
 30
0.0
 11
388.57274218994422
 21
161.13415835169039
 31
0.0
  0
LINE
  5
92
  8
0
 10
391.28210918994409
 20
163.42965135169021
 30
0.0
 11
390.89643718994432
 21
162.9700313516901
 31
0.0
  0
LINE
  5
93
  8
0
 10
390.5600675557298
 20
161.9468699945713
 30
0.0
 11
389.33877918994398
 21
160.4913893516902
 31
0.0
  0
ARC
  5
94
  8
0
 10
390.48785218994402
 20
159.52720335169019
 30
0.0
 40
1.5
 50
139.99999999999861
 51
319.99999999999858
  0
ARC
  5
95
  8
0
 10
387.42368118994409
 20
162.0983443516902
 30
0.0
 40
1.5
 50
139.99999999999861
 51
319.99999999999858
  0
LINE
  5
96
  8
0
 10
393.80741818994431
 20
160.52742935169019
 30
0.0
 11
394.19307818994412
 21
160.98704835169039
 31
0.0
  0
LINE
  5
97
  8
0
 10
394.5024379381743
 20
159.94423601965869
 30
0.0
 11
393.85965093817418
 21
159.17819301965861
 31
0.0
  0
LINE
  5
98
  8
0
 10
392.85821155541021
 20
160.01849976128591
 30
0.0
 11
391.63691318994421
 21
158.56301735169041
 31
0.0
  0
LINE
  5
99
  8
0
 10
393.85965093817418
 20
159.17819301965861
 30
0.0
 11
386.30385518994427
 21
165.51825335169039
 31
0.0
  0
LINE
  5
9A
  8
0
 10
394.5024379381743
 20
159.94423601965869
 30
0.0
 11
386.9466421899441
 21
166.2842963516903
 31
0.0
  0
LINE
  5
9B
  8
0
 10
390.7432471899441
 20
163.0985703516902
 30
0.0
 11
391.1289071899443
 21
163.55818935169029
 31
0.0
  0
LINE
  5
9C
  8
0
 10
387.49589738805128
 20
164.51801198649781
 30
0.0
 11
386.27460818994399
 21
163.0625303516903
 31
0.0
  0
LINE
  5
9D
  8
0
 10
393.23138547775898
 20
157.67819301965861
 30
0.0
 11
393.23138547775898
 21
159.17819301965861
 31
0.0
1001
ACAD
1000
ASC_BOUNDS
1002
{
1070
    19
1005
80
1002
}
  0
LINE
  5
9E
  8
0
 10
359.22960499449499
 20
163.67819301965861
 30
0.0
 11
359.22960499449499
 21
166.2842963516903
 31
0.0
1001
ACAD
1000
ASC_BOUNDS
1002
{
1070
    19
1005
81
1002
}
  0
LINE
  5
9F
  8
0
 10
354.33208328230978
 20
163.55818935169029
 30
0.0
 11
357.24305228230992
 21
166.00079235169039
 31
0.0
  0
LINE
  5
A0
  8
0
 10
351.26791228230991
 20
160.98704835169039
 30
0.0
 11
354.17888128230987
 21
163.42965135169021
 31
0.0
  0
LINE
  5
A1
  8
0
 10
358.51434828230992
 20
166.2842963516903
 30
0.0
 11
359.1571352823097
 21
165.51825335169039
 31
0.0
  0
LINE
  5
A2
  8
0
 10
357.24305228230992
 20
166.00079235169039
 30
0.0
 11
357.62872428230992
 21
165.54117235169039
 31
0.0
  0
LINE
  5
A3
  8
0
 10
355.66694908451882
 20
162.58964175320949
 30
0.0
 11
356.8882482823098
 21
161.13415835169039
 31
0.0
  0
LINE
  5
A4
  8
0
 10
354.17888128230987
 20
163.42965135169021
 30
0.0
 11
354.5645532823097
 21
162.9700313516901
 31
0.0
  0
LINE
  5
A5
  8
0
 10
354.90092291652428
 20
161.9468699945713
 30
0.0
 11
356.12221128230999
 21
160.4913893516902
 31
0.0
  0
ARC
  5
A6
  8
0
 10
354.97313828231
 20
159.52720335169019
 30
0.0
 40
1.5
 50
220.00000000000131
 51
40.000000000001343
  0
ARC
  5
A7
  8
0
 10
358.03730928230988
 20
162.0983443516902
 30
0.0
 40
1.5
 50
220.00000000000131
 51
40.000000000001343
  0
LINE
  5
A8
  8
0
 10
351.65357228230971
 20
160.52742935169019
 30
0.0
 11
351.26791228230991
 21
160.98704835169039
 31
0.0
  0
LINE
  5
A9
  8
0
 10
350.95855253407967
 20
159.94423601965869
 30
0.0
 11
351.60133953407978
 21
159.17819301965861
 31
0.0
  0
LINE
  5
AA
  8
0
 10
352.60277891684382
 20
160.01849976128591
 30
0.0
 11
353.82407728230982
 21
158.56301735169041
 31
0.0
  0
LINE
  5
AB
  8
0
 10
351.5706709502785
 20
159.17819301965861
 30
0.0
 11
359.1571352823097
 21
165.51825335169039
 31
0.0
  0
LINE
  5
AC
  8
0
 10
350.95855253407967
 20
159.94423601965869
 30
0.0
 11
358.51434828230992
 21
166.2842963516903
 31
0.0
  0
LINE
  5
AD
  8
0
 10
354.71774328230993
 20
163.0985703516902
 30
0.0
 11
354.33208328230978
 21
163.55818935169029
 31
0.0
  0
LINE
  5
AE
  8
0
 10
357.96509308420269
 20
164.51801198649781
 30
0.0
 11
359.18638228230998
 21
163.0625303516903
 31
0.0
  0
LINE
  5
AF
  8
0
 10
360.72960499449499
 20
177.67819301965869
 30
0.0
 11
384.73138547775898
 21
177.67819301965869
 31
0.0
  0
LINE
  5
B0
  8
0
 10
359.22960499449499
 20
163.67819301965861
 30
0.0
 11
384.73138547775898
 21
163.67819301965861
 31
0.0
1001
ACAD
1000
ASC_BOUNDS
1002
{
1070
    19
1005
81
1002
}
  0
LINE
  5
B1
  8
0
 10
384.73138547775898
 20
177.67819301965869
 30
0.0
 11
384.73138547775898
 21
163.67819301965861
 31
0.0
1001
ACAD
1000
ASC_BOUNDS
1002
{
1070
    19
1005
80
1002
}
  0
LINE
  5
B2
  8
0
 10
386.73138547775898
 20
177.67819301965869
 30
0.0
 11
384.73138547775898
 21
177.67819301965869
 31
0.0
1001
ACAD
1000
ASC_BOUNDS
1002
{
1070
    19
1005
80
1002
}
  0
LINE
  5
B3
  8
0
 10
360.72960499449499
 20
177.67819301965869
 30
0.0
 11
360.72960499449499
 21
163.67819301965861
 31
0.0
1001
ACAD
1000
ASC_BOUNDS
1002
{
1070
    19
1005
81
1002
}
  0
LINE
  5
B4
  8
0
 10
358.72960499449499
 20
177.67819301965869
 30
0.0
 11
360.72960499449499
 21
177.67819301965869
 31
0.0
1001
ACAD
1000
ASC_BOUNDS
1002
{
1070
    19
1005
81
1002
}
  0
LINE
  5
B5
  8
0
 10
386.73138547775898
 20
169.67819301965861
 30
0.0
 11
386.73138547775898
 21
177.67819301965869
 31
0.0
1001
ACAD
1000
ASC_BOUNDS
1002
{
1070
    19
1005
80
1002
}
  0
LINE
  5
B6
  8
0
 10
358.72960499449499
 20
169.67819301965861
 30
0.0
 11
358.72960499449499
 21
177.67819301965869
 31
0.0
1001
ACAD
1000
ASC_BOUNDS
1002
{
1070
    19
1005
81
1002
}
  0
LINE
  5
B7
  8
0
 10
397.73138547775898
 20
169.67819301965861
 30
0.0
 11
386.73138547775898
 21
169.67819301965861
 31
0.0
1001
ACAD
1000
ASC_BOUNDS
1002
{
1070
    19
1005
80
1002
}
  0
LINE
  5
B8
  8
0
 10
347.72960499449499
 20
169.67819301965861
 30
0.0
 11
358.72960499449499
 21
169.67819301965861
 31
0.0
1001
ACAD
1000
ASC_BOUNDS
1002
{
1070
    19
1005
81
1002
}
  0
LINE
  5
B9
  8
0
 10
397.73138547775898
 20
157.67819301965861
 30
0.0
 11
397.73138547775898
 21
169.67819301965861
 31
0.0
1001
ACAD
1000
ASC_BOUNDS
1002
{
1070
    19
1005
80
1002
}
  0
LINE
  5
BA
  8
0
 10
396.23138547775898
 20
161.17819301965861
 30
0.0
 11
396.23138547775898
 21
166.2842963516903
 31
0.0
1001
ACAD
1000
ASC_BOUNDS
1002
{
1070
    19
1005
80
1002
}
  0
LINE
  5
BB
  8
0
 10
397.73138547775898
 20
157.67819301965861
 30
0.0
 11
393.23138547775898
 21
157.67819301965861
 31
0.0
1001
ACAD
1000
ASC_BOUNDS
1002
{
1070
    19
1005
80
1002
}
  0
LINE
  5
BC
  8
0
 10
347.72960499449499
 20
157.67819301965861
 30
0.0
 11
347.72960499449499
 21
169.67819301965861
 31
0.0
1001
ACAD
1000
ASC_BOUNDS
1002
{
1070
    19
1005
81
1002
}
  0
LINE
  5
BD
  8
0
 10
352.22960499449499
 20
157.67819301965861
 30
0.0
 11
352.22960499449499
 21
159.17819301965861
 31
0.0
1001
ACAD
1000
ASC_BOUNDS
1002
{
1070
    19
1005
81
1002
}
  0
LINE
  5
BE
  8
0
 10
349.22960499449499
 20
161.17819301965861
 30
0.0
 11
349.22960499449499
 21
166.2842963516903
 31
0.0
1001
ACAD
1000
ASC_BOUNDS
1002
{
1070
    19
1005
81
1002
}
  0
LINE
  5
BF
  8
0
 10
347.72960499449499
 20
157.67819301965861
 30
0.0
 11
352.22960499449499
 21
157.67819301965861
 31
0.0
1001
ACAD
1000
ASC_BOUNDS
1002
{
1070
    19
1005
81
1002
}
  0
LINE
  5
C0
  8
基準線
 10
369.75318597581611
 20
241.57004601733439
 30
0.0
 11
368.97672909932749
 21
238.672269504393
 31
0.0
  0
LINE
  5
C1
  8
基準線
 10
364.59787701084957
 20
260.80992100330383
 30
0.0
 11
362.4765573743968
 21
262.93124063975682
 31
0.0
  0
LINE
  5
C2
  8
基準線
 10
383.83775199681941
 20
255.6546120383376
 30
0.0
 11
386.7355285097608
 21
256.43106891482608
 31
0.0
  0
DIMENSION
  5
C3
  8
寸法
  2
*D15
 10
369.1061386218787
 20
239.15523241753749
 30
0.0
 11
352.89905583653962
 21
247.3646133873186
 31
0.0
 70
     2
 13
364.59787701084957
 23
260.80992100330383
 33
0.0
 14
362.4765573743968
 24
262.93124063975682
 34
0.0
 15
369.62377645326478
 25
241.08708310418979
 35
0.0
 16
354.64359542517479
 26
254.26051382539529
 36
0.0
1001
ACAD
1000
DSTYLE
1002
{
1070
   271
1070
     0
1070
    77
1070
     2
1070
   340
1005
46
1002
}
  0
DIMENSION
  5
D4
  8
寸法
  2
*D16
 10
362.4765573743968
 20
262.93124063975682
 30
0.0
 11
378.03019211558069
 21
272.46025346549641
 31
0.0
 70
     2
 13
383.83775199681941
 23
255.6546120383376
 33
0.0
 14
386.7355285097608
 24
256.43106891482608
 34
0.0
 15
364.59787701084957
 25
260.80992100330383
 35
0.0
 16
383.1141467106408
 26
267.5088555725028
 36
0.0
1001
ACAD
1000
DSTYLE
1002
{
1070
   271
1070
     0
1070
   340
1005
46
1002
}
  0
LINE
  5
E5
  8
補助
 10
368.19924752947333
 20
241.5662237414829
 30
0.0
 11
367.67810787602008
 21
239.6213040769571
 31
0.0
  0
LINE
  5
E7
  8
補助
 10
371.09702500834061
 20
240.78976660617531
 30
0.0
 11
370.57588535488742
 21
238.84484694164951
 31
0.0
  0
LINE
  5
E8
  8
補助
 10
363.25021570247372
 20
260.03626196812002
 30
0.0
 11
361.82643569140112
 21
261.46004197919279
 31
0.0
  0
LINE
  5
E9
  8
補助
 10
365.37153604603338
 20
262.15758231167968
 30
0.0
 11
363.94775603496072
 21
263.58136232275251
 31
0.0
  0
LINE
  5
EA
  8
補助
 10
384.61803140797838
 20
254.3107730058131
 30
0.0
 11
386.56295107250412
 21
254.83191265926621
 31
0.0
  0
LINE
  5
EB
  8
補助
 10
383.84157427267093
 20
257.2085504846803
 30
0.0
 11
385.78649393719661
 21
257.72969013813338
 31
0.0
  0
CIRCLE
  5
EC
  8
0
 10
372.72960499449499
 20
173.67819301965861
 30
0.0
 40
1.1999999999999991
  0
CIRCLE
  5
ED
  8
0
 10
372.72960499449499
 20
173.67819301965861
 30
0.0
 40
1.5
  0
CIRCLE
  5
EE
  8
0
 10
372.72960499449511
 20
252.67819301965869
 30
0.0
 40
25.0
  0
CIRCLE
  5
EF
  8
0
 10
372.72960499449499
 20
252.67819301965861
 30
0.0
 40
13.999999000000001
  0
CIRCLE
  5
F0
  8
0
 10
372.72960499449511
 20
252.67819301965869
 30
0.0
 40
12.0
  0
INSERT
  5
F1
  8
0
  2
*U17
 10
0.0
 20
0.0
 30
0.0
  0
LINE
  5
F4
  8
図形
 10
444.7480054777584
 20
192.9510880196587
 30
0.0
 11
444.7480054777584
 21
191.4510880196587
 31
0.0
  0
LINE
  5
F5
  8
図形
 10
441.2480054777584
 20
193.95108801965881
 30
0.0
 11
441.2480054777584
 21
194.95108801965881
 31
0.0
  0
LINE
  5
F6
  8
図形
 10
441.7480054777584
 20
191.4510880196587
 30
0.0
 11
444.7480054777584
 21
191.4510880196587
 31
0.0
  0
LINE
  5
F7
  8
図形
 10
444.7480054777584
 20
187.4510880196587
 30
0.0
 11
444.74800547775828
 21
185.95108801965881
 31
0.0
  0
LINE
  5
F8
  8
図形
 10
441.74800547775828
 20
187.4510880196587
 30
0.0
 11
444.7480054777584
 21
187.4510880196587
 31
0.0
  0
LINE
  5
F9
  8
図形
 10
441.7480054777584
 20
191.4510880196587
 30
0.0
 11
441.7480054777584
 21
187.4510880196587
 31
0.0
  0
LINE
  5
FA
  8
図形
 10
436.2480054777584
 20
193.95108801965881
 30
0.0
 11
436.2480054777584
 21
191.9510880196587
 31
0.0
  0
LINE
  5
FB
  8
図形
 10
435.24800547775851
 20
193.95108801965881
 30
0.0
 11
435.24800547775851
 21
191.9510880196587
 31
0.0
  0
LINE
  5
FC
  8
図形
 10
431.24800547775851
 20
194.95108801965881
 30
0.0
 11
431.24800547775851
 21
193.95108801965881
 31
0.0
  0
LINE
  5
FD
  8
図形
 10
426.54803547775839
 20
191.9510880196587
 30
0.0
 11
436.7480054777584
 21
191.9510880196587
 31
0.0
  0
LINE
  5
FE
  8
図形
 10
416.33092388999762
 20
191.05577810390329
 30
0.0
 11
415.33882547775852
 21
191.05577810390329
 31
0.0
  0
LINE
  5
FF
  8
図形
 10
418.62771834291959
 20
191.05215709524961
 30
0.0
 11
426.54803547775839
 21
191.0511030196588
 31
0.0
  0
LINE
  5
100
  8
図形
 10
426.54803547775839
 20
186.9510880196587
 30
0.0
 11
436.7480054777584
 21
186.9510880196587
 31
0.0
  0
ARC
  5
101
  8
図形
 10
419.52528302982068
 20
188.6558183313422
 30
0.0
 40
1.1999075525789289
 50
138.18831386179249
 51
221.8162107794773
  0
ARC
  5
102
  8
図形
 10
417.73657547775849
 20
188.6557830196588
 30
0.0
 40
1.199999999999978
 50
318.18999999999988
 51
41.809997000001331
  0
ARC
  5
103
  8
図形
 10
415.43655547775847
 20
188.6557830196588
 30
0.0
 40
1.199999999999978
 50
318.18999999999988
 51
41.809997000001331
  0
LINE
  5
104
  8
図形
 10
416.33098706551942
 20
187.85578793541421
 30
0.0
 11
415.33138547775911
 21
187.85578793541421
 31
0.0
  0
ARC
  5
105
  8
図形
 10
415.33138547775911
 20
180.85578793541401
 30
0.0
 40
7.0
 50
90.0
 51
180.0
  0
LINE
  5
106
  8
図形
 10
408.331385477759
 20
180.85578793541401
 30
0.0
 11
408.331385477759
 21
171.67819301965861
 31
0.0
  0
TEXT
  5
107
  8
0
 10
412.2821897169573
 20
178.89595958484051
 30
0.0
 40
5.0
  1
L=500
  7
NISSIN5
  0
LINE
  5
108
  8
図形
 10
418.63100706551938
 20
187.85578793541421
 30
0.0
 11
426.54803547775839
 21
187.85107301965871
 31
0.0
  0
ARC
  5
109
  8
図形
 10
417.2253554777584
 20
190.25578301965859
 30
0.0
 40
1.200000000000039
 50
138.18999999999991
 51
221.8099900000004
  0
ARC
  5
10A
  8
図形
 10
415.43655547775847
 20
190.25578301965859
 30
0.0
 40
1.199999999999978
 50
318.18999999999988
 51
41.809997000001331
  0
LINE
  5
10B
  8
図形
 10
426.54803547775839
 20
191.9510880196587
 30
0.0
 11
426.54803547775839
 21
186.9510880196587
 31
0.0
  0
ARC
  5
10C
  8
図形
 10
419.52537547775859
 20
190.25578301965859
 30
0.0
 40
1.2000000000002089
 50
138.19000000000909
 51
221.80998999999531
  0
LINE
  5
10D
  8
図形
 10
436.7480054777584
 20
192.9510880196587
 30
0.0
 11
436.7480054777584
 21
185.95108801965881
 31
0.0
  0
LINE
  5
10E
  8
図形
 10
404.7388254777585
 20
180.4557781039033
 30
0.0
 11
404.7388254777585
 21
171.2740830196588
 31
0.0
  0
ARC
  5
10F
  8
図形
 10
397.7388254777585
 20
171.2740830196588
 30
0.0
 40
6.9999999999999973
 50
270.0
 51
0.0
  0
ARC
  5
110
  8
図形
 10
415.33882547775852
 20
180.4557781039033
 30
0.0
 40
10.6
 50
90.0
 51
180.0
  0
ARC
  5
111
  8
図形
 10
397.73138547775898
 20
171.67819301965861
 30
0.0
 40
10.6
 50
270.0
 51
0.0
  0
LINE
  5
112
  8
図形
 10
441.2480054777584
 20
193.95108801965881
 30
0.0
 11
431.24800547775851
 21
193.95108801965881
 31
0.0
  0
LINE
  5
113
  8
図形
 10
441.2480054777584
 20
194.95108801965881
 30
0.0
 11
431.24800547775851
 21
194.95108801965881
 31
0.0
  0
LINE
  5
114
  8
図形
 10
436.7480054777584
 20
185.95108801965881
 30
0.0
 11
444.74800547775828
 21
185.95108801965881
 31
0.0
  0
LINE
  5
115
  8
図形
 10
436.7480054777584
 20
192.9510880196587
 30
0.0
 11
444.7480054777584
 21
192.9510880196587
 31
0.0
  0
ARC
  5
116
  8
図形
 10
443.05056887170571
 20
224.47602294958679
 30
0.0
 40
1.0
 50
45.000000000001123
 51
135.0
  0
LINE
  5
117
  8
図形
 10
442.16671367949402
 20
225.00635303547659
 30
0.0
 11
441.63638359360391
 21
224.47602294958671
 31
0.0
  0
LINE
  5
118
  8
図形
 10
442.34347623265501
 20
225.18311558863769
 30
0.0
 11
442.16671367949402
 21
225.00635303547659
 31
0.0
  0
LINE
  5
119
  8
図形
 10
442.34347623265478
 20
225.18311558863761
 30
0.0
 11
442.1667136794938
 21
225.00635303547659
 31
0.0
  0
LINE
  5
11A
  8
図形
 10
443.75768272396027
 20
225.18313680184099
 30
0.0
 11
448.7074301922662
 21
220.2333893335352
 31
0.0
  0
LINE
  5
11B
  8
図形
 10
446.58611691977438
 20
219.5262896234164
 30
0.0
 11
443.7576968660959
 21
216.69786956973809
 31
0.0
  0
LINE
  5
11C
  8
図形
 10
448.7074301922662
 20
220.2333893335352
 30
0.0
 11
443.05059715597719
 21
214.5765562972463
 31
0.0
  0
LINE
  5
11D
  8
図形
 10
445.17189628633332
 20
220.94051025685729
 30
0.0
 11
442.34347623265501
 21
218.11209020317901
 31
0.0
  0
ARC
  5
11E
  8
図形
 10
428.46115285353528
 20
235.96801428131209
 30
0.0
 40
1.200000000000031
 50
93.189999999997752
 51
176.8099900000023
  0
LINE
  5
11F
  8
図形
 10
428.39437616150752
 20
237.16615487131051
 30
0.0
 11
427.69285664660879
 21
237.8676743862091
 31
0.0
  0
ARC
  5
120
  8
図形
 10
427.19628024334878
 20
237.23288689149859
 30
0.0
 40
1.1999999999999811
 50
273.18999999999772
 51
356.80999700000018
  0
ARC
  5
121
  8
図形
 10
427.69126913231509
 20
234.47515630273551
 30
0.0
 40
1.1999999999999891
 50
273.18999999999772
 51
356.80999700000018
  0
ARC
  5
122
  8
図形
 10
428.95614174250159
 20
233.2102836925491
 30
0.0
 40
1.199999999999978
 50
93.189999999999429
 51
176.8099900000056
  0
ARC
  5
123
  8
図形
 10
426.06490939345048
 20
236.10151604160009
 30
0.0
 40
1.1999999999999891
 50
273.18999999999772
 51
356.80999700000018
  0
LINE
  5
124
  8
図形
 10
426.13168608547829
 20
234.90337545160151
 30
0.0
 11
425.42486102428819
 21
235.61020051279181
 31
0.0
  0
ARC
  5
125
  8
図形
 10
430.08751259239978
 20
234.34165454244749
 30
0.0
 40
1.200000000000021
 50
93.189999999997752
 51
176.8099900000056
  0
LINE
  5
126
  8
図形
 10
430.02724588143951
 20
235.54618973099511
 30
0.0
 11
434.14108706836561
 21
231.40569061841839
 31
0.0
  0
ARC
  5
127
  8
図形
 10
420.19752476603128
 20
230.37234250563171
 30
0.0
 40
10.6
 50
44.999999999999993
 51
135.0
  0
ARC
  5
128
  8
図形
 10
420.47511355598232
 20
230.66045304448591
 30
0.0
 40
7.0
 50
44.999999999999993
 51
135.0
  0
LINE
  5
129
  8
図形
 10
435.97954348624722
 20
224.47602294958659
 30
0.0
 11
438.80796353992571
 21
227.30444300326499
 31
0.0
  0
LINE
  5
12A
  8
図形
 10
435.27240134972169
 20
225.1831650861123
 30
0.0
 11
438.10082140339989
 21
228.0115851397907
 31
0.0
  0
ARC
  5
12B
  8
図形
 10
438.80796353992571
 20
220.23341761780659
 30
0.0
 40
1.0
 50
135.0
 51
225.0
  0
LINE
  5
12C
  8
図形
 10
438.10087090087478
 20
220.94051025685741
 30
0.0
 11
438.27763345403571
 21
221.11727281001839
 31
0.0
  0
LINE
  5
12D
  8
図形
 10
438.27763345403571
 20
221.11727281001839
 30
0.0
 11
438.80796353992571
 21
221.64760289590839
 31
0.0
  0
LINE
  5
12E
  8
図形
 10
438.27763345403571
 20
221.11727281001839
 30
0.0
 11
431.06515135700062
 21
228.32975490705351
 31
0.0
  0
LINE
  5
12F
  8
図形
 10
415.52536608767639
 20
235.61020051279169
 30
0.0
 11
409.03582648776262
 21
229.1206609128779
 31
0.0
  0
LINE
  5
130
  8
図形
 10
427.75872711924018
 20
233.28914024078671
 30
0.0
 11
431.8853032992954
 21
229.14990684934821
 31
0.0
  0
LINE
  5
131
  8
図形
 10
431.06515135700062
 20
228.32975490705351
 30
0.0
 11
434.95423158245887
 21
232.2188351325116
 31
0.0
  0
LINE
  5
132
  8
図形
 10
444.46480364728251
 20
215.99076278855159
 30
0.0
 11
435.27240134972169
 21
225.1831650861123
 31
0.0
  0
LINE
  5
133
  8
図形
  6
CONTINUOUS
 10
438.10084968767143
 20
219.52630376555209
 30
0.0
 11
443.05059715597719
 21
214.5765562972463
 31
0.0
  0
LINE
  5
134
  8
図形
 10
444.606210861384
 20
220.37482483190809
 30
0.0
 11
438.24227811497627
 21
226.73875757831581
 31
0.0
  0
LINE
  5
135
  8
図形
 10
444.04052543643479
 20
219.80913940695879
 30
0.0
 11
437.67659269002718
 21
226.1730721533666
 31
0.0
  0
LINE
  5
136
  8
図形
 10
443.47484708255342
 20
219.2434610530774
 30
0.0
 11
437.1109143361457
 21
225.6073937994851
 31
0.0
  0
LINE
  5
137
  8
図形
 10
442.90916165760422
 20
218.67777562812819
 30
0.0
 11
436.54522891119638
 21
225.04170837453589
 31
0.0
  0
LINE
  5
138
  8
図形
 10
447.29322370096088
 20
218.81918284222979
 30
0.0
 11
438.10082140339989
 21
228.0115851397907
 31
0.0
  0
LINE
  5
139
  8
図形
 10
434.95423158245887
 20
232.2188351325116
 30
0.0
 11
442.16671367949402
 21
225.00635303547659
 31
0.0
  0
LINE
  5
13A
  8
図形
 10
391.55096931098711
 20
236.13452531035139
 30
0.0
 11
396.31025909198581
 21
231.37523552935269
 31
0.0
  0
ARC
  5
13B
  8
図形
 10
401.26000656029157
 20
236.32498299765851
 30
0.0
 40
6.9999999999999973
 50
225.0
 51
315.0
  0
LINE
  5
13C
  8
図形
 10
389.28628428720179
 20
233.8795393522841
 30
0.0
 11
394.04516272660783
 21
229.12066091287809
 31
0.0
  0
ARC
  5
13D
  8
図形
 10
401.54049460718522
 20
236.6159927934554
 30
0.0
 40
10.6
 50
225.0
 51
315.0
  0
LINE
  5
13E
  8
図形
 10
412.702192885454
 20
237.8676743862091
 30
0.0
 11
406.20975402859739
 21
231.37523552935261
 31
0.0
  0
DIMENSION
  5
13F
  8
寸法
  2
*D0
 10
327.72960499449499
 20
157.67819301965861
 30
0.0
 11
325.35460499449499
 21
167.67819301965869
 31
0.0
 13
358.72960499449499
 23
177.67819301965869
 33
0.0
 14
347.72960499449499
 24
157.67819301965861
 34
0.0
 50
270.0
1001
ACAD
1000
DSTYLE
1002
{
1070
   340
1005
46
1002
}
  0
LINE
  5
14C
  8
基準線
 10
372.72960499449499
 20
181.67819301965869
 30
0.0
 11
372.72960499449499
 21
153.67819301965861
 31
0.0
  0
LINE
  5
14D
  8
基準線
 10
372.72960499449499
 20
223.67819301965861
 30
0.0
 11
372.72960499449499
 21
281.67819301965869
 31
0.0
  0
LINE
  5
14E
  8
基準線
 10
401.72960499449511
 20
252.67819301965869
 30
0.0
 11
343.72960499449511
 21
252.67819301965869
 31
0.0
  0
DIMENSION
  5
14F
  8
寸法
  2
*D7
 10
391.73138547775898
 20
173.67819301965861
 30
0.0
 11
394.10638547775892
 21
175.67819301965869
 31
0.0
 13
386.73138547775898
 23
177.67819301965869
 33
0.0
 14
372.72960499449499
 24
173.67819301965861
 34
0.0
 50
90.0
1001
ACAD
1000
DSTYLE
1002
{
1070
    77
1070
     2
1070
   340
1005
46
1002
}
  0
ENDSEC
  0
EOF
