  0
SECTION
  2
HEADER
  9
$ACADVER
  1
AC1009
  9
$INSBASE
 10
0.0
 20
0.0
 30
0.0
  9
$EXTMIN
 10
333.19597555287061
 20
120.647985603267
 30
0.0
  9
$EXTMAX
 10
536.48599348107723
 20
281.67819301965869
 30
0.0
  9
$LIMMIN
 10
0.0
 20
0.0
  9
$LIMMAX
 10
420.0
 20
297.0
  9
$ORTHOMODE
 70
     0
  9
$REGENMODE
 70
     1
  9
$FILLMODE
 70
     1
  9
$QTEXTMODE
 70
     0
  9
$MIRRTEXT
 70
     1
  9
$DRAGMODE
 70
     2
  9
$LTSCALE
 40
1.0
  9
$OSMODE
 70
    39
  9
$ATTMODE
 70
     1
  9
$TEXTSIZE
 40
2.5
  9
$TRACEWID
 40
1.0
  9
$TEXTSTYLE
  7
STANDARD
  9
$CLAYER
  8
0
  9
$CELTYPE
  6
BYLAYER
  9
$CECOLOR
 62
   256
  9
$DIMSCALE
 40
1.0
  9
$DIMASZ
 40
2.5
  9
$DIMEXO
 40
0.625
  9
$DIMDLI
 40
3.75
  9
$DIMRND
 40
0.0
  9
$DIMDLE
 40
0.0
  9
$DIMEXE
 40
1.25
  9
$DIMTP
 40
0.0
  9
$DIMTM
 40
0.0
  9
$DIMTXT
 40
2.5
  9
$DIMCEN
 40
2.5
  9
$DIMTSZ
 40
0.0
  9
$DIMTOL
 70
     0
  9
$DIMLIM
 70
     0
  9
$DIMTIH
 70
     0
  9
$DIMTOH
 70
     0
  9
$DIMSE1
 70
     0
  9
$DIMSE2
 70
     0
  9
$DIMTAD
 70
     1
  9
$DIMZIN
 70
     8
  9
$DIMBLK
  1

  9
$DIMASO
 70
     1
  9
$DIMSHO
 70
     1
  9
$DIMPOST
  1

  9
$DIMAPOST
  1

  9
$DIMALT
 70
     0
  9
$DIMALTD
 70
     3
  9
$DIMALTF
 40
0.03937007874016
  9
$DIMLFAC
 40
1.0
  9
$DIMTOFL
 70
     1
  9
$DIMTVP
 40
0.0
  9
$DIMTIX
 70
     0
  9
$DIMSOXD
 70
     0
  9
$DIMSAH
 70
     0
  9
$DIMBLK1
  1

  9
$DIMBLK2
  1

  9
$DIMSTYLE
  2
ISO-25
  9
$DIMCLRD
 70
     0
  9
$DIMCLRE
 70
     0
  9
$DIMCLRT
 70
     0
  9
$DIMTFAC
 40
1.0
  9
$DIMGAP
 40
0.625
  9
$LUNITS
 70
     2
  9
$LUPREC
 70
     4
  9
$SKETCHINC
 40
1.0
  9
$FILLETRAD
 40
10.0
  9
$AUNITS
 70
     0
  9
$AUPREC
 70
     0
  9
$MENU
  1
.
  9
$ELEVATION
 40
0.0
  9
$PELEVATION
 40
0.0
  9
$THICKNESS
 40
0.0
  9
$LIMCHECK
 70
     0
  9
$BLIPMODE
 70
     0
  9
$CHAMFERA
 40
10.0
  9
$CHAMFERB
 40
10.0
  9
$SKPOLY
 70
     0
  9
$TDCREATE
 40
2454873.669344224
  9
$TDUPDATE
 40
2455085.6346431831
  9
$TDINDWG
 40
0.4620534954
  9
$TDUSRTIMER
 40
0.4620534954
  9
$USRTIMER
 70
     1
  9
$ANGBASE
 50
0.0
  9
$ANGDIR
 70
     0
  9
$PDMODE
 70
     0
  9
$PDSIZE
 40
0.0
  9
$PLINEWID
 40
0.0
  9
$COORDS
 70
     2
  9
$SPLFRAME
 70
     0
  9
$SPLINETYPE
 70
     6
  9
$SPLINESEGS
 70
     8
  9
$ATTDIA
 70
     0
  9
$ATTREQ
 70
     1
  9
$HANDLING
 70
 22529
  9
$HANDSEED
  5
16C
  9
$SURFTAB1
 70
     6
  9
$SURFTAB2
 70
     6
  9
$SURFTYPE
 70
     6
  9
$SURFU
 70
     6
  9
$SURFV
 70
     6
  9
$UCSNAME
  2

  9
$UCSORG
 10
0.0
 20
0.0
 30
0.0
  9
$UCSXDIR
 10
1.0
 20
0.0
 30
0.0
  9
$UCSYDIR
 10
0.0
 20
1.0
 30
0.0
  9
$PUCSNAME
  2

  9
$PUCSORG
 10
0.0
 20
0.0
 30
0.0
  9
$PUCSXDIR
 10
1.0
 20
0.0
 30
0.0
  9
$PUCSYDIR
 10
0.0
 20
1.0
 30
0.0
  9
$USERI1
 70
     0
  9
$USERI2
 70
     0
  9
$USERI3
 70
     0
  9
$USERI4
 70
     0
  9
$USERI5
 70
     0
  9
$USERR1
 40
0.0
  9
$USERR2
 40
0.0
  9
$USERR3
 40
0.0
  9
$USERR4
 40
0.0
  9
$USERR5
 40
0.0
  9
$WORLDVIEW
 70
     1
  9
$SHADEDGE
 70
     3
  9
$SHADEDIF
 70
    70
  9
$TILEMODE
 70
     1
  9
$MAXACTVP
 70
    64
  9
$PLIMCHECK
 70
     0
  9
$PEXTMIN
 10
1.146349085891772
 20
2.3954699130834451
 30
0.0
  9
$PEXTMAX
 10
288.43693587376322
 20
201.0508415499194
 30
0.0
  9
$PLIMMIN
 10
-3.17498779296875
 20
-3.1749999523162842
  9
$PLIMMAX
 10
293.85684204101562
 20
206.7348358631134
  9
$UNITMODE
 70
     0
  9
$VISRETAIN
 70
     1
  9
$PLINEGEN
 70
     0
  9
$PSLTSCALE
 70
     1
  0
ENDSEC
  0
SECTION
  2
TABLES
  0
TABLE
  2
VPORT
 70
     1
  0
VPORT
  2
*ACTIVE
 70
     0
 10
0.0
 20
0.0
 11
1.0
 21
1.0
 12
421.81178476432831
 22
196.7172352501243
 13
0.0
 23
0.0
 14
10.0
 24
10.0
 15
10.0
 25
10.0
 16
0.0
 26
0.0
 36
1.0
 17
0.0
 27
0.0
 37
0.0
 40
231.44804796441679
 41
1.710651828298887
 42
50.0
 43
0.0
 44
0.0
 50
0.0
 51
0.0
 71
     0
 72
   100
 73
     1
 74
     3
 75
     0
 76
     0
 77
     0
 78
     0
  0
ENDTAB
  0
TABLE
  2
LTYPE
 70
     2
  0
LTYPE
  2
CONTINUOUS
 70
     0
  3
Solid line
 72
    65
 73
     0
 40
0.0
  0
LTYPE
  2
CENTER
 70
     0
  3
Center ____ _ ____ _ ____ _ ____ _ ____ _ ____
 72
    65
 73
     4
 40
50.799999999999997
 49
31.75
 49
-6.3499999999999988
 49
6.3499999999999988
 49
-6.3499999999999988
  0
ENDTAB
  0
TABLE
  2
LAYER
 70
     5
  0
LAYER
  2
0
 70
     0
 62
     7
  6
CONTINUOUS
  0
LAYER
  2
基準線
 70
     0
 62
     1
  6
CENTER
  0
LAYER
  2
図形
 70
     0
 62
     7
  6
CONTINUOUS
  0
LAYER
  2
寸法
 70
     0
 62
     5
  6
CONTINUOUS
  0
LAYER
  2
DEFPOINTS
 70
     0
 62
     7
  6
CONTINUOUS
  0
ENDTAB
  0
TABLE
  2
STYLE
 70
     5
  0
STYLE
  2
STANDARD
 70
     0
 40
0.0
 41
1.0
 50
0.0
 71
     0
 42
2.5
  3
txt
  4

  0
STYLE
  2
NISSIN5
 70
     0
 40
5.0
 41
1.0
 50
0.0
 71
     0
 42
3.5
  3
txt
  4

  0
STYLE
  2
NISSIN3_5
 70
     0
 40
3.5
 41
1.0
 50
0.0
 71
     0
 42
3.5
  3
txt
  4

  0
STYLE
  2
NISSIN3
 70
     0
 40
3.0
 41
1.0
 50
0.0
 71
     0
 42
4.0
  3
txt
  4

  0
STYLE
  2
NISSIN2
 70
     0
 40
2.0
 41
1.0
 50
0.0
 71
     0
 42
4.0
  3
txt
  4

  0
ENDTAB
  0
TABLE
  2
VIEW
 70
     0
  0
ENDTAB
  0
TABLE
  2
UCS
 70
     0
  0
ENDTAB
  0
TABLE
  2
APPID
 70
     1
  0
APPID
  2
ACAD
 70
     0
  0
ENDTAB
  0
TABLE
  2
DIMSTYLE
 70
     4
  0
DIMSTYLE
  2
ISO-25
 70
     0
  3

  4

  5

  6

  7

 40
1.0
 41
2.5
 42
0.625
 43
3.75
 44
1.25
 45
0.0
 46
0.0
 47
0.0
 48
0.0
140
2.5
141
2.5
142
0.0
143
0.03937007874016
144
1.0
145
0.0
146
1.0
147
0.625
 71
     0
 72
     0
 73
     0
 74
     0
 75
     0
 76
     0
 77
     1
 78
     8
170
     0
171
     3
172
     1
173
     0
174
     0
175
     0
176
     0
177
     0
178
     0
  0
DIMSTYLE
  2
NISSINSTYLE
 70
     0
  3

  4

  5

  6

  7

 40
1.0
 41
3.0
 42
2.0
 43
3.75
 44
3.0
 45
0.0
 46
0.0
 47
0.0
 48
0.0
140
3.5
141
3.0
142
0.0
143
0.03937007874016
144
1.0
145
0.0
146
1.0
147
0.625
 71
     0
 72
     0
 73
     0
 74
     0
 75
     0
 76
     0
 77
     1
 78
     8
170
     0
171
     3
172
     1
173
     0
174
     0
175
     0
176
     0
177
     0
178
     0
  0
DIMSTYLE
  2
JIS
 70
     0
  3

  4

  5

  6

  7

 40
1.0
 41
2.5
 42
1.0
 43
7.0
 44
1.0
 45
0.0
 46
0.0
 47
0.0
 48
0.0
140
2.5
141
0.0
142
0.0
143
0.0394
144
1.0
145
0.0
146
1.0
147
0.0
 71
     0
 72
     0
 73
     0
 74
     0
 75
     0
 76
     0
 77
     1
 78
     8
170
     0
171
     2
172
     1
173
     0
174
     1
175
     1
176
     0
177
     0
178
     0
  0
DIMSTYLE
  2
STANDARD
 70
     0
  3

  4

  5

  6

  7

 40
1.0
 41
0.18
 42
0.0625
 43
0.38
 44
0.18
 45
0.0
 46
0.0
 47
0.0
 48
0.0
140
0.18
141
0.09
142
0.0
143
25.399999999999999
144
1.0
145
0.0
146
1.0
147
0.09
 71
     0
 72
     0
 73
     1
 74
     1
 75
     0
 76
     0
 77
     0
 78
     0
170
     0
171
     2
172
     0
173
     0
174
     0
175
     0
176
     0
177
     0
178
     0
  0
ENDTAB
  0
ENDSEC
  0
SECTION
  2
BLOCKS
  0
BLOCK
  8
0
  2
$MODEL_SPACE
 70
     0
 10
0.0
 20
0.0
 30
0.0
  3
$MODEL_SPACE
  1

  0
ENDBLK
  5
B
  8
0
  0
BLOCK
 67
     1
  8
0
  2
$PAPER_SPACE
 70
     0
 10
0.0
 20
0.0
 30
0.0
  3
$PAPER_SPACE
  1

  0
ENDBLK
  5
10
 67
     1
  8
0
  0
BLOCK
  8
0
  2
*D0
 70
     1
 10
0.0
 20
0.0
 30
0.0
  3
*D0
  1

  0
LINE
  5
11D
  8
寸法
 62
     0
 10
345.72960499449499
 20
177.67819301965869
 30
0.0
 11
334.72960499449499
 21
177.67819301965869
 31
0.0
  0
LINE
  5
11E
  8
寸法
 62
     0
 10
345.72960499449499
 20
159.67819301965861
 30
0.0
 11
334.72960499449499
 21
159.67819301965861
 31
0.0
  0
LINE
  5
11F
  8
寸法
 62
     0
 10
337.72960499449499
 20
174.67819301965861
 30
0.0
 11
337.72960499449499
 21
162.67819301965861
 31
0.0
  0
SOLID
  5
120
  8
寸法
 62
     0
 10
337.22960499449499
 20
174.67819301965861
 30
0.0
 11
338.22960499449499
 21
174.67819301965861
 31
0.0
 12
337.72960499449499
 22
177.67819301965869
 32
0.0
 13
337.72960499449499
 23
177.67819301965869
 33
0.0
  0
SOLID
  5
121
  8
寸法
 62
     0
 10
337.22960499449499
 20
162.67819301965861
 30
0.0
 11
338.22960499449499
 21
162.67819301965861
 31
0.0
 12
337.72960499449499
 22
159.67819301965861
 32
0.0
 13
337.72960499449499
 23
159.67819301965861
 33
0.0
  0
TEXT
  5
122
  8
0
 62
     0
 10
337.10460499449499
 20
166.29748235976021
 30
0.0
 40
3.5
  1
18
 50
90.0
  7
NISSIN3_5
  0
POINT
  5
123
  8
DEFPOINTS
 62
     0
 10
347.72960499449499
 20
177.67819301965869
 30
0.0
  0
POINT
  5
124
  8
DEFPOINTS
 62
     0
 10
347.72960499449499
 20
159.67819301965861
 30
0.0
  0
POINT
  5
125
  8
DEFPOINTS
 62
     0
 10
337.72960499449499
 20
159.67819301965861
 30
0.0
  0
ENDBLK
  5
127
  8
0
  0
BLOCK
  8
0
  2
*D1
 70
     1
 10
0.0
 20
0.0
 30
0.0
  3
*D1
  1

  0
LINE
  5
E3
  8
寸法
 62
     0
 10
347.72960499449499
 20
179.67819301965869
 30
0.0
 11
347.72960499449499
 21
210.67819301965869
 31
0.0
  0
LINE
  5
E4
  8
寸法
 62
     0
 10
397.73138547775898
 20
179.67819301965869
 30
0.0
 11
397.73138547775898
 21
210.67819301965869
 31
0.0
  0
LINE
  5
E5
  8
寸法
 62
     0
 10
350.72960499449499
 20
207.67819301965861
 30
0.0
 11
394.73138547775898
 21
207.67819301965861
 31
0.0
  0
SOLID
  5
E6
  8
寸法
 62
     0
 10
350.72960499449499
 20
208.17819301965861
 30
0.0
 11
350.72960499449499
 21
207.17819301965861
 31
0.0
 12
347.72960499449499
 22
207.67819301965861
 32
0.0
 13
347.72960499449499
 23
207.67819301965861
 33
0.0
  0
SOLID
  5
E7
  8
寸法
 62
     0
 10
394.73138547775898
 20
208.17819301965861
 30
0.0
 11
394.73138547775898
 21
207.17819301965861
 31
0.0
 12
397.73138547775898
 22
207.67819301965861
 32
0.0
 13
397.73138547775898
 23
207.67819301965861
 33
0.0
  0
INSERT
  5
E8
  8
0
  2
*U10
 10
0.0
 20
0.0
 30
0.0
  0
POINT
  5
E9
  8
DEFPOINTS
 62
     0
 10
347.72960499449499
 20
177.67819301965869
 30
0.0
  0
POINT
  5
EA
  8
DEFPOINTS
 62
     0
 10
397.73138547775898
 20
177.67819301965869
 30
0.0
  0
POINT
  5
EB
  8
DEFPOINTS
 62
     0
 10
397.73138547775898
 20
207.67819301965861
 30
0.0
  0
ENDBLK
  5
ED
  8
0
  0
BLOCK
  8
0
  2
*D2
 70
     1
 10
0.0
 20
0.0
 30
0.0
  3
*D2
  1

  0
LINE
  5
D6
  8
寸法
 62
     0
 10
354.72960499449499
 20
179.67819301965869
 30
0.0
 11
354.72960499449499
 21
200.67819301965869
 31
0.0
  0
LINE
  5
D7
  8
寸法
 62
     0
 10
390.73138547775898
 20
179.67819301965869
 30
0.0
 11
390.73138547775898
 21
200.67819301965869
 31
0.0
  0
LINE
  5
D8
  8
寸法
 62
     0
 10
357.72960499449499
 20
197.67819301965869
 30
0.0
 11
387.73138547775898
 21
197.67819301965869
 31
0.0
  0
SOLID
  5
D9
  8
寸法
 62
     0
 10
357.72960499449499
 20
198.17819301965861
 30
0.0
 11
357.72960499449499
 21
197.17819301965861
 31
0.0
 12
354.72960499449499
 22
197.67819301965869
 32
0.0
 13
354.72960499449499
 23
197.67819301965869
 33
0.0
  0
SOLID
  5
DA
  8
寸法
 62
     0
 10
387.73138547775898
 20
198.17819301965861
 30
0.0
 11
387.73138547775898
 21
197.17819301965861
 31
0.0
 12
390.73138547775898
 22
197.67819301965869
 32
0.0
 13
390.73138547775898
 23
197.67819301965869
 33
0.0
  0
INSERT
  5
DB
  8
0
  2
*U9
 10
0.0
 20
0.0
 30
0.0
  0
POINT
  5
DC
  8
DEFPOINTS
 62
     0
 10
354.72960499449499
 20
177.67819301965869
 30
0.0
  0
POINT
  5
DD
  8
DEFPOINTS
 62
     0
 10
390.73138547775898
 20
177.67819301965869
 30
0.0
  0
POINT
  5
DE
  8
DEFPOINTS
 62
     0
 10
390.73138547775898
 20
197.67819301965869
 30
0.0
  0
ENDBLK
  5
E0
  8
0
  0
BLOCK
  8
0
  2
*D3
 70
     1
 10
0.0
 20
0.0
 30
0.0
  3
*D3
  1

  0
LINE
  5
C9
  8
寸法
 62
     0
 10
360.72960499449499
 20
179.67819301965869
 30
0.0
 11
360.72960499449499
 21
190.67819301965861
 31
0.0
  0
LINE
  5
CA
  8
寸法
 62
     0
 10
384.73138547775898
 20
179.67819301965869
 30
0.0
 11
384.73138547775898
 21
190.67819301965861
 31
0.0
  0
LINE
  5
CB
  8
寸法
 62
     0
 10
363.72960499449499
 20
187.67819301965861
 30
0.0
 11
381.73138547775898
 21
187.67819301965861
 31
0.0
  0
SOLID
  5
CC
  8
寸法
 62
     0
 10
363.72960499449499
 20
188.17819301965861
 30
0.0
 11
363.72960499449499
 21
187.17819301965861
 31
0.0
 12
360.72960499449499
 22
187.67819301965861
 32
0.0
 13
360.72960499449499
 23
187.67819301965861
 33
0.0
  0
SOLID
  5
CD
  8
寸法
 62
     0
 10
381.73138547775898
 20
188.17819301965861
 30
0.0
 11
381.73138547775898
 21
187.17819301965861
 31
0.0
 12
384.73138547775898
 22
187.67819301965861
 32
0.0
 13
384.73138547775898
 23
187.67819301965861
 33
0.0
  0
INSERT
  5
CE
  8
0
  2
*U8
 10
0.0
 20
0.0
 30
0.0
  0
POINT
  5
CF
  8
DEFPOINTS
 62
     0
 10
360.72960499449499
 20
177.67819301965869
 30
0.0
  0
POINT
  5
D0
  8
DEFPOINTS
 62
     0
 10
384.73138547775898
 20
177.67819301965869
 30
0.0
  0
POINT
  5
D1
  8
DEFPOINTS
 62
     0
 10
384.73138547775898
 20
187.67819301965861
 30
0.0
  0
ENDBLK
  5
D3
  8
0
  0
BLOCK
  8
0
  2
*D4
 70
     1
 10
0.0
 20
0.0
 30
0.0
  3
*D4
  1

  0
LINE
  5
30
  8
寸法
 62
     0
 10
385.3832533869537
 20
169.69889418342379
 30
0.0
 11
378.37602381093268
 21
175.55558813479931
 31
0.0
  0
ARC
  5
31
  8
寸法
 62
     0
 10
397.37250093005099
 20
159.67819301965861
 30
0.0
 40
21.757984945860979
 50
148.01711168077179
 51
172.09376294181411
  0
SOLID
  5
32
  8
寸法
 62
     0
 10
378.51240406580871
 20
171.4960977994391
 30
0.0
 11
379.32207704761782
 21
170.90921649753199
 31
0.0
 12
380.6778844624348
 22
173.63167609391309
 32
0.0
 13
380.6778844624348
 23
173.63167609391309
 33
0.0
  0
SOLID
  5
33
  8
寸法
 62
     0
 10
376.32014700389749
 20
162.6365852965595
 30
0.0
 11
375.32252621032382
 21
162.7055255041997
 31
0.0
 12
375.61451598419012
 22
159.67819301965869
 32
0.0
 13
375.61451598419012
 23
159.67819301965869
 33
0.0
  0
TEXT
  5
34
  8
0
 62
     0
 10
375.95301468730293
 20
167.2861099611695
 30
0.0
 40
3.0
  1
40°
 50
60.414194223987082
  7
NISSIN3
  0
POINT
  5
35
  8
DEFPOINTS
 62
     0
 10
376.19777303614461
 20
164.68227210809579
 30
0.0
  0
POINT
  5
37
  8
DEFPOINTS
 62
     0
 10
394.97960499449499
 20
161.67819301965861
 30
0.0
  0
POINT
  5
38
  8
DEFPOINTS
 62
     0
 10
397.72960499449499
 20
159.67819301965861
 30
0.0
  0
POINT
  5
39
  8
DEFPOINTS
 62
     0
 10
347.72960499449499
 20
159.67819301965861
 30
0.0
  0
POINT
  5
3A
  8
DEFPOINTS
 62
     0
 10
386.91782715462159
 20
168.41628615616631
 30
0.0
  0
ENDBLK
  5
3C
  8
0
  0
BLOCK
  8
0
  2
*D5
 70
     1
 10
0.0
 20
0.0
 30
0.0
  3
*D5
  1

  0
LINE
  5
133
  8
寸法
 62
     0
 10
385.3832533869537
 20
169.69889418342379
 30
0.0
 11
378.37602381093268
 21
175.55558813479931
 31
0.0
  0
ARC
  5
134
  8
寸法
 62
     0
 10
397.37250093005099
 20
159.67819301965861
 30
0.0
 40
21.757984945860969
 50
148.01711168077179
 51
172.09376294181411
  0
SOLID
  5
135
  8
寸法
 62
     0
 10
378.51240406580871
 20
171.4960977994391
 30
0.0
 11
379.32207704761782
 21
170.90921649753199
 31
0.0
 12
380.6778844624348
 22
173.63167609391309
 32
0.0
 13
380.6778844624348
 23
173.63167609391309
 33
0.0
  0
SOLID
  5
136
  8
寸法
 62
     0
 10
376.32014700389749
 20
162.6365852965595
 30
0.0
 11
375.32252621032382
 21
162.7055255041997
 31
0.0
 12
375.61451598419012
 22
159.67819301965861
 32
0.0
 13
375.61451598419012
 23
159.67819301965861
 33
0.0
  0
TEXT
  8
0
  40
3
  5
16B
  62
0
  72
0
  71
0
 10
376.603
 20
167.570
 30
0.000000
  1
40°
  7
NISSIN3
  0
POINT
  5
138
  8
DEFPOINTS
 62
     0
 10
376.19777303614461
 20
164.6822721080957
 30
0.0
  0
POINT
  5
139
  8
DEFPOINTS
 62
     0
 10
394.97960499449499
 20
161.67819301965861
 30
0.0
  0
POINT
  5
13A
  8
DEFPOINTS
 62
     0
 10
397.72960499449499
 20
159.67819301965861
 30
0.0
  0
POINT
  5
13B
  8
DEFPOINTS
 62
     0
 10
347.72960499449499
 20
159.67819301965861
 30
0.0
  0
POINT
  5
13C
  8
DEFPOINTS
 62
     0
 10
386.91782715462159
 20
168.41628615616631
 30
0.0
  0
ENDBLK
  5
13E
  8
0
  0
BLOCK
  8
0
  2
*X6
 70
     1
 10
0.0
 20
0.0
 30
0.0
  3
*X6
  1

  0
LINE
  5
140
  8
0
 62
     0
 10
395.31658674943782
 20
159.67819301965861
 30
0.0
 11
397.72960499449499
 21
162.09121126471581
 31
0.0
  0
LINE
  5
141
  8
0
 62
     0
 10
396.22960499449499
 20
165.08133932525041
 30
0.0
 11
397.72960499449488
 21
166.58133932525041
 31
0.0
  0
LINE
  5
142
  8
0
 62
     0
 10
396.22960499449499
 20
169.57146738578501
 30
0.0
 11
397.72960499449499
 21
171.07146738578501
 31
0.0
  0
LINE
  5
143
  8
0
 62
     0
 10
394.22960499449499
 20
172.06159544631959
 30
0.0
 11
397.72960499449499
 21
175.56159544631959
 31
0.0
  0
LINE
  5
144
  8
0
 62
     0
 10
387.35607450729958
 20
169.67819301965869
 30
0.0
 11
388.72960499449499
 21
171.0517235068541
 31
0.0
  0
LINE
  5
145
  8
0
 62
     0
 10
392.35607450729952
 20
174.67819301965861
 30
0.0
 11
395.35607450729952
 21
177.67819301965869
 31
0.0
  0
LINE
  5
146
  8
0
 62
     0
 10
384.85607450729952
 20
167.17819301965861
 30
0.0
 11
386.97960499449499
 21
169.3017235068541
 31
0.0
  0
LINE
  5
147
  8
0
 62
     0
 10
384.72960499449499
 20
171.5418515673887
 30
0.0
 11
389.22960499449499
 21
176.0418515673887
 31
0.0
  0
LINE
  5
148
  8
0
 62
     0
 10
384.72960499449511
 20
176.03197962792331
 30
0.0
 11
386.37581838623032
 21
177.67819301965861
 31
0.0
  0
ENDBLK
  5
14A
  8
0
  0
BLOCK
  8
0
  2
*X7
 70
     1
 10
0.0
 20
0.0
 30
0.0
  3
*X7
  1

  0
LINE
  5
14C
  8
0
 62
     0
 10
358.47960499449499
 20
167.7424918700616
 30
0.0
 11
360.72960499449499
 21
169.9924918700616
 31
0.0
  0
LINE
  5
14D
  8
0
 62
     0
 10
350.41530614409209
 20
159.67819301965869
 30
0.0
 11
351.41530614409209
 21
160.67819301965869
 31
0.0
  0
LINE
  5
14E
  8
0
 62
     0
 10
356.72960499449499
 20
170.4826199305962
 30
0.0
 11
360.72960499449499
 21
174.4826199305962
 31
0.0
  0
LINE
  5
14F
  8
0
 62
     0
 10
347.72960499449499
 20
161.4826199305962
 30
0.0
 11
349.42517808355751
 21
163.17819301965869
 31
0.0
  0
LINE
  5
150
  8
0
 62
     0
 10
356.43505002302288
 20
174.67819301965861
 30
0.0
 11
359.43505002302288
 21
177.67819301965869
 31
0.0
  0
LINE
  5
151
  8
0
 62
     0
 10
347.72960499449499
 20
165.9727479911308
 30
0.0
 11
349.22960499449499
 21
167.4727479911308
 31
0.0
  0
LINE
  5
152
  8
0
 62
     0
 10
351.94492196248831
 20
174.67819301965861
 30
0.0
 11
353.22960499449499
 21
175.96287605166529
 31
0.0
  0
LINE
  5
153
  8
0
 62
     0
 10
347.72960499449499
 20
170.46287605166529
 30
0.0
 11
351.22960499449499
 21
173.96287605166529
 31
0.0
  0
LINE
  5
154
  8
0
 62
     0
 10
347.72960499449499
 20
174.95300411219981
 30
0.0
 11
350.45479390195368
 21
177.67819301965869
 31
0.0
  0
ENDBLK
  5
156
  8
0
  0
BLOCK
  8
0
  2
*U8
 70
     1
 10
0.0
 20
0.0
 30
0.0
  3
*U8
  1

  0
TEXT
  5
158
  8
0
 62
     0
 10
369.4081602107463
 20
188.30319301965869
 30
0.0
 40
3.5
  1
\U+2205
  7
NISSIN3_5
  0
TEXT
  5
159
  8
0
 62
     0
 10
371.68227188587321
 20
188.30319301965869
 30
0.0
 40
3.5
  1
24
  7
NISSIN3_5
  0
ENDBLK
  5
15B
  8
0
  0
BLOCK
  8
0
  2
*U9
 70
     1
 10
0.0
 20
0.0
 30
0.0
  3
*U9
  1

  0
TEXT
  5
15D
  8
0
 62
     0
 10
369.45257645440108
 20
198.30319301965869
 30
0.0
 40
3.5
  1
\U+2205
  7
NISSIN3_5
  0
TEXT
  5
15E
  8
0
 62
     0
 10
371.72668812952799
 20
198.30319301965869
 30
0.0
 40
3.5
  1
36
  7
NISSIN3_5
  0
ENDBLK
  5
160
  8
0
  0
BLOCK
  8
0
  2
*U10
 70
     1
 10
0.0
 20
0.0
 30
0.0
  3
*U10
  1

  0
TEXT
  5
162
  8
0
 62
     0
 10
369.41704345947721
 20
208.30319301965861
 30
0.0
 40
3.5
  1
\U+2205
  7
NISSIN3_5
  0
TEXT
  5
163
  8
0
 62
     0
 10
371.69115513460412
 20
208.30319301965861
 30
0.0
 40
3.5
  1
50
  7
NISSIN3_5
  0
ENDBLK
  5
165
  8
0
  0
BLOCK
  8
0
  2
*U11
 70
     1
 10
0.0
 20
0.0
 30
0.0
  3
*U11
  1

  0
TEXT
  5
167
  8
0
 10
452.04436911559509
 20
129.8950245203566
 30
0.0
 40
5.0
  1
MODEL []DR-LA50B
  7
NISSIN2
  0
TEXT
  5
168
  8
0
 10
452.0189884049351
 20
121.5616911870233
 30
0.0
 40
5.0
  1
NISSIN ELECTRONIC CO.,LTD.
  7
NISSIN2
  0
ENDBLK
  5
16A
  8
0
  0
ENDSEC
  0
SECTION
  2
ENTITIES
  0
DIMENSION
  5
2A
  8
寸法
  2
*D5
 10
386.91782715462159
 20
168.41628615616631
 30
0.0
 11
378.45138146124287
 21
170.42068560524609
 31
0.0
 70
   130
 13
397.72960499449499
 23
159.67819301965861
 33
0.0
 14
347.72960499449499
 24
159.67819301965861
 34
0.0
 15
394.97960499449499
 25
161.67819301965861
 35
0.0
 16
376.19777303614461
 26
164.6822721080957
 36
0.0
1001
ACAD
1000
DSTYLE
1002
{
1070
   271
1070
     0
1070
   340
1005
2E
1002
}
  0
LINE
  5
3D
  8
図形
 10
353.4775275642271
 20
166.25584258125011
 30
0.0
 11
356.38849656422718
 21
168.6984455812501
 31
0.0
  0
LINE
  5
3F
  8
図形
 10
350.41335656422717
 20
163.68470158125021
 30
0.0
 11
353.32432556422719
 21
166.12730458125
 31
0.0
  0
LINE
  5
40
  8
図形
 10
357.89859583436868
 20
169.1823291561663
 30
0.0
 11
358.54138283436851
 21
168.41628615616631
 31
0.0
  0
LINE
  5
41
  8
図形
 10
356.38849656422718
 20
168.6984455812501
 30
0.0
 11
356.77416856422718
 21
168.23882558125021
 31
0.0
  0
LINE
  5
42
  8
図形
 10
354.81239336643608
 20
165.28729498276931
 30
0.0
 11
356.03369256422712
 21
163.83181158125021
 31
0.0
  0
LINE
  5
43
  8
図形
 10
353.32432556422719
 20
166.12730458125
 30
0.0
 11
353.70999756422702
 21
165.66768458124989
 31
0.0
  0
LINE
  5
44
  8
図形
 10
354.0463671984416
 20
164.64452322413109
 30
0.0
 11
355.26765556422731
 21
163.18904258124999
 31
0.0
  0
ARC
  5
45
  8
図形
 10
354.11858256422732
 20
162.22485658125001
 30
0.0
 40
1.5
 50
220.00000000000071
 51
40.000000000000711
  0
ARC
  5
46
  8
図形
 10
357.1827535642272
 20
164.79599758124999
 30
0.0
 40
1.5
 50
220.00000000000071
 51
40.000000000000711
  0
LINE
  5
47
  8
図形
 10
350.79901656422697
 20
163.22508258125001
 30
0.0
 11
350.41335656422717
 21
163.68470158125021
 31
0.0
  0
LINE
  5
48
  8
図形
 10
349.84988455389572
 20
162.42866391511541
 30
0.0
 11
350.47960499449499
 21
161.67819301965861
 31
0.0
  0
LINE
  5
49
  8
図形
 10
351.74822319876108
 20
162.7161529908457
 30
0.0
 11
352.96952156422708
 21
161.2606705812502
 31
0.0
  0
LINE
  5
4A
  8
図形
 10
350.47960499449499
 20
161.67819301965861
 30
0.0
 11
358.54138283436851
 21
168.41628615616631
 31
0.0
  0
LINE
  5
4B
  8
図形
 10
349.84988455389572
 20
162.42866391511541
 30
0.0
 11
357.89859583436868
 21
169.1823291561663
 31
0.0
  0
LINE
  5
4C
  8
図形
 10
353.86318756422719
 20
165.79622358124999
 30
0.0
 11
353.4775275642271
 21
166.25584258125011
 31
0.0
  0
LINE
  5
4D
  8
図形
 10
357.11053736612001
 20
167.2156652160576
 30
0.0
 11
358.33182656422741
 21
165.76018358125009
 31
0.0
  0
LINE
  5
4E
  8
図形
 10
391.98168242476299
 20
166.25584258125011
 30
0.0
 11
389.0707134247628
 21
168.6984455812501
 31
0.0
  0
LINE
  5
4F
  8
図形
 10
395.04585342476281
 20
163.68470158125021
 30
0.0
 11
392.13488442476279
 21
166.12730458125
 31
0.0
  0
LINE
  5
50
  8
図形
 10
387.56061415462131
 20
169.1823291561663
 30
0.0
 11
386.91782715462159
 21
168.41628615616631
 31
0.0
  0
LINE
  5
51
  8
図形
 10
389.0707134247628
 20
168.6984455812501
 30
0.0
 11
388.6850414247628
 21
168.23882558125021
 31
0.0
  0
LINE
  5
52
  8
図形
 10
390.6468166225539
 20
165.28729498276931
 30
0.0
 11
389.42551742476292
 21
163.83181158125021
 31
0.0
  0
LINE
  5
53
  8
図形
 10
392.13488442476279
 20
166.12730458125
 30
0.0
 11
391.74921242476302
 21
165.66768458124989
 31
0.0
  0
LINE
  5
54
  8
図形
 10
391.4128427905485
 20
164.64452322413109
 30
0.0
 11
390.19155442476278
 21
163.18904258124999
 31
0.0
  0
ARC
  5
55
  8
図形
 10
391.34062742476272
 20
162.22485658125001
 30
0.0
 40
1.5
 50
139.99999999999861
 51
319.9999999999992
  0
ARC
  5
56
  8
図形
 10
388.27645642476278
 20
164.79599758124999
 30
0.0
 40
1.5
 50
139.99999999999861
 51
319.9999999999992
  0
LINE
  5
57
  8
図形
 10
394.66019342476301
 20
163.22508258125001
 30
0.0
 11
395.04585342476281
 21
163.68470158125021
 31
0.0
  0
LINE
  5
58
  8
図形
 10
395.60932543509432
 20
162.42866391511541
 30
0.0
 11
394.97960499449499
 21
161.67819301965861
 31
0.0
  0
LINE
  5
59
  8
図形
 10
393.7109867902289
 20
162.7161529908457
 30
0.0
 11
392.4896884247629
 21
161.2606705812502
 31
0.0
  0
LINE
  5
5A
  8
図形
 10
394.97960499449499
 20
161.67819301965861
 30
0.0
 11
386.91782715462159
 21
168.41628615616631
 31
0.0
  0
LINE
  5
5B
  8
図形
 10
395.60932543509432
 20
162.42866391511541
 30
0.0
 11
387.56061415462131
 21
169.1823291561663
 31
0.0
  0
LINE
  5
5C
  8
図形
 10
391.59602242476279
 20
165.79622358124999
 30
0.0
 11
391.98168242476299
 21
166.25584258125011
 31
0.0
  0
LINE
  5
5D
  8
図形
 10
388.34867262287003
 20
167.2156652160576
 30
0.0
 11
387.12738342476263
 21
165.76018358125009
 31
0.0
  0
LINE
  5
5E
  8
図形
 10
451.49075499449509
 20
195.4551980196585
 30
0.0
 11
451.49075499449509
 21
193.95519801965861
 31
0.0
  0
LINE
  5
5F
  8
図形
 10
447.99075499449509
 20
197.45519801965861
 30
0.0
 11
437.99075499449521
 21
197.45519801965861
 31
0.0
  0
LINE
  5
60
  8
図形
 10
441.99075499449509
 20
196.45519801965861
 30
0.0
 11
441.99075499449509
 21
194.4551980196585
 31
0.0
  0
LINE
  5
61
  8
図形
 10
442.99075499449509
 20
196.45519801965861
 30
0.0
 11
442.99075499449509
 21
194.4551980196585
 31
0.0
  0
LINE
  5
62
  8
図形
 10
447.99075499449509
 20
196.45519801965861
 30
0.0
 11
437.99075499449521
 21
196.45519801965861
 31
0.0
  0
LINE
  5
63
  8
図形
 10
437.99075499449521
 20
197.45519801965861
 30
0.0
 11
437.99075499449521
 21
196.45519801965861
 31
0.0
  0
LINE
  5
64
  8
図形
 10
447.99075499449509
 20
196.45519801965861
 30
0.0
 11
447.99075499449509
 21
197.45519801965861
 31
0.0
  0
LINE
  5
65
  8
図形
 10
443.49075499449509
 20
195.4551980196585
 30
0.0
 11
451.49075499449509
 21
195.4551980196585
 31
0.0
  0
LINE
  5
66
  8
図形
 10
448.49075499449509
 20
193.95519801965861
 30
0.0
 11
451.49075499449509
 21
193.95519801965861
 31
0.0
  0
LINE
  5
67
  8
図形
 10
451.49075499449509
 20
189.95519801965861
 30
0.0
 11
451.49075499449498
 21
188.45519801965861
 31
0.0
  0
LINE
  5
68
  8
図形
 10
443.49075499449509
 20
188.45519801965861
 30
0.0
 11
451.49075499449498
 21
188.45519801965861
 31
0.0
  0
LINE
  5
69
  8
図形
 10
448.49075499449498
 20
189.95519801965861
 30
0.0
 11
451.49075499449509
 21
189.95519801965861
 31
0.0
  0
LINE
  5
6A
  8
図形
 10
443.49075499449509
 20
195.4551980196585
 30
0.0
 11
443.49075499449509
 21
188.45519801965861
 31
0.0
  0
LINE
  5
6B
  8
図形
 10
448.49075499449509
 20
193.95519801965861
 30
0.0
 11
448.49075499449509
 21
189.95519801965861
 31
0.0
  0
ARC
  5
6C
  8
図形
 10
426.26812499449522
 20
192.75989301965851
 30
0.0
 40
1.2000000000002089
 50
138.19000000000909
 51
221.80998999999591
  0
ARC
  5
6D
  8
図形
 10
422.17930499449523
 20
192.75989301965851
 30
0.0
 40
1.199999999999978
 50
318.18999999999988
 51
41.809997000001331
  0
ARC
  5
6E
  8
図形
 10
423.96810499449509
 20
192.75989301965851
 30
0.0
 40
1.200000000000039
 50
138.18999999999991
 51
221.8099900000004
  0
LINE
  5
6F
  8
図形
 10
423.07367340673431
 20
193.55988810390321
 30
0.0
 11
422.08157499449521
 21
193.55988810390321
 31
0.0
  0
LINE
  5
70
  8
図形
 10
425.37046785965629
 20
193.55626709524941
 30
0.0
 11
433.29078499449508
 21
193.55521301965871
 31
0.0
  0
LINE
  5
71
  8
図形
 10
423.07373658225612
 20
190.35989793541401
 30
0.0
 11
422.07413499449569
 21
190.35989793541401
 31
0.0
  0
LINE
  5
72
  8
図形
 10
425.37375658225602
 20
190.3598979354141
 30
0.0
 11
433.29078499449508
 21
190.35518301965851
 31
0.0
  0
TEXT
  5
73
  8
0
 10
418.69498999511518
 20
181.4000695848404
 30
0.0
 40
5.0
  1
L=500
  7
NISSIN5
  0
LINE
  5
74
  8
図形
 10
433.29078499449508
 20
194.45519801965861
 30
0.0
 11
433.29078499449508
 21
189.45519801965861
 31
0.0
  0
ARC
  5
75
  8
図形
 10
422.17930499449523
 20
191.1598930196586
 30
0.0
 40
1.199999999999978
 50
318.18999999999988
 51
41.809997000001331
  0
ARC
  5
76
  8
図形
 10
424.47932499449519
 20
191.1598930196586
 30
0.0
 40
1.199999999999978
 50
318.18999999999988
 51
41.809997000001331
  0
ARC
  5
77
  8
図形
 10
426.26803254655738
 20
191.15992833134209
 30
0.0
 40
1.1999075525789289
 50
138.18831386179249
 51
221.8162107794779
  0
ARC
  5
78
  8
図形
 10
422.08157499449521
 20
182.9598881039031
 30
0.0
 40
10.6
 50
90.0
 51
180.0
  0
ARC
  5
79
  8
図形
 10
422.07413499449569
 20
183.3598979354139
 30
0.0
 40
7.0
 50
90.0
 51
180.0
  0
ARC
  5
7A
  8
図形
 10
404.48157499449519
 20
173.7781930196586
 30
0.0
 40
6.9999999999999973
 50
270.0
 51
0.0
  0
ARC
  5
7B
  8
図形
 10
404.47413499449573
 20
174.18230301965849
 30
0.0
 40
10.6
 50
270.0
 51
0.0
  0
LINE
  5
7C
  8
図形
 10
411.48157499449519
 20
182.9598881039031
 30
0.0
 11
411.48157499449519
 21
173.7781930196586
 31
0.0
  0
LINE
  5
7D
  8
図形
 10
415.07413499449569
 20
183.3598979354139
 30
0.0
 11
415.07413499449569
 21
174.18230301965849
 31
0.0
  0
LINE
  5
7E
  8
図形
 10
433.29078499449508
 20
189.45519801965861
 30
0.0
 11
443.49075499449509
 21
189.45519801965861
 31
0.0
  0
LINE
  5
7F
  8
図形
 10
433.29078499449508
 20
194.45519801965861
 30
0.0
 11
443.49075499449509
 21
194.4551980196585
 31
0.0
  0
LINE
  5
80
  8
図形
 10
397.72960499449499
 20
163.5823030196585
 30
0.0
 11
404.47413499449573
 21
163.5823030196585
 31
0.0
  0
LINE
  5
81
  8
図形
 10
397.72960499449499
 20
166.7781930196586
 30
0.0
 11
404.48157499449519
 21
166.7781930196586
 31
0.0
  0
INSERT
  5
82
  8
図形
  6
CONTINUOUS
  2
*X6
 10
0.0
 20
0.0
 30
0.0
1001
ACAD
1000
HATCH
1002
{
1070
    19
1000
ANSI31
1040
1.0
1040
0.0
1000
ASC_BOUNDS
1070
     2
1070
     1
1070
     8
1005
85
1005
99
1005
98
1005
97
1005
96
1005
93
1005
94
1005
A4
1070
     1
1070
    14
1005
A3
1005
B4
1005
B5
1005
AB
1005
AA
1005
A9
1005
A8
1005
A7
1005
A6
1005
9B
1005
9A
1005
99
1005
86
1005
A4
1000
ASC_SEEDPOINT
1011
394.32646318747157
1021
0.0
1031
0.0000000000000142
1021
175.55045445246671
1031
0.0
1000
R14_HATCH_DATA
1000
82
1011
1.0
1021
0.0
1031
0.0000000000000142
1021
0.0
1031
0.0
1011
0.0
1021
0.0
1031
0.0000000000000142
1021
1.0
1031
0.0
1011
0.0
1021
0.0
1031
0.0000000000000142
1021
0.0
1031
1.0
1040
0.0
1010
0.0
1020
0.0
1030
1.0
1000
ANSI31
1070
     0
1070
     1
1071
        2
1071
        7
1070
     0
1070
     1
1071
       14
1040
394.22960499449499
1040
174.67819301965861
1040
394.22960499449499
1040
170.67819301965861
1040
396.22960499449499
1040
170.67819301965869
1040
396.22960499449499
1040
163.17819301965869
1040
395.72960499449499
1040
163.17819301965869
1040
395.72960499449499
1040
161.67819301965861
1040
394.22960499449499
1040
161.67819301965861
1040
394.22960499449499
1040
160.67819301965861
1040
393.22960499449499
1040
160.67819301965861
1040
393.22960499449499
1040
159.67819301965861
1040
397.72960499449499
1040
159.67819301965861
1040
397.72960499449511
1040
177.67819301965869
1040
392.22960499449499
1040
177.67819301965869
1040
392.22960499449499
1040
174.67819301965861
1071
       14
1005
A4
1005
86
1005
99
1005
9A
1005
9B
1005
A6
1005
A7
1005
A8
1005
A9
1005
AA
1005
AB
1005
B5
1005
B4
1005
A3
1071
        7
1070
     0
1070
     1
1071
        8
1040
388.72960499449499
1040
174.67819301965861
1040
389.22960499449499
1040
174.67819301965861
1040
389.22960499449499
1040
177.67819301965869
1040
384.72960499449499
1040
177.67819301965869
1040
384.72960499449499
1040
167.17819301965869
1040
386.97960499449499
1040
167.17819301965869
1040
386.97960499449499
1040
169.67819301965861
1040
388.72960499449499
1040
169.67819301965861
1071
        8
1005
A4
1005
94
1005
93
1005
96
1005
97
1005
98
1005
99
1005
85
1070
     0
1070
     1
1040
0.0
1040
1.0
1070
     0
1070
     1
1040
0.7853981633974483
1040
41.826733968867408
1040
53.14538356848999
1040
-2.2450640302672871
1040
2.245064030267288
1070
     0
1040
0.1161916100058901
1071
        2
1040
394.32646318747157
1040
175.55045445246671
1040
0.0
1040
387.00471523144722
1040
174.96949624760779
1040
0.0
1002
}
  0
INSERT
  5
83
  8
図形
  6
CONTINUOUS
  2
*X7
 10
0.0
 20
0.0
 30
0.0
1001
ACAD
1000
HATCH
1002
{
1070
    19
1000
ANSI31
1040
1.0
1040
0.0
1000
ASC_BOUNDS
1070
     2
1070
     1
1070
    14
1005
8D
1005
A0
1005
A1
1005
A2
1005
AC
1005
AD
1005
AE
1005
AF
1005
B0
1005
B1
1005
B3
1005
B4
1005
A5
1005
A4
1070
     1
1070
     8
1005
95
1005
9C
1005
9D
1005
9E
1005
9F
1005
A0
1005
8E
1005
A4
1000
ASC_SEEDPOINT
1011
359.80965302005779
1021
0.0
1031
0.0000000000000142
1021
174.96949624760779
1031
0.0
1000
R14_HATCH_DATA
1000
83
1011
1.0
1021
0.0
1031
0.0000000000000142
1021
0.0
1031
0.0
1011
0.0
1021
0.0
1031
0.0000000000000142
1021
1.0
1031
0.0
1011
0.0
1021
0.0
1031
0.0000000000000142
1021
0.0
1031
1.0
1040
0.0
1010
0.0
1020
0.0
1030
1.0
1000
ANSI31
1070
     0
1070
     1
1071
        2
1071
        7
1070
     0
1070
     1
1071
        8
1040
360.72960499449499
1040
177.67819301965869
1040
356.22960499449499
1040
177.67819301965861
1040
356.22960499449499
1040
174.67819301965861
1040
356.72960499449499
1040
174.67819301965861
1040
356.72960499449499
1040
169.67819301965861
1040
358.47960499449499
1040
169.67819301965861
1040
358.47960499449499
1040
167.17819301965869
1040
360.72960499449499
1040
167.17819301965869
1071
        8
1005
A4
1005
8E
1005
A0
1005
9F
1005
9E
1005
9D
1005
9C
1005
95
1071
        7
1070
     0
1070
     1
1071
       14
1040
351.22960499449499
1040
174.67819301965861
1040
353.22960499449499
1040
174.67819301965861
1040
353.22960499449499
1040
177.67819301965869
1040
347.72960499449499
1040
177.67819301965861
1040
347.72960499449499
1040
159.67819301965861
1040
352.22960499449499
1040
159.67819301965861
1040
352.22960499449499
1040
160.67819301965861
1040
351.22960499449499
1040
160.67819301965861
1040
351.22960499449499
1040
161.67819301965861
1040
349.72960499449499
1040
161.67819301965861
1040
349.72960499449499
1040
163.17819301965869
1040
349.22960499449499
1040
163.17819301965869
1040
349.22960499449499
1040
170.67819301965861
1040
351.22960499449499
1040
170.67819301965861
1071
       14
1005
A4
1005
A5
1005
B4
1005
B3
1005
B1
1005
B0
1005
AF
1005
AE
1005
AD
1005
AC
1005
A2
1005
A1
1005
A0
1005
8D
1070
     0
1070
     1
1040
0.0
1040
1.0
1070
     0
1070
     1
1040
0.7853981633974483
1040
41.826733968867408
1040
53.14538356848999
1040
-2.2450640302672871
1040
2.245064030267288
1070
     0
1040
0.1161916100058901
1071
        2
1040
359.80965302005779
1040
174.96949624760779
1040
0.0
1040
350.97706865374221
1040
175.08568806592959
1040
0.0
1002
}
  0
LINE
  5
84
  8
図形
 10
389.529604994495
 20
177.67819301965869
 30
0.0
 11
391.92960499449498
 21
177.67819301965869
 31
0.0
  0
LINE
  5
85
  8
図形
 10
389.22960499449499
 20
177.67819301965869
 30
0.0
 11
389.22960499449499
 21
174.67819301965861
 31
0.0
1001
ACAD
1000
ASC_BOUNDS
1002
{
1070
    19
1005
82
1002
}
  0
LINE
  5
86
  8
図形
 10
392.22960499449499
 20
177.67819301965869
 30
0.0
 11
392.22960499449499
 21
174.67819301965861
 31
0.0
1001
ACAD
1000
ASC_BOUNDS
1002
{
1070
    19
1005
82
1002
}
  0
LINE
  5
87
  8
基準線
 10
390.72960499449499
 20
178.67819301965861
 30
0.0
 11
390.72960499449499
 21
173.67819301965861
 31
0.0
  0
LINE
  5
8A
  8
図形
 10
389.529604994495
 20
177.67819301965869
 30
0.0
 11
389.52960499449489
 21
174.67819301965861
 31
0.0
  0
LINE
  5
8B
  8
図形
 10
391.92960499449498
 20
177.67819301965869
 30
0.0
 11
391.92960499449498
 21
174.67819301965861
 31
0.0
  0
LINE
  5
8C
  8
図形
 10
353.529604994495
 20
177.67819301965869
 30
0.0
 11
355.92960499449498
 21
177.67819301965869
 31
0.0
  0
LINE
  5
8D
  8
図形
 10
353.22960499449499
 20
177.67819301965869
 30
0.0
 11
353.22960499449499
 21
174.67819301965861
 31
0.0
1001
ACAD
1000
ASC_BOUNDS
1002
{
1070
    19
1005
83
1002
}
  0
LINE
  5
8E
  8
図形
 10
356.22960499449499
 20
177.67819301965869
 30
0.0
 11
356.22960499449499
 21
174.67819301965861
 31
0.0
1001
ACAD
1000
ASC_BOUNDS
1002
{
1070
    19
1005
83
1002
}
  0
LINE
  5
8F
  8
基準線
 10
354.72960499449499
 20
178.67819301965861
 30
0.0
 11
354.72960499449499
 21
173.67819301965861
 31
0.0
  0
LINE
  5
90
  8
図形
 10
353.529604994495
 20
177.67819301965869
 30
0.0
 11
353.529604994495
 21
174.67819301965861
 31
0.0
  0
LINE
  5
91
  8
図形
 10
355.92960499449498
 20
177.67819301965869
 30
0.0
 11
355.92960499449492
 21
174.67819301965861
 31
0.0
  0
LINE
  5
92
  8
図形
 10
360.72960499449499
 20
167.17819301965869
 30
0.0
 11
384.72960499449499
 21
167.17819301965869
 31
0.0
  0
LINE
  5
93
  8
図形
 10
384.72960499449499
 20
167.17819301965869
 30
0.0
 11
386.97960499449499
 21
167.17819301965869
 31
0.0
1001
ACAD
1000
ASC_BOUNDS
1002
{
1070
    19
1005
82
1002
}
  0
LINE
  5
94
  8
図形
 10
384.72960499449499
 20
177.67819301965869
 30
0.0
 11
384.72960499449499
 21
167.17819301965869
 31
0.0
1001
ACAD
1000
ASC_BOUNDS
1002
{
1070
    19
1005
82
1002
}
  0
LINE
  5
95
  8
図形
 10
360.72960499449499
 20
177.67819301965869
 30
0.0
 11
360.72960499449499
 21
167.17819301965869
 31
0.0
1001
ACAD
1000
ASC_BOUNDS
1002
{
1070
    19
1005
83
1002
}
  0
LINE
  5
96
  8
図形
 10
386.97960499449499
 20
169.67819301965861
 30
0.0
 11
386.97960499449499
 21
167.17819301965869
 31
0.0
1001
ACAD
1000
ASC_BOUNDS
1002
{
1070
    19
1005
82
1002
}
  0
LINE
  5
97
  8
図形
 10
388.72960499449499
 20
169.67819301965861
 30
0.0
 11
386.97960499449499
 21
169.67819301965861
 31
0.0
1001
ACAD
1000
ASC_BOUNDS
1002
{
1070
    19
1005
82
1002
}
  0
LINE
  5
98
  8
図形
 10
388.72960499449499
 20
174.67819301965861
 30
0.0
 11
388.72960499449499
 21
169.67819301965861
 31
0.0
1001
ACAD
1000
ASC_BOUNDS
1002
{
1070
    19
1005
82
1002
}
  0
LINE
  5
99
  8
図形
 10
394.22960499449499
 20
174.67819301965861
 30
0.0
 11
388.72960499449499
 21
174.67819301965861
 31
0.0
1001
ACAD
1000
ASC_BOUNDS
1002
{
1070
    19
1005
82
1005
82
1002
}
  0
LINE
  5
9A
  8
図形
 10
394.22960499449499
 20
170.67819301965861
 30
0.0
 11
394.22960499449499
 21
174.67819301965861
 31
0.0
1001
ACAD
1000
ASC_BOUNDS
1002
{
1070
    19
1005
82
1002
}
  0
LINE
  5
9B
  8
図形
 10
396.22960499449499
 20
170.67819301965861
 30
0.0
 11
394.22960499449499
 21
170.67819301965861
 31
0.0
1001
ACAD
1000
ASC_BOUNDS
1002
{
1070
    19
1005
82
1002
}
  0
LINE
  5
9C
  8
図形
 10
358.47960499449499
 20
167.17819301965869
 30
0.0
 11
360.72960499449499
 21
167.17819301965869
 31
0.0
1001
ACAD
1000
ASC_BOUNDS
1002
{
1070
    19
1005
83
1002
}
  0
LINE
  5
9D
  8
図形
 10
358.47960499449499
 20
169.67819301965861
 30
0.0
 11
358.47960499449499
 21
167.17819301965869
 31
0.0
1001
ACAD
1000
ASC_BOUNDS
1002
{
1070
    19
1005
83
1002
}
  0
LINE
  5
9E
  8
図形
 10
356.72960499449499
 20
169.67819301965861
 30
0.0
 11
358.47960499449499
 21
169.67819301965861
 31
0.0
1001
ACAD
1000
ASC_BOUNDS
1002
{
1070
    19
1005
83
1002
}
  0
LINE
  5
9F
  8
図形
 10
356.72960499449499
 20
174.67819301965861
 30
0.0
 11
356.72960499449499
 21
169.67819301965861
 31
0.0
1001
ACAD
1000
ASC_BOUNDS
1002
{
1070
    19
1005
83
1002
}
  0
LINE
  5
A0
  8
図形
 10
351.22960499449499
 20
174.67819301965861
 30
0.0
 11
356.72960499449499
 21
174.67819301965861
 31
0.0
1001
ACAD
1000
ASC_BOUNDS
1002
{
1070
    19
1005
83
1005
83
1002
}
  0
LINE
  5
A1
  8
図形
 10
351.22960499449499
 20
170.67819301965861
 30
0.0
 11
351.22960499449499
 21
174.67819301965861
 31
0.0
1001
ACAD
1000
ASC_BOUNDS
1002
{
1070
    19
1005
83
1002
}
  0
LINE
  5
A2
  8
図形
 10
349.22960499449499
 20
170.67819301965861
 30
0.0
 11
351.22960499449499
 21
170.67819301965861
 31
0.0
1001
ACAD
1000
ASC_BOUNDS
1002
{
1070
    19
1005
83
1002
}
  0
LINE
  5
A3
  8
図形
 10
397.72960499449499
 20
159.67819301965861
 30
0.0
 11
397.72960499449499
 21
177.67819301965869
 31
0.0
1001
ACAD
1000
ASC_BOUNDS
1002
{
1070
    19
1005
82
1002
}
  0
LINE
  5
A4
  8
図形
 10
347.72960499449499
 20
177.67819301965869
 30
0.0
 11
397.72960499449499
 21
177.67819301965869
 31
0.0
1001
ACAD
1000
ASC_BOUNDS
1002
{
1070
    19
1005
83
1005
83
1005
82
1005
82
1002
}
  0
LINE
  5
A5
  8
図形
 10
347.72960499449499
 20
159.67819301965861
 30
0.0
 11
347.72960499449499
 21
177.67819301965869
 31
0.0
1001
ACAD
1000
ASC_BOUNDS
1002
{
1070
    19
1005
83
1002
}
  0
LINE
  5
A6
  8
図形
 10
396.22960499449499
 20
163.17819301965869
 30
0.0
 11
396.22960499449499
 21
170.67819301965861
 31
0.0
1001
ACAD
1000
ASC_BOUNDS
1002
{
1070
    19
1005
82
1002
}
  0
LINE
  5
A7
  8
図形
 10
395.72960499449499
 20
163.17819301965869
 30
0.0
 11
396.22960499449499
 21
163.17819301965869
 31
0.0
1001
ACAD
1000
ASC_BOUNDS
1002
{
1070
    19
1005
82
1002
}
  0
LINE
  5
A8
  8
図形
 10
395.72960499449499
 20
161.67819301965861
 30
0.0
 11
395.72960499449499
 21
163.17819301965869
 31
0.0
1001
ACAD
1000
ASC_BOUNDS
1002
{
1070
    19
1005
82
1002
}
  0
LINE
  5
A9
  8
図形
 10
394.22960499449499
 20
161.67819301965861
 30
0.0
 11
395.72960499449499
 21
161.67819301965861
 31
0.0
1001
ACAD
1000
ASC_BOUNDS
1002
{
1070
    19
1005
82
1002
}
  0
LINE
  5
AA
  8
図形
 10
394.22960499449499
 20
160.67819301965861
 30
0.0
 11
394.22960499449499
 21
161.67819301965861
 31
0.0
1001
ACAD
1000
ASC_BOUNDS
1002
{
1070
    19
1005
82
1002
}
  0
LINE
  5
AB
  8
図形
 10
393.22960499449499
 20
160.67819301965861
 30
0.0
 11
394.22960499449499
 21
160.67819301965861
 31
0.0
1001
ACAD
1000
ASC_BOUNDS
1002
{
1070
    19
1005
82
1002
}
  0
LINE
  5
AC
  8
図形
 10
349.22960499449499
 20
163.17819301965869
 30
0.0
 11
349.22960499449499
 21
170.67819301965861
 31
0.0
1001
ACAD
1000
ASC_BOUNDS
1002
{
1070
    19
1005
83
1002
}
  0
LINE
  5
AD
  8
図形
 10
349.72960499449499
 20
163.17819301965869
 30
0.0
 11
349.22960499449499
 21
163.17819301965869
 31
0.0
1001
ACAD
1000
ASC_BOUNDS
1002
{
1070
    19
1005
83
1002
}
  0
LINE
  5
AE
  8
図形
 10
349.72960499449499
 20
161.67819301965861
 30
0.0
 11
349.72960499449499
 21
163.17819301965869
 31
0.0
1001
ACAD
1000
ASC_BOUNDS
1002
{
1070
    19
1005
83
1002
}
  0
LINE
  5
AF
  8
図形
 10
351.22960499449499
 20
161.67819301965861
 30
0.0
 11
349.72960499449499
 21
161.67819301965861
 31
0.0
1001
ACAD
1000
ASC_BOUNDS
1002
{
1070
    19
1005
83
1002
}
  0
LINE
  5
B0
  8
図形
 10
351.22960499449499
 20
160.67819301965861
 30
0.0
 11
351.22960499449499
 21
161.67819301965861
 31
0.0
1001
ACAD
1000
ASC_BOUNDS
1002
{
1070
    19
1005
83
1002
}
  0
LINE
  5
B1
  8
図形
 10
352.22960499449499
 20
160.67819301965861
 30
0.0
 11
351.22960499449499
 21
160.67819301965861
 31
0.0
1001
ACAD
1000
ASC_BOUNDS
1002
{
1070
    19
1005
83
1002
}
  0
LINE
  5
B2
  8
図形
 10
352.22960499449499
 20
160.67819301965861
 30
0.0
 11
351.22960499449499
 21
160.67819301965861
 31
0.0
  0
LINE
  5
B3
  8
図形
 10
352.22960499449499
 20
159.67819301965861
 30
0.0
 11
352.22960499449499
 21
160.67819301965861
 31
0.0
1001
ACAD
1000
ASC_BOUNDS
1002
{
1070
    19
1005
83
1002
}
  0
LINE
  5
B4
  8
図形
 10
397.72960499449499
 20
159.67819301965861
 30
0.0
 11
347.72960499449499
 21
159.67819301965861
 31
0.0
1001
ACAD
1000
ASC_BOUNDS
1002
{
1070
    19
1005
83
1005
82
1002
}
  0
LINE
  5
B5
  8
図形
 10
393.22960499449499
 20
159.67819301965861
 30
0.0
 11
393.22960499449499
 21
160.67819301965861
 31
0.0
1001
ACAD
1000
ASC_BOUNDS
1002
{
1070
    19
1005
82
1002
}
  0
LINE
  5
B6
  8
基準線
 10
370.22960499449499
 20
270.67819301965869
 30
0.0
 11
375.22960499449499
 21
270.67819301965869
 31
0.0
  0
CIRCLE
  5
B7
  8
図形
 10
372.72960499449511
 20
270.67819301965869
 30
0.0
 40
1.1999999999999991
  0
CIRCLE
  5
B8
  8
図形
 10
372.72960499449511
 20
270.67819301965869
 30
0.0
 40
1.5
  0
LINE
  5
B9
  8
基準線
 10
372.72960499449499
 20
273.17819301965869
 30
0.0
 11
372.72960499449499
 21
268.17819301965858
 31
0.0
  0
LINE
  5
BA
  8
基準線
 10
370.22960499449499
 20
234.67819301965861
 30
0.0
 11
375.22960499449499
 21
234.67819301965861
 31
0.0
  0
CIRCLE
  5
BB
  8
図形
 10
372.72960499449511
 20
234.67819301965861
 30
0.0
 40
1.1999999999999991
  0
CIRCLE
  5
BC
  8
図形
 10
372.72960499449511
 20
234.67819301965861
 30
0.0
 40
1.5
  0
LINE
  5
BD
  8
基準線
 10
372.72960499449499
 20
237.17819301965861
 30
0.0
 11
372.72960499449499
 21
232.17819301965861
 31
0.0
  0
LINE
  5
BE
  8
基準線
 10
352.22960499449499
 20
252.67819301965869
 30
0.0
 11
357.22960499449499
 21
252.67819301965869
 31
0.0
  0
CIRCLE
  5
BF
  8
図形
 10
354.72960499449511
 20
252.67819301965869
 30
0.0
 40
1.1999999999999991
  0
CIRCLE
  5
C0
  8
図形
 10
354.72960499449511
 20
252.67819301965869
 30
0.0
 40
1.5
  0
LINE
  5
C1
  8
基準線
 10
354.72960499449499
 20
255.17819301965861
 30
0.0
 11
354.72960499449499
 21
250.17819301965869
 31
0.0
  0
LINE
  5
C2
  8
基準線
 10
388.22960499449499
 20
252.67819301965869
 30
0.0
 11
393.22960499449499
 21
252.67819301965869
 31
0.0
  0
CIRCLE
  5
C3
  8
図形
 10
390.72960499449499
 20
252.67819301965869
 30
0.0
 40
1.1999999999999991
  0
CIRCLE
  5
C4
  8
図形
 10
390.72960499449499
 20
252.67819301965869
 30
0.0
 40
1.5
  0
LINE
  5
C5
  8
基準線
 10
390.72960499449499
 20
255.17819301965861
 30
0.0
 11
390.72960499449499
 21
250.17819301965869
 31
0.0
  0
DIMENSION
  5
C6
  8
寸法
  2
*D3
 10
384.73138547775898
 20
187.67819301965861
 30
0.0
 11
372.73049523612701
 21
190.05319301965869
 31
0.0
  1
%%c<>
 13
360.72960499449499
 23
177.67819301965869
 33
0.0
 14
384.73138547775898
 24
177.67819301965869
 34
0.0
1001
ACAD
1000
DSTYLE
1002
{
1070
   340
1005
C7
1002
}
  0
DIMENSION
  5
D4
  8
寸法
  2
*D2
 10
390.73138547775898
 20
197.67819301965869
 30
0.0
 11
372.73049523612701
 21
200.05319301965861
 31
0.0
  1
%%c<>
 13
354.72960499449499
 23
177.67819301965869
 33
0.0
 14
390.73138547775898
 24
177.67819301965869
 34
0.0
1001
ACAD
1000
DSTYLE
1002
{
1070
   340
1005
C7
1002
}
  0
DIMENSION
  5
E1
  8
寸法
  2
*D1
 10
397.73138547775898
 20
207.67819301965861
 30
0.0
 11
372.73049523612701
 21
210.05319301965869
 31
0.0
  1
%%c<>
 13
347.72960499449499
 23
177.67819301965869
 33
0.0
 14
397.73138547775898
 24
177.67819301965869
 34
0.0
1001
ACAD
1000
DSTYLE
1002
{
1070
   340
1005
C7
1002
}
  0
CIRCLE
  5
EE
  8
図形
 10
372.72960499449511
 20
252.67819301965869
 30
0.0
 40
25.0
  0
CIRCLE
  5
EF
  8
図形
 10
372.72960499449511
 20
252.67819301965869
 30
0.0
 40
12.0
  0
INSERT
  5
F0
  8
0
  2
*U11
 10
0.0
 20
0.0
 30
0.0
  0
ARC
  5
F2
  8
図形
 10
443.05056887170571
 20
224.47602294958679
 30
0.0
 40
1.0
 50
45.000000000001123
 51
135.0
  0
LINE
  5
F3
  8
図形
 10
442.16671367949402
 20
225.00635303547659
 30
0.0
 11
441.63638359360391
 21
224.47602294958671
 31
0.0
  0
LINE
  5
F4
  8
図形
 10
442.34347623265501
 20
225.18311558863769
 30
0.0
 11
442.16671367949402
 21
225.00635303547659
 31
0.0
  0
LINE
  5
F5
  8
図形
 10
442.34347623265478
 20
225.18311558863761
 30
0.0
 11
442.1667136794938
 21
225.00635303547659
 31
0.0
  0
LINE
  5
F6
  8
図形
 10
443.75768272396027
 20
225.18313680184099
 30
0.0
 11
448.7074301922662
 21
220.2333893335352
 31
0.0
  0
LINE
  5
F7
  8
図形
 10
446.58611691977438
 20
219.5262896234164
 30
0.0
 11
443.7576968660959
 21
216.69786956973809
 31
0.0
  0
LINE
  5
F8
  8
図形
 10
448.7074301922662
 20
220.2333893335352
 30
0.0
 11
443.05059715597719
 21
214.5765562972463
 31
0.0
  0
LINE
  5
F9
  8
図形
 10
445.17189628633332
 20
220.94051025685729
 30
0.0
 11
442.34347623265501
 21
218.11209020317901
 31
0.0
  0
ARC
  5
FA
  8
図形
 10
428.46115285353528
 20
235.96801428131209
 30
0.0
 40
1.200000000000031
 50
93.189999999997752
 51
176.8099900000023
  0
LINE
  5
FB
  8
図形
 10
428.39437616150752
 20
237.16615487131051
 30
0.0
 11
427.69285664660879
 21
237.8676743862091
 31
0.0
  0
ARC
  5
FC
  8
図形
 10
427.19628024334878
 20
237.23288689149859
 30
0.0
 40
1.1999999999999811
 50
273.18999999999772
 51
356.80999700000018
  0
ARC
  5
FD
  8
図形
 10
427.69126913231509
 20
234.47515630273551
 30
0.0
 40
1.1999999999999891
 50
273.18999999999772
 51
356.80999700000018
  0
ARC
  5
FE
  8
図形
 10
428.95614174250159
 20
233.2102836925491
 30
0.0
 40
1.199999999999978
 50
93.189999999999429
 51
176.8099900000056
  0
ARC
  5
FF
  8
図形
 10
426.06490939345048
 20
236.10151604160009
 30
0.0
 40
1.1999999999999891
 50
273.18999999999772
 51
356.80999700000018
  0
LINE
  5
100
  8
図形
 10
426.13168608547829
 20
234.90337545160151
 30
0.0
 11
425.42486102428819
 21
235.61020051279181
 31
0.0
  0
ARC
  5
101
  8
図形
 10
430.08751259239978
 20
234.34165454244749
 30
0.0
 40
1.200000000000021
 50
93.189999999997752
 51
176.8099900000056
  0
LINE
  5
102
  8
図形
 10
430.02724588143951
 20
235.54618973099511
 30
0.0
 11
434.14108706836561
 21
231.40569061841839
 31
0.0
  0
ARC
  5
103
  8
図形
 10
420.19752476603128
 20
230.37234250563171
 30
0.0
 40
10.6
 50
44.999999999999993
 51
135.0
  0
ARC
  5
104
  8
図形
 10
420.47511355598232
 20
230.66045304448591
 30
0.0
 40
7.0
 50
44.999999999999993
 51
135.0
  0
LINE
  5
105
  8
図形
 10
435.97954348624722
 20
224.47602294958659
 30
0.0
 11
438.80796353992571
 21
227.30444300326499
 31
0.0
  0
LINE
  5
106
  8
図形
 10
435.27240134972169
 20
225.1831650861123
 30
0.0
 11
438.10082140339989
 21
228.0115851397907
 31
0.0
  0
ARC
  5
107
  8
図形
 10
438.80796353992571
 20
220.23341761780659
 30
0.0
 40
1.0
 50
135.0
 51
225.0
  0
LINE
  5
108
  8
図形
 10
438.10087090087478
 20
220.94051025685741
 30
0.0
 11
438.27763345403571
 21
221.11727281001839
 31
0.0
  0
LINE
  5
109
  8
図形
 10
438.27763345403571
 20
221.11727281001839
 30
0.0
 11
438.80796353992571
 21
221.64760289590839
 31
0.0
  0
LINE
  5
10A
  8
図形
 10
438.27763345403571
 20
221.11727281001839
 30
0.0
 11
431.06515135700062
 21
228.32975490705351
 31
0.0
  0
LINE
  5
10B
  8
図形
 10
415.52536608767639
 20
235.61020051279169
 30
0.0
 11
409.03582648776262
 21
229.1206609128779
 31
0.0
  0
LINE
  5
10C
  8
図形
 10
427.75872711924018
 20
233.28914024078671
 30
0.0
 11
431.8853032992954
 21
229.14990684934821
 31
0.0
  0
LINE
  5
10D
  8
図形
 10
431.06515135700062
 20
228.32975490705351
 30
0.0
 11
434.95423158245887
 21
232.2188351325116
 31
0.0
  0
LINE
  5
10E
  8
図形
 10
444.46480364728251
 20
215.99076278855159
 30
0.0
 11
435.27240134972169
 21
225.1831650861123
 31
0.0
  0
LINE
  5
10F
  8
図形
  6
CONTINUOUS
 10
438.10084968767143
 20
219.52630376555209
 30
0.0
 11
443.05059715597719
 21
214.5765562972463
 31
0.0
  0
LINE
  5
110
  8
図形
 10
444.606210861384
 20
220.37482483190809
 30
0.0
 11
438.24227811497627
 21
226.73875757831581
 31
0.0
  0
LINE
  5
111
  8
図形
 10
444.04052543643479
 20
219.80913940695879
 30
0.0
 11
437.67659269002718
 21
226.1730721533666
 31
0.0
  0
LINE
  5
112
  8
図形
 10
443.47484708255342
 20
219.2434610530774
 30
0.0
 11
437.1109143361457
 21
225.6073937994851
 31
0.0
  0
LINE
  5
113
  8
図形
 10
442.90916165760422
 20
218.67777562812819
 30
0.0
 11
436.54522891119638
 21
225.04170837453589
 31
0.0
  0
LINE
  5
114
  8
図形
 10
447.29322370096088
 20
218.81918284222979
 30
0.0
 11
438.10082140339989
 21
228.0115851397907
 31
0.0
  0
LINE
  5
115
  8
図形
 10
434.95423158245887
 20
232.2188351325116
 30
0.0
 11
442.16671367949402
 21
225.00635303547659
 31
0.0
  0
LINE
  5
116
  8
図形
 10
391.55096931098711
 20
236.13452531035139
 30
0.0
 11
396.31025909198581
 21
231.37523552935269
 31
0.0
  0
ARC
  5
117
  8
図形
 10
401.26000656029157
 20
236.32498299765851
 30
0.0
 40
6.9999999999999973
 50
225.0
 51
315.0
  0
LINE
  5
118
  8
図形
 10
389.28628428720179
 20
233.8795393522841
 30
0.0
 11
394.04516272660783
 21
229.12066091287809
 31
0.0
  0
ARC
  5
119
  8
図形
 10
401.54049460718522
 20
236.6159927934554
 30
0.0
 40
10.6
 50
225.0
 51
315.0
  0
LINE
  5
11A
  8
図形
 10
412.702192885454
 20
237.8676743862091
 30
0.0
 11
406.20975402859739
 21
231.37523552935261
 31
0.0
  0
DIMENSION
  5
11B
  8
寸法
  2
*D0
 10
337.72960499449499
 20
159.67819301965861
 30
0.0
 11
335.35460499449499
 21
168.67819301965869
 31
0.0
 13
347.72960499449499
 23
177.67819301965869
 33
0.0
 14
347.72960499449499
 24
159.67819301965861
 34
0.0
 50
270.0
1001
ACAD
1000
DSTYLE
1002
{
1070
   340
1005
C7
1002
}
  0
LINE
  5
128
  8
基準線
 10
372.72960499449499
 20
181.67819301965869
 30
0.0
 11
372.72960499449499
 21
155.67819301965869
 31
0.0
  0
LINE
  5
129
  8
基準線
 10
372.72960499449499
 20
223.67819301965861
 30
0.0
 11
372.72960499449499
 21
281.67819301965869
 31
0.0
  0
LINE
  5
12A
  8
基準線
 10
401.72960499449511
 20
252.67819301965869
 30
0.0
 11
343.72960499449511
 21
252.67819301965869
 31
0.0
  0
ENDSEC
  0
EOF
