  0
SECTION
  2
HEADER
  9
$ACADVER
  1
AC1009
  9
$INSBASE
 10
0.0
 20
0.0
 30
0.0
  9
$EXTMIN
 10
323.23332141282242
 20
110.64945337950761
 30
0.0
  9
$EXTMAX
 10
553.64643264309916
 20
294.67819301965858
 30
0.0
  9
$LIMMIN
 10
0.0
 20
0.0
  9
$LIMMAX
 10
420.0
 20
297.0
  9
$ORTHOMODE
 70
     0
  9
$REGENMODE
 70
     1
  9
$FILLMODE
 70
     1
  9
$QTEXTMODE
 70
     0
  9
$MIRRTEXT
 70
     1
  9
$DRAGMODE
 70
     2
  9
$LTSCALE
 40
1.0
  9
$OSMODE
 70
    39
  9
$ATTMODE
 70
     1
  9
$TEXTSIZE
 40
2.5
  9
$TRACEWID
 40
1.0
  9
$TEXTSTYLE
  7
STANDARD
  9
$CLAYER
  8
0
  9
$CELTYPE
  6
BYLAYER
  9
$CECOLOR
 62
   256
  9
$DIMSCALE
 40
1.0
  9
$DIMASZ
 40
2.5
  9
$DIMEXO
 40
0.625
  9
$DIMDLI
 40
3.75
  9
$DIMRND
 40
0.0
  9
$DIMDLE
 40
0.0
  9
$DIMEXE
 40
1.25
  9
$DIMTP
 40
0.0
  9
$DIMTM
 40
0.0
  9
$DIMTXT
 40
2.5
  9
$DIMCEN
 40
2.5
  9
$DIMTSZ
 40
0.0
  9
$DIMTOL
 70
     0
  9
$DIMLIM
 70
     0
  9
$DIMTIH
 70
     0
  9
$DIMTOH
 70
     0
  9
$DIMSE1
 70
     0
  9
$DIMSE2
 70
     0
  9
$DIMTAD
 70
     1
  9
$DIMZIN
 70
     8
  9
$DIMBLK
  1

  9
$DIMASO
 70
     1
  9
$DIMSHO
 70
     1
  9
$DIMPOST
  1

  9
$DIMAPOST
  1

  9
$DIMALT
 70
     0
  9
$DIMALTD
 70
     3
  9
$DIMALTF
 40
0.03937007874016
  9
$DIMLFAC
 40
1.0
  9
$DIMTOFL
 70
     1
  9
$DIMTVP
 40
0.0
  9
$DIMTIX
 70
     0
  9
$DIMSOXD
 70
     0
  9
$DIMSAH
 70
     0
  9
$DIMBLK1
  1

  9
$DIMBLK2
  1

  9
$DIMSTYLE
  2
ISO-25
  9
$DIMCLRD
 70
     0
  9
$DIMCLRE
 70
     0
  9
$DIMCLRT
 70
     0
  9
$DIMTFAC
 40
1.0
  9
$DIMGAP
 40
0.625
  9
$LUNITS
 70
     2
  9
$LUPREC
 70
     4
  9
$SKETCHINC
 40
1.0
  9
$FILLETRAD
 40
10.0
  9
$AUNITS
 70
     0
  9
$AUPREC
 70
     0
  9
$MENU
  1
.
  9
$ELEVATION
 40
0.0
  9
$PELEVATION
 40
0.0
  9
$THICKNESS
 40
0.0
  9
$LIMCHECK
 70
     0
  9
$BLIPMODE
 70
     0
  9
$CHAMFERA
 40
10.0
  9
$CHAMFERB
 40
10.0
  9
$SKPOLY
 70
     0
  9
$TDCREATE
 40
2454873.669344224
  9
$TDUPDATE
 40
2455083.5614257748
  9
$TDINDWG
 40
0.2775048611
  9
$TDUSRTIMER
 40
0.2775048611
  9
$USRTIMER
 70
     1
  9
$ANGBASE
 50
0.0
  9
$ANGDIR
 70
     0
  9
$PDMODE
 70
     0
  9
$PDSIZE
 40
0.0
  9
$PLINEWID
 40
0.0
  9
$COORDS
 70
     2
  9
$SPLFRAME
 70
     0
  9
$SPLINETYPE
 70
     6
  9
$SPLINESEGS
 70
     8
  9
$ATTDIA
 70
     0
  9
$ATTREQ
 70
     1
  9
$HANDLING
 70
 22529
  9
$HANDSEED
  5
173
  9
$SURFTAB1
 70
     6
  9
$SURFTAB2
 70
     6
  9
$SURFTYPE
 70
     6
  9
$SURFU
 70
     6
  9
$SURFV
 70
     6
  9
$UCSNAME
  2

  9
$UCSORG
 10
0.0
 20
0.0
 30
0.0
  9
$UCSXDIR
 10
1.0
 20
0.0
 30
0.0
  9
$UCSYDIR
 10
0.0
 20
1.0
 30
0.0
  9
$PUCSNAME
  2

  9
$PUCSORG
 10
0.0
 20
0.0
 30
0.0
  9
$PUCSXDIR
 10
1.0
 20
0.0
 30
0.0
  9
$PUCSYDIR
 10
0.0
 20
1.0
 30
0.0
  9
$USERI1
 70
     0
  9
$USERI2
 70
     0
  9
$USERI3
 70
     0
  9
$USERI4
 70
     0
  9
$USERI5
 70
     0
  9
$USERR1
 40
0.0
  9
$USERR2
 40
0.0
  9
$USERR3
 40
0.0
  9
$USERR4
 40
0.0
  9
$USERR5
 40
0.0
  9
$WORLDVIEW
 70
     1
  9
$SHADEDGE
 70
     3
  9
$SHADEDIF
 70
    70
  9
$TILEMODE
 70
     1
  9
$MAXACTVP
 70
    64
  9
$PLIMCHECK
 70
     0
  9
$PEXTMIN
 10
1.146349085891772
 20
2.3954699130834451
 30
0.0
  9
$PEXTMAX
 10
288.43693587376322
 20
201.0508415499194
 30
0.0
  9
$PLIMMIN
 10
-3.17498779296875
 20
-3.1749999523162842
  9
$PLIMMAX
 10
293.85684204101562
 20
206.7348358631134
  9
$UNITMODE
 70
     0
  9
$VISRETAIN
 70
     1
  9
$PLINEGEN
 70
     0
  9
$PSLTSCALE
 70
     1
  0
ENDSEC
  0
SECTION
  2
TABLES
  0
TABLE
  2
VPORT
 70
     1
  0
VPORT
  2
*ACTIVE
 70
     0
 10
0.0
 20
0.0
 11
1.0
 21
1.0
 12
411.35392081176298
 22
214.75079117399531
 13
0.0
 23
0.0
 14
10.0
 24
10.0
 15
10.0
 25
10.0
 16
0.0
 26
0.0
 36
1.0
 17
0.0
 27
0.0
 37
0.0
 40
259.44838847636709
 41
1.710651828298887
 42
50.0
 43
0.0
 44
0.0
 50
0.0
 51
0.0
 71
     0
 72
   100
 73
     1
 74
     3
 75
     0
 76
     0
 77
     0
 78
     0
  0
ENDTAB
  0
TABLE
  2
LTYPE
 70
     2
  0
LTYPE
  2
CONTINUOUS
 70
     0
  3
Solid line
 72
    65
 73
     0
 40
0.0
  0
LTYPE
  2
CENTER
 70
     0
  3
Center ____ _ ____ _ ____ _ ____ _ ____ _ ____
 72
    65
 73
     4
 40
50.799999999999997
 49
31.75
 49
-6.3499999999999988
 49
6.3499999999999988
 49
-6.3499999999999988
  0
ENDTAB
  0
TABLE
  2
LAYER
 70
     5
  0
LAYER
  2
0
 70
     0
 62
     7
  6
CONTINUOUS
  0
LAYER
  2
基準線
 70
     0
 62
     1
  6
CENTER
  0
LAYER
  2
図形
 70
     0
 62
     7
  6
CONTINUOUS
  0
LAYER
  2
寸法
 70
     0
 62
     5
  6
CONTINUOUS
  0
LAYER
  2
DEFPOINTS
 70
     0
 62
     7
  6
CONTINUOUS
  0
ENDTAB
  0
TABLE
  2
STYLE
 70
     5
  0
STYLE
  2
STANDARD
 70
     0
 40
0.0
 41
1.0
 50
0.0
 71
     0
 42
2.5
  3
txt
  4

  0
STYLE
  2
NISSIN5
 70
     0
 40
5.0
 41
1.0
 50
0.0
 71
     0
 42
3.5
  3
txt
  4

  0
STYLE
  2
NISSIN3_5
 70
     0
 40
3.5
 41
1.0
 50
0.0
 71
     0
 42
3.5
  3
txt
  4

  0
STYLE
  2
NISSIN3
 70
     0
 40
3.0
 41
1.0
 50
0.0
 71
     0
 42
4.0
  3
txt
  4

  0
STYLE
  2
NISSIN2
 70
     0
 40
2.0
 41
1.0
 50
0.0
 71
     0
 42
4.0
  3
txt
  4

  0
ENDTAB
  0
TABLE
  2
VIEW
 70
     0
  0
ENDTAB
  0
TABLE
  2
UCS
 70
     0
  0
ENDTAB
  0
TABLE
  2
APPID
 70
     1
  0
APPID
  2
ACAD
 70
     0
  0
ENDTAB
  0
TABLE
  2
DIMSTYLE
 70
     4
  0
DIMSTYLE
  2
ISO-25
 70
     0
  3

  4

  5

  6

  7

 40
1.0
 41
2.5
 42
0.625
 43
3.75
 44
1.25
 45
0.0
 46
0.0
 47
0.0
 48
0.0
140
2.5
141
2.5
142
0.0
143
0.03937007874016
144
1.0
145
0.0
146
1.0
147
0.625
 71
     0
 72
     0
 73
     0
 74
     0
 75
     0
 76
     0
 77
     1
 78
     8
170
     0
171
     3
172
     1
173
     0
174
     0
175
     0
176
     0
177
     0
178
     0
  0
DIMSTYLE
  2
NISSINSTYLE
 70
     0
  3

  4

  5

  6

  7

 40
1.0
 41
3.0
 42
2.0
 43
3.75
 44
3.0
 45
0.0
 46
0.0
 47
0.0
 48
0.0
140
3.5
141
3.0
142
0.0
143
0.03937007874016
144
1.0
145
0.0
146
1.0
147
0.625
 71
     0
 72
     0
 73
     0
 74
     0
 75
     0
 76
     0
 77
     1
 78
     8
170
     0
171
     3
172
     1
173
     0
174
     0
175
     0
176
     0
177
     0
178
     0
  0
DIMSTYLE
  2
JIS
 70
     0
  3

  4

  5

  6

  7

 40
1.0
 41
2.5
 42
1.0
 43
7.0
 44
1.0
 45
0.0
 46
0.0
 47
0.0
 48
0.0
140
2.5
141
0.0
142
0.0
143
0.0394
144
1.0
145
0.0
146
1.0
147
0.0
 71
     0
 72
     0
 73
     0
 74
     0
 75
     0
 76
     0
 77
     1
 78
     8
170
     0
171
     2
172
     1
173
     0
174
     1
175
     1
176
     0
177
     0
178
     0
  0
DIMSTYLE
  2
STANDARD
 70
     0
  3

  4

  5

  6

  7

 40
1.0
 41
0.18
 42
0.0625
 43
0.38
 44
0.18
 45
0.0
 46
0.0
 47
0.0
 48
0.0
140
0.18
141
0.09
142
0.0
143
25.399999999999999
144
1.0
145
0.0
146
1.0
147
0.09
 71
     0
 72
     0
 73
     1
 74
     1
 75
     0
 76
     0
 77
     0
 78
     0
170
     0
171
     2
172
     0
173
     0
174
     0
175
     0
176
     0
177
     0
178
     0
  0
ENDTAB
  0
ENDSEC
  0
SECTION
  2
BLOCKS
  0
BLOCK
  8
0
  2
$MODEL_SPACE
 70
     0
 10
0.0
 20
0.0
 30
0.0
  3
$MODEL_SPACE
  1

  0
ENDBLK
  5
9
  8
0
  0
BLOCK
 67
     1
  8
0
  2
$PAPER_SPACE
 70
     0
 10
0.0
 20
0.0
 30
0.0
  3
$PAPER_SPACE
  1

  0
ENDBLK
  5
E
 67
     1
  8
0
  0
BLOCK
  8
0
  2
*D0
 70
     1
 10
0.0
 20
0.0
 30
0.0
  3
*D0
  1

  0
LINE
  5
96
  8
寸法
 62
     0
 10
335.72960499449499
 20
167.6540983915082
 30
0.0
 11
335.72960499449499
 21
198.6110643863795
 31
0.0
  0
LINE
  5
97
  8
寸法
 62
     0
 10
409.72960499449499
 20
167.67819301965861
 30
0.0
 11
409.72960499449499
 21
198.6110643863795
 31
0.0
  0
LINE
  5
98
  8
寸法
 62
     0
 10
338.72960499449499
 20
195.61106438637941
 30
0.0
 11
406.72960499449499
 21
195.61106438637941
 31
0.0
  0
SOLID
  5
99
  8
寸法
 62
     0
 10
338.72960499449499
 20
196.1110643863795
 30
0.0
 11
338.72960499449499
 21
195.1110643863795
 31
0.0
 12
335.72960499449499
 22
195.61106438637941
 32
0.0
 13
335.72960499449499
 23
195.61106438637941
 33
0.0
  0
SOLID
  5
9A
  8
寸法
 62
     0
 10
406.72960499449499
 20
196.1110643863795
 30
0.0
 11
406.72960499449499
 21
195.1110643863795
 31
0.0
 12
409.72960499449499
 22
195.61106438637941
 32
0.0
 13
409.72960499449499
 23
195.61106438637941
 33
0.0
  0
INSERT
  5
9B
  8
0
  2
*U11
 10
0.0
 20
0.0
 30
0.0
  0
POINT
  5
9C
  8
DEFPOINTS
 62
     0
 10
335.72960499449499
 20
165.6540983915082
 30
0.0
  0
POINT
  5
9D
  8
DEFPOINTS
 62
     0
 10
409.72960499449499
 20
165.67819301965861
 30
0.0
  0
POINT
  5
9E
  8
DEFPOINTS
 62
     0
 10
409.72960499449499
 20
195.61106438637941
 30
0.0
  0
ENDBLK
  5
A0
  8
0
  0
BLOCK
  8
0
  2
*D1
 70
     1
 10
0.0
 20
0.0
 30
0.0
  3
*D1
  1

  0
LINE
  5
87
  8
寸法
 62
     0
 10
342.72960499449499
 20
167.67819301965861
 30
0.0
 11
342.72960499449499
 21
188.66088493269959
 31
0.0
  0
LINE
  5
88
  8
寸法
 62
     0
 10
402.72960499449499
 20
167.67819301965861
 30
0.0
 11
402.72960499449499
 21
188.66088493269959
 31
0.0
  0
LINE
  5
89
  8
寸法
 62
     0
 10
345.72960499449499
 20
185.66088493269959
 30
0.0
 11
399.72960499449499
 21
185.66088493269959
 31
0.0
  0
SOLID
  5
8A
  8
寸法
 62
     0
 10
345.72960499449499
 20
186.16088493269959
 30
0.0
 11
345.72960499449499
 21
185.16088493269959
 31
0.0
 12
342.72960499449499
 22
185.66088493269959
 32
0.0
 13
342.72960499449499
 23
185.66088493269959
 33
0.0
  0
SOLID
  5
8B
  8
寸法
 62
     0
 10
399.72960499449499
 20
186.16088493269959
 30
0.0
 11
399.72960499449499
 21
185.16088493269959
 31
0.0
 12
402.72960499449499
 22
185.66088493269959
 32
0.0
 13
402.72960499449499
 23
185.66088493269959
 33
0.0
  0
INSERT
  5
8C
  8
0
  2
*U10
 10
0.0
 20
0.0
 30
0.0
  0
POINT
  5
8D
  8
DEFPOINTS
 62
     0
 10
342.72960499449499
 20
165.67819301965861
 30
0.0
  0
POINT
  5
8E
  8
DEFPOINTS
 62
     0
 10
402.72960499449499
 20
165.67819301965861
 30
0.0
  0
POINT
  5
8F
  8
DEFPOINTS
 62
     0
 10
402.72960499449499
 20
185.66088493269959
 30
0.0
  0
ENDBLK
  5
91
  8
0
  0
BLOCK
  8
0
  2
*D2
 70
     1
 10
0.0
 20
0.0
 30
0.0
  3
*D2
  1

  0
LINE
  5
78
  8
寸法
 62
     0
 10
348.72960499449499
 20
167.67819301965861
 30
0.0
 11
348.72960499449499
 21
178.67282234363151
 31
0.0
  0
LINE
  5
79
  8
寸法
 62
     0
 10
396.72960499449499
 20
167.67819301965861
 30
0.0
 11
396.72960499449499
 21
178.67282234363151
 31
0.0
  0
LINE
  5
7A
  8
寸法
 62
     0
 10
351.72960499449499
 20
175.67282234363151
 30
0.0
 11
393.72960499449499
 21
175.67282234363151
 31
0.0
  0
SOLID
  5
7B
  8
寸法
 62
     0
 10
351.72960499449499
 20
176.17282234363151
 30
0.0
 11
351.72960499449499
 21
175.17282234363151
 31
0.0
 12
348.72960499449499
 22
175.67282234363151
 32
0.0
 13
348.72960499449499
 23
175.67282234363151
 33
0.0
  0
SOLID
  5
7C
  8
寸法
 62
     0
 10
393.72960499449499
 20
176.17282234363151
 30
0.0
 11
393.72960499449499
 21
175.17282234363151
 31
0.0
 12
396.72960499449499
 22
175.67282234363151
 32
0.0
 13
396.72960499449499
 23
175.67282234363151
 33
0.0
  0
INSERT
  5
7D
  8
0
  2
*U9
 10
0.0
 20
0.0
 30
0.0
  0
POINT
  5
7E
  8
DEFPOINTS
 62
     0
 10
348.72960499449499
 20
165.67819301965861
 30
0.0
  0
POINT
  5
7F
  8
DEFPOINTS
 62
     0
 10
396.72960499449499
 20
165.67819301965861
 30
0.0
  0
POINT
  5
80
  8
DEFPOINTS
 62
     0
 10
396.72960499449499
 20
175.67282234363151
 30
0.0
  0
ENDBLK
  5
82
  8
0
  0
BLOCK
  8
0
  2
*D3
 70
     1
 10
0.0
 20
0.0
 30
0.0
  3
*D3
  1

  0
LINE
  5
4A
  8
寸法
 62
     0
 10
333.72960499449499
 20
165.67819301965861
 30
0.0
 11
324.7669508544468
 21
165.67819301965861
 31
0.0
  0
LINE
  5
4B
  8
寸法
 62
     0
 10
333.72960499449499
 20
146.67819301965861
 30
0.0
 11
324.7669508544468
 21
146.67819301965861
 31
0.0
  0
LINE
  5
4C
  8
寸法
 62
     0
 10
327.7669508544468
 20
162.67819301965861
 30
0.0
 11
327.7669508544468
 21
149.67819301965861
 31
0.0
  0
SOLID
  5
4D
  8
寸法
 62
     0
 10
327.2669508544468
 20
162.67819301965861
 30
0.0
 11
328.2669508544468
 21
162.67819301965861
 31
0.0
 12
327.7669508544468
 22
165.67819301965861
 32
0.0
 13
327.7669508544468
 23
165.67819301965861
 33
0.0
  0
SOLID
  5
4E
  8
寸法
 62
     0
 10
327.2669508544468
 20
149.67819301965861
 30
0.0
 11
328.2669508544468
 21
149.67819301965861
 31
0.0
 12
327.7669508544468
 22
146.67819301965861
 32
0.0
 13
327.7669508544468
 23
146.67819301965861
 33
0.0
  0
TEXT
  5
4F
  8
0
 62
     0
 10
327.1419508544468
 20
153.76152635299201
 30
0.0
 40
3.5
  1
19
 50
90.0
  7
NISSIN3_5
  0
POINT
  5
50
  8
DEFPOINTS
 62
     0
 10
335.72960499449499
 20
165.67819301965861
 30
0.0
  0
POINT
  5
51
  8
DEFPOINTS
 62
     0
 10
335.72960499449499
 20
146.67819301965861
 30
0.0
  0
POINT
  5
52
  8
DEFPOINTS
 62
     0
 10
327.7669508544468
 20
146.67819301965861
 30
0.0
  0
ENDBLK
  5
54
  8
0
  0
BLOCK
  8
0
  2
*D4
 70
     1
 10
0.0
 20
0.0
 30
0.0
  3
*D4
  1

  0
LINE
  5
31
  8
寸法
 62
     0
 10
397.7463888590683
 20
160.12983947538501
 30
0.0
 11
396.21341543538068
 21
162.7850273318646
 31
0.0
  0
ARC
  5
32
  8
寸法
 62
     0
 10
405.51270056132569
 20
146.67819301965861
 30
0.0
 40
15.598570251889781
 50
131.03648338573851
 51
168.96351661426161
  0
SOLID
  5
33
  8
寸法
 62
     0
 10
394.98114259131802
 20
158.85103005038869
 30
0.0
 11
395.56210471373959
 21
158.0370994561047
 31
0.0
 12
397.71341543538068
 22
160.18695112051131
 32
0.0
 13
397.71341543538068
 23
160.18695112051131
 33
0.0
  0
SOLID
  5
34
  8
寸法
 62
     0
 10
390.70030110435971
 20
149.6162085882369
 30
0.0
 11
389.70493547158162
 21
149.71237124774851
 31
0.0
 12
389.9141303094359
 22
146.67819301965849
 32
0.0
 13
389.9141303094359
 23
146.67819301965849
 33
0.0
  0
TEXT
  5
35
  8
0
 62
     0
 10
389.1341051545362
 20
150.75677412226449
 30
0.0
 40
3.0
  1
60°
 50
60.000000000000099
  7
NISSIN3
  0
POINT
  5
36
  8
DEFPOINTS
 62
     0
 10
393.56350249926442
 20
156.7047607063983
 30
0.0
  0
POINT
  5
38
  8
DEFPOINTS
 62
     0
 10
398.7463888590683
 20
158.39778866781609
 30
0.0
  0
POINT
  5
39
  8
DEFPOINTS
 62
     0
 10
409.72960499449499
 20
146.67819301965861
 30
0.0
  0
POINT
  5
3A
  8
DEFPOINTS
 62
     0
 10
335.72960499449499
 20
146.67819301965861
 30
0.0
  0
POINT
  5
3B
  8
DEFPOINTS
 62
     0
 10
404.63536160480248
 20
148.1977886678161
 30
0.0
  0
ENDBLK
  5
3D
  8
0
  0
BLOCK
  8
0
  2
*X5
 70
     1
 10
0.0
 20
0.0
 30
0.0
  3
*X5
  1

  0
LINE
  5
135
  8
0
 62
     0
 10
339.75369962264551
 20
146.67819301965869
 30
0.0
 11
341.25369962264551
 21
148.17819301965861
 31
0.0
  0
LINE
  5
136
  8
0
 62
     0
 10
346.72960499449499
 20
158.14422645204269
 30
0.0
 11
348.72960499449488
 21
160.14422645204269
 31
0.0
  0
LINE
  5
137
  8
0
 62
     0
 10
335.72960499449488
 20
147.14422645204269
 30
0.0
 11
338.26357156211088
 21
149.67819301965861
 31
0.0
  0
LINE
  5
138
  8
0
 62
     0
 10
344.22960499449511
 20
160.1343545125774
 30
0.0
 11
348.72960499449488
 21
164.6343545125772
 31
0.0
  0
LINE
  5
139
  8
0
 62
     0
 10
335.72960499449488
 20
151.63435451257729
 30
0.0
 11
337.23254727837769
 21
153.13729679645999
 31
0.0
  0
LINE
  5
13A
  8
0
 62
     0
 10
338.28331544104168
 20
158.67819301965861
 30
0.0
 11
341.22960499449488
 21
161.62448257311189
 31
0.0
  0
LINE
  5
13B
  8
0
 62
     0
 10
344.22960499449499
 20
164.62448257311181
 30
0.0
 11
345.28331544104168
 21
165.67819301965861
 31
0.0
  0
LINE
  5
13C
  8
0
 62
     0
 10
335.72960499449488
 20
156.12448257311181
 30
0.0
 11
337.23254727837769
 21
157.62742485699459
 31
0.0
  0
LINE
  5
13D
  8
0
 62
     0
 10
335.72960499449488
 20
160.61461063364641
 30
0.0
 11
340.79318738050722
 21
165.67819301965861
 31
0.0
  0
LINE
  5
13E
  8
0
 62
     0
 10
335.72960499449488
 20
165.10473869418101
 30
0.0
 11
336.30305931997259
 21
165.67819301965861
 31
0.0
  0
ENDBLK
  5
140
  8
0
  0
BLOCK
  8
0
  2
*X6
 70
     1
 10
0.0
 20
0.0
 30
0.0
  3
*X6
  1

  0
LINE
  5
142
  8
0
 62
     0
 10
407.105620530664
 20
146.67819301965849
 30
0.0
 11
409.72960499449499
 21
149.30217748348949
 31
0.0
  0
LINE
  5
143
  8
0
 62
     0
 10
405.529604994495
 20
149.5923055440241
 30
0.0
 11
405.61549247012948
 21
149.67819301965861
 31
0.0
  0
LINE
  5
144
  8
0
 62
     0
 10
408.22960499449499
 20
152.29230554402409
 30
0.0
 11
409.72960499449499
 21
153.79230554402409
 31
0.0
  0
LINE
  5
145
  8
0
 62
     0
 10
403.72960499449499
 20
147.79230554402409
 30
0.0
 11
404.11549247012948
 21
148.17819301965861
 31
0.0
  0
LINE
  5
146
  8
0
 62
     0
 10
408.22960499449488
 20
156.78243360455861
 30
0.0
 11
409.72960499449499
 21
158.28243360455869
 31
0.0
  0
LINE
  5
147
  8
0
 62
     0
 10
405.63523634906039
 20
158.67819301965861
 30
0.0
 11
409.72960499449511
 21
162.77256166509329
 31
0.0
  0
LINE
  5
148
  8
0
 62
     0
 10
404.22960499449488
 20
161.76268972562781
 30
0.0
 11
408.14510828852582
 21
165.67819301965861
 31
0.0
  0
LINE
  5
149
  8
0
 62
     0
 10
401.14510828852571
 20
158.67819301965861
 30
0.0
 11
401.22960499449488
 21
158.76268972562781
 31
0.0
  0
LINE
  5
14A
  8
0
 62
     0
 10
396.72960499449499
 20
158.75281778616241
 30
0.0
 11
401.22960499449488
 21
163.2528177861623
 31
0.0
  0
LINE
  5
14B
  8
0
 62
     0
 10
396.72960499449499
 20
163.24294584669701
 30
0.0
 11
399.16485216745662
 21
165.67819301965861
 31
0.0
  0
ENDBLK
  5
14D
  8
0
  0
BLOCK
  8
0
  2
*D7
 70
     1
 10
0.0
 20
0.0
 30
0.0
  3
*D7
  1

  0
LINE
  5
150
  8
寸法
 62
     0
 10
397.7463888590683
 20
160.12983947538501
 30
0.0
 11
396.21341543538068
 21
162.7850273318646
 31
0.0
  0
ARC
  5
151
  8
寸法
 62
     0
 10
405.51270056132569
 20
146.67819301965861
 30
0.0
 40
15.59857025188982
 50
97.927033228523385
 51
108.96351661426171
  0
ARC
  5
152
  8
寸法
 62
     0
 10
405.51270056132569
 20
146.67819301965861
 30
0.0
 40
15.59857025188982
 50
191.03648338573831
 51
202.0729667714767
  0
ARC
  5
153
  8
寸法
 62
     0
 10
405.51270056132569
 20
146.67819301965861
 30
0.0
 40
15.59857025188982
 50
120.0000000000001
 51
180.0
  0
SOLID
  5
154
  8
寸法
 62
     0
 10
400.65089695194558
 20
160.97511502468311
 30
0.0
 11
400.23649344158918
 21
161.8852082784787
 31
0.0
 12
397.71341543538068
 22
160.18695112051131
 32
0.0
 13
397.71341543538068
 23
160.18695112051131
 33
0.0
  0
SOLID
  5
155
  8
寸法
 62
     0
 10
389.70493547158151
 20
143.64401479156859
 30
0.0
 11
390.7003011043596
 21
143.7401774510802
 31
0.0
 12
389.91413030943579
 22
146.67819301965861
 32
0.0
 13
389.91413030943579
 23
146.67819301965861
 33
0.0
  0
TEXT
  8
0
  40
3
  5
172
  62
0
  72
0
  71
0
 10
390.164
 20
151.640
 30
0.000000
  1
60°
  7
NISSIN3
  0
POINT
  5
157
  8
DEFPOINTS
 62
     0
 10
393.56350249926442
 20
156.70476070639839
 30
0.0
  0
POINT
  5
158
  8
DEFPOINTS
 62
     0
 10
398.7463888590683
 20
158.39778866781609
 30
0.0
  0
POINT
  5
159
  8
DEFPOINTS
 62
     0
 10
409.72960499449499
 20
146.67819301965861
 30
0.0
  0
POINT
  5
15A
  8
DEFPOINTS
 62
     0
 10
335.72960499449499
 20
146.67819301965861
 30
0.0
  0
POINT
  5
15B
  8
DEFPOINTS
 62
     0
 10
404.63536160480248
 20
148.1977886678161
 30
0.0
  0
ENDBLK
  5
15D
  8
0
  0
BLOCK
  8
0
  2
*U8
 70
     1
 10
0.0
 20
0.0
 30
0.0
  3
*U8
  1

  0
TEXT
  5
15F
  8
0
 10
469.45861538421582
 20
119.1471570294955
 30
0.0
 40
5.0
  1
MODEL []DR-LA74
  7
NISSIN2
  0
TEXT
  5
160
  8
0
 10
469.45861538421582
 20
110.8138236961622
 30
0.0
 40
5.0
  1
NISSIN ELECTRONIC CO.,LTD.
  7
NISSIN2
  0
ENDBLK
  5
162
  8
0
  0
BLOCK
  8
0
  2
*U9
 70
     1
 10
0.0
 20
0.0
 30
0.0
  3
*U9
  1

  0
TEXT
  5
164
  8
0
 62
     0
 10
368.31293832782831
 20
176.29782234363151
 30
0.0
 40
3.5
  1
\U+2205
  7
NISSIN3_5
  0
TEXT
  5
165
  8
0
 62
     0
 10
371.47960499449499
 20
176.29782234363151
 30
0.0
 40
3.5
  1
48
  7
NISSIN3_5
  0
ENDBLK
  5
167
  8
0
  0
BLOCK
  8
0
  2
*U10
 70
     1
 10
0.0
 20
0.0
 30
0.0
  3
*U10
  1

  0
TEXT
  5
169
  8
0
 62
     0
 10
368.31293832782831
 20
186.28588493269959
 30
0.0
 40
3.5
  1
\U+2205
  7
NISSIN3_5
  0
TEXT
  5
16A
  8
0
 62
     0
 10
371.47960499449499
 20
186.28588493269959
 30
0.0
 40
3.5
  1
60
  7
NISSIN3_5
  0
ENDBLK
  5
16C
  8
0
  0
BLOCK
  8
0
  2
*U11
 70
     1
 10
0.0
 20
0.0
 30
0.0
  3
*U11
  1

  0
TEXT
  5
16E
  8
0
 62
     0
 10
368.22960499449499
 20
196.23606438637941
 30
0.0
 40
3.5
  1
\U+2205
  7
NISSIN3_5
  0
TEXT
  5
16F
  8
0
 62
     0
 10
371.39627166116168
 20
196.23606438637941
 30
0.0
 40
3.5
  1
74
  7
NISSIN3_5
  0
ENDBLK
  5
171
  8
0
  0
ENDSEC
  0
SECTION
  2
ENTITIES
  0
INSERT
  5
28
  8
図形
  6
CONTINUOUS
  2
*X5
 10
0.0
 20
0.0
 30
0.0
1001
ACAD
1000
HATCH
1002
{
1070
    19
1000
ANSI31
1040
1.0
1040
0.0
1000
ASC_BOUNDS
1070
     2
1070
     1
1070
    10
1005
A6
1005
A2
1005
A7
1005
A8
1005
41
1005
5E
1005
60
1005
5D
1005
5C
1005
A1
1070
     1
1070
    10
1005
BC
1005
BA
1005
A9
1005
B5
1005
B8
1005
A2
1005
AC
1005
A1
1005
BD
1005
BB
1000
ASC_SEEDPOINT
1011
347.17282833536711
1021
0.0
1031
1.1733908797378970E+214
1021
161.38518477875721
1031
0.0
1000
R14_HATCH_DATA
1000
28
1011
1.0
1021
0.0
1031
1.1733908797378970E+214
1021
0.0
1031
0.0
1011
0.0
1021
0.0
1031
1.1733908797378970E+214
1021
1.0
1031
0.0
1011
0.0
1021
0.0
1031
1.1733908797378970E+214
1021
0.0
1031
1.0
1040
0.0
1010
0.0
1020
0.0
1030
1.0
1000
ANSI31
1070
     0
1070
     1
1071
        2
1071
        7
1070
     0
1070
     1
1071
       10
1040
347.72960499449511
1040
162.97819301965859
1040
348.72960499449499
1040
162.97819301965859
1040
348.72960499449499
1040
165.67819301965861
1040
344.22960499449499
1040
165.67819301965861
1040
344.22960499449511
1040
158.67819301965861
1040
346.72960499449499
1040
158.67819301965861
1040
346.72960499449499
1040
157.17819301965861
1040
348.72960499449511
1040
157.17819301965861
1040
348.72960499449499
1040
160.3781930196586
1040
347.72960499449499
1040
160.3781930196586
1071
       10
1005
BB
1005
BD
1005
A1
1005
AC
1005
A2
1005
B8
1005
B5
1005
A9
1005
BA
1005
BC
1071
        7
1070
     0
1070
     1
1071
       10
1040
335.72960499449488
1040
146.67819301965869
1040
341.73254727837769
1040
146.67819301965869
1040
341.73254727837769
1040
148.17819301965869
1040
339.93254727837768
1040
148.17819301965861
1040
339.93254727837763
1040
149.67819301965861
1040
337.23254727837781
1040
149.67819301965861
1040
337.23254727837769
1040
158.67819301965861
1040
341.22960499449488
1040
158.67819301965861
1040
341.22960499449499
1040
165.67819301965861
1040
335.72960499449488
1040
165.67819301965861
1071
       10
1005
A1
1005
5C
1005
5D
1005
60
1005
5E
1005
41
1005
A8
1005
A7
1005
A2
1005
A6
1070
     0
1070
     1
1040
0.0
1040
1.0
1070
     0
1070
     1
1040
0.7853981633974483
1040
0.0
1040
0.0
1040
-2.2450640302672871
1040
2.245064030267288
1070
     0
1040
0.1126918622510483
1071
        2
1040
347.17282833536711
1040
161.38518477875721
1040
0.0
1040
337.47493329234851
1040
162.51210325602381
1040
0.0
1002
}
  0
INSERT
  5
2A
  8
図形
  6
CONTINUOUS
  2
*X6
 10
0.0
 20
0.0
 30
0.0
1001
ACAD
1000
HATCH
1002
{
1070
    19
1000
ANSI31
1040
1.0
1040
0.0
1000
ASC_BOUNDS
1070
     2
1070
     1
1070
    10
1005
56
1005
5D
1005
63
1005
62
1005
43
1005
BE
1005
DC
1005
BF
1005
C5
1005
C0
1070
     1
1070
    10
1005
C6
1005
BF
1005
CF
1005
D0
1005
C1
1005
D5
1005
D4
1005
D6
1005
D7
1005
C0
1000
ASC_SEEDPOINT
1011
398.41143339917659
1021
0.0
1031
1.1733908797378970E+214
1021
162.95252477320361
1031
0.0
1000
R14_HATCH_DATA
1000
2A
1011
1.0
1021
0.0
1031
1.1733908797378970E+214
1021
0.0
1031
0.0
1011
0.0
1021
0.0
1031
1.1733908797378970E+214
1021
1.0
1031
0.0
1011
0.0
1021
0.0
1031
1.1733908797378970E+214
1021
0.0
1031
1.0
1040
0.0
1010
0.0
1020
0.0
1030
1.0
1000
ANSI31
1070
     0
1070
     1
1071
        2
1071
        7
1070
     0
1070
     1
1071
       10
1040
397.72960499449488
1040
162.97819301965859
1040
397.72960499449499
1040
160.3781930196586
1040
396.72960499449499
1040
160.3781930196586
1040
396.72960499449499
1040
157.17819301965861
1040
398.72960499449511
1040
157.17819301965861
1040
398.72960499449499
1040
158.67819301965861
1040
401.22960499449488
1040
158.67819301965861
1040
401.22960499449499
1040
165.67819301965861
1040
396.72960499449499
1040
165.67819301965861
1040
396.72960499449499
1040
162.97819301965859
1071
       10
1005
C0
1005
D7
1005
D6
1005
D4
1005
D5
1005
C1
1005
D0
1005
CF
1005
BF
1005
C6
1071
        7
1070
     0
1070
     1
1071
       10
1040
404.22960499449499
1040
158.67819301965861
1040
408.22960499449499
1040
158.67819301965861
1040
408.22960499449499
1040
149.67819301965861
1040
405.529604994495
1040
149.67819301965861
1040
405.52960499449512
1040
148.17819301965861
1040
403.72960499449499
1040
148.17819301965861
1040
403.72960499449499
1040
146.67819301965861
1040
409.72960499449499
1040
146.67819301965861
1040
409.72960499449499
1040
165.67819301965861
1040
404.22960499449488
1040
165.67819301965861
1071
       10
1005
C0
1005
C5
1005
BF
1005
DC
1005
BE
1005
43
1005
62
1005
63
1005
5D
1005
56
1070
     0
1070
     1
1040
0.0
1040
1.0
1070
     0
1070
     1
1040
0.7853981633974483
1040
0.0
1040
0.0
1040
-2.2450640302672871
1040
2.245064030267288
1070
     0
1040
0.2712249430919187
1071
        2
1040
398.41143339917659
1040
162.95252477320361
1040
0.0
1040
406.28214657156269
1040
162.6812997664571
1040
0.0
1002
}
  0
DIMENSION
  5
2B
  8
寸法
  2
*D7
 10
404.63536160480248
 20
148.1977886678161
 30
0.0
 11
390.16363847743088
 21
155.53997814560341
 31
0.0
 70
     2
 13
409.72960499449499
 23
146.67819301965861
 33
0.0
 14
335.72960499449499
 24
146.67819301965861
 34
0.0
 15
398.7463888590683
 25
158.39778866781609
 35
0.0
 16
393.56350249926442
 26
156.70476070639839
 36
0.0
1001
ACAD
1000
DSTYLE
1002
{
1070
   271
1070
     0
1070
   340
1005
2F
1002
}
  0
LINE
  5
3E
  8
図形
 10
399.17940156096063
 20
158.64778866781609
 30
0.0
 11
405.06837430669481
 21
148.4477886678161
 31
0.0
  0
LINE
  5
3F
  8
図形
 10
346.01902223035131
 20
158.67819301965861
 30
0.0
 11
340.15693770428697
 21
148.4010239047858
 31
0.0
  0
LINE
  5
40
  8
図形
 10
346.45203493224352
 20
158.42819301965861
 30
0.0
 11
340.54241363798889
 21
148.17819301965861
 31
0.0
  0
LINE
  5
41
  8
図形
 10
339.93254727837768
 20
148.17819301965861
 30
0.0
 11
339.93254727837768
 21
149.67819301965861
 31
0.0
1001
ACAD
1000
ASC_BOUNDS
1002
{
1070
    19
1005
28
1002
}
  0
LINE
  5
42
  8
図形
 10
398.7463888590683
 20
158.39778866781609
 30
0.0
 11
404.63536160480248
 21
148.1977886678161
 31
0.0
  0
LINE
  5
43
  8
図形
 10
405.529604994495
 20
148.17819301965861
 30
0.0
 11
405.529604994495
 21
149.67819301965861
 31
0.0
1001
ACAD
1000
ASC_BOUNDS
1002
{
1070
    19
1005
2A
1002
}
  0
ARC
  5
44
  8
図形
 10
345.61873282899768
 20
149.85602560848639
 30
0.0
 40
1.55
 50
239.9999999999994
 51
59.999999999999439
  0
DIMENSION
  5
45
  8
寸法
  2
*D3
 10
327.7669508544468
 20
146.67819301965861
 30
0.0
 11
325.3919508544468
 21
156.17819301965869
 31
0.0
 13
335.72960499449499
 23
165.67819301965861
 33
0.0
 14
335.72960499449499
 24
146.67819301965861
 34
0.0
 50
270.0
1001
ACAD
1000
DSTYLE
1002
{
1070
   340
1005
48
1002
}
  0
LINE
  5
55
  8
図形
 10
409.72960499449499
 20
165.67819301965861
 30
0.0
 11
409.72960499449499
 21
147.67819301965861
 31
0.0
  0
LINE
  5
56
  8
図形
 10
409.72960499449499
 20
146.67819301965861
 30
0.0
 11
409.72960499449499
 21
165.67819301965861
 31
0.0
1001
ACAD
1000
ASC_BOUNDS
1002
{
1070
    19
1005
2A
1002
}
  0
LINE
  5
57
  8
図形
 10
402.98784688640171
 20
149.851367866304
 30
0.0
 11
400.3897706750484
 21
148.351367866304
 31
0.0
  0
ARC
  5
58
  8
図形
 10
399.61477067504831
 20
149.69370724216989
 30
0.0
 40
1.55
 50
119.9999999999997
 51
299.99999999999972
  0
LINE
  5
59
  8
基準線
 10
372.72960499449499
 20
168.67819301965861
 30
0.0
 11
372.72960499449499
 21
142.67819301965861
 31
0.0
  0
LINE
  5
5C
  8
図形
 10
335.72960499449499
 20
146.67819301965861
 30
0.0
 11
335.72960499449499
 21
165.67819301965861
 31
0.0
1001
ACAD
1000
ASC_BOUNDS
1002
{
1070
    19
1005
28
1002
}
  0
LINE
  5
5D
  8
図形
 10
409.72960499449499
 20
146.67819301965861
 30
0.0
 11
335.72960499449499
 21
146.67819301965861
 31
0.0
1001
ACAD
1000
ASC_BOUNDS
1002
{
1070
    19
1005
2A
1005
28
1002
}
  0
LINE
  5
5E
  8
図形
 10
341.73254727837769
 20
148.17819301965861
 30
0.0
 11
339.93254727837768
 21
148.17819301965861
 31
0.0
1001
ACAD
1000
ASC_BOUNDS
1002
{
1070
    19
1005
28
1002
}
  0
LINE
  5
5F
  8
図形
 10
340.54289211882292
 20
148.17819301965861
 30
0.0
 11
340.15100064177
 21
148.40445166942831
 31
0.0
  0
LINE
  5
60
  8
図形
 10
341.73254727837769
 20
146.67819301965861
 30
0.0
 11
341.73254727837769
 21
148.17819301965861
 31
0.0
1001
ACAD
1000
ASC_BOUNDS
1002
{
1070
    19
1005
28
1002
}
  0
LINE
  5
61
  8
図形
 10
404.63536160480248
 20
148.1977886678161
 30
0.0
 11
405.06837430669481
 21
148.4477886678161
 31
0.0
  0
LINE
  5
62
  8
図形
 10
403.72960499449499
 20
148.17819301965861
 30
0.0
 11
405.529604994495
 21
148.17819301965861
 31
0.0
1001
ACAD
1000
ASC_BOUNDS
1002
{
1070
    19
1005
2A
1002
}
  0
LINE
  5
63
  8
図形
 10
403.72960499449499
 20
146.67819301965861
 30
0.0
 11
403.72960499449499
 21
148.17819301965861
 31
0.0
1001
ACAD
1000
ASC_BOUNDS
1002
{
1070
    19
1005
2A
1002
}
  0
INSERT
  5
64
  8
0
  2
*U8
 10
0.0
 20
0.0
 30
0.0
  0
LINE
  5
66
  8
図形
 10
445.29078499449503
 20
186.95519801965861
 30
0.0
 11
455.49075499449509
 21
186.9551980196585
 31
0.0
  0
LINE
  5
67
  8
図形
 10
445.29078499449503
 20
181.95519801965861
 30
0.0
 11
455.49075499449509
 21
181.95519801965861
 31
0.0
  0
LINE
  5
68
  8
図形
 10
452.84979459569172
 20
207.6057718401423
 30
0.0
 11
443.6573922981309
 21
216.79817413770311
 31
0.0
  0
LINE
  5
69
  8
図形
  6
CONTINUOUS
 10
446.48584063608058
 20
211.14131281714279
 30
0.0
 11
451.43558810438628
 21
206.19156534883709
 31
0.0
  0
LINE
  5
6A
  8
図形
 10
452.99120180979332
 20
211.9898338834989
 30
0.0
 11
446.62726906338548
 21
218.35376662990649
 31
0.0
  0
LINE
  5
6B
  8
図形
 10
452.425516384844
 20
211.4241484585495
 30
0.0
 11
446.06158363843639
 21
217.78808120495739
 31
0.0
  0
LINE
  5
6C
  8
図形
 10
451.85983803096252
 20
210.85847010466821
 30
0.0
 11
445.49590528455491
 21
217.22240285107591
 31
0.0
  0
LINE
  5
6D
  8
図形
 10
451.29415260601343
 20
210.29278467971901
 30
0.0
 11
444.9302198596057
 21
216.65671742612659
 31
0.0
  0
LINE
  5
6E
  8
図形
 10
455.67821464937009
 20
210.4341918938207
 30
0.0
 11
446.4858123518091
 21
219.62659419138151
 31
0.0
  0
LINE
  5
6F
  8
図形
 10
443.33922253086808
 20
223.83384418410239
 30
0.0
 11
450.55170462790312
 21
216.62136208706741
 31
0.0
  0
LINE
  5
70
  8
基準線
 10
372.72960499449499
 20
210.67819301965861
 30
0.0
 11
372.72960499449499
 21
294.67819301965858
 31
0.0
  0
CIRCLE
  5
71
  8
図形
 10
372.72960499449511
 20
252.67819301965869
 30
0.0
 40
37.0
  0
CIRCLE
  5
72
  8
図形
 10
372.72960499449511
 20
252.67819301965869
 30
0.0
 40
24.0
  0
LINE
  5
73
  8
図形
 10
396.72960499449499
 20
157.17819301965861
 30
0.0
 11
348.72960499449499
 21
157.17819301965861
 31
0.0
  0
DIMENSION
  5
74
  8
寸法
  2
*D2
 10
396.72960499449499
 20
175.67282234363151
 30
0.0
 11
372.72960499449499
 21
178.04782234363151
 31
0.0
  1
%%c<>
 13
348.72960499449499
 23
165.67819301965861
 33
0.0
 14
396.72960499449499
 24
165.67819301965861
 34
0.0
1001
ACAD
1000
DSTYLE
1002
{
1070
   340
1005
48
1002
}
  0
DIMENSION
  5
83
  8
寸法
  2
*D1
 10
402.72960499449499
 20
185.66088493269959
 30
0.0
 11
372.72960499449499
 21
188.03588493269959
 31
0.0
  1
%%c<>
 13
342.72960499449499
 23
165.67819301965861
 33
0.0
 14
402.72960499449499
 24
165.67819301965861
 34
0.0
1001
ACAD
1000
DSTYLE
1002
{
1070
   340
1005
48
1002
}
  0
DIMENSION
  5
92
  8
寸法
  2
*D0
 10
409.72960499449499
 20
195.61106438637941
 30
0.0
 11
372.72960499449499
 21
197.98606438637941
 31
0.0
  1
%%c<>
 13
335.72960499449499
 23
165.6540983915082
 33
0.0
 14
409.72960499449499
 24
165.67819301965861
 34
0.0
1001
ACAD
1000
DSTYLE
1002
{
1070
   340
1005
48
1002
}
  0
LINE
  5
A1
  8
図形
 10
335.72960499449499
 20
165.67819301965861
 30
0.0
 11
372.72960499449499
 21
165.67819301965861
 31
0.0
1001
ACAD
1000
ASC_BOUNDS
1002
{
1070
    19
1005
28
1005
28
1002
}
  0
LINE
  5
A2
  8
図形
 10
346.72960499449499
 20
158.67819301965861
 30
0.0
 11
337.23254727837769
 21
158.67819301965861
 31
0.0
1001
ACAD
1000
ASC_BOUNDS
1002
{
1070
    19
1005
28
1005
28
1002
}
  0
LINE
  5
A3
  8
図形
 10
341.9268691364091
 20
149.47027693154709
 30
0.0
 11
341.44837511897782
 21
149.74653558131669
 31
0.0
  0
LINE
  5
A4
  8
図形
 10
341.22960499449499
 20
165.67819301965861
 30
0.0
 11
342.72960499449499
 21
165.67819301965861
 31
0.0
  0
LINE
  5
A5
  8
図形
 10
341.529604994495
 20
165.67819301965861
 30
0.0
 11
341.529604994495
 21
158.67819301965861
 31
0.0
  0
LINE
  5
A6
  8
図形
 10
341.22960499449499
 20
165.67819301965861
 30
0.0
 11
341.22960499449488
 21
158.67819301965861
 31
0.0
1001
ACAD
1000
ASC_BOUNDS
1002
{
1070
    19
1005
28
1002
}
  0
LINE
  5
A7
  8
図形
 10
337.23254727837769
 20
158.67819301965861
 30
0.0
 11
337.23254727837769
 21
149.67819301965861
 31
0.0
1001
ACAD
1000
ASC_BOUNDS
1002
{
1070
    19
1005
28
1002
}
  0
LINE
  5
A8
  8
図形
 10
339.93254727837768
 20
149.67819301965861
 30
0.0
 11
337.23254727837769
 21
149.67819301965861
 31
0.0
1001
ACAD
1000
ASC_BOUNDS
1002
{
1070
    19
1005
28
1002
}
  0
LINE
  5
A9
  8
図形
 10
348.72960499449499
 20
160.3781930196586
 30
0.0
 11
348.72960499449499
 21
157.17819301965861
 31
0.0
1001
ACAD
1000
ASC_BOUNDS
1002
{
1070
    19
1005
28
1002
}
  0
LINE
  5
AA
  8
図形
 10
343.92960499449498
 20
165.67819301965861
 30
0.0
 11
343.92960499449498
 21
158.67819301965861
 31
0.0
  0
LINE
  5
AB
  8
基準線
 10
342.72960499449499
 20
167.67819301965861
 30
0.0
 11
342.72960499449499
 21
156.67819301965869
 31
0.0
  0
LINE
  5
AC
  8
図形
 10
344.22960499449499
 20
165.67819301965861
 30
0.0
 11
344.22960499449499
 21
158.67819301965861
 31
0.0
1001
ACAD
1000
ASC_BOUNDS
1002
{
1070
    19
1005
28
1002
}
  0
ARC
  5
AD
  8
図形
 10
347.65606657260167
 20
153.2985725767046
 30
0.0
 40
1.55
 50
239.9999999999994
 51
59.999999999999439
  0
LINE
  5
AE
  8
図形
 10
346.0079903612484
 20
156.444020843895
 30
0.0
 11
344.10799036124848
 21
153.1531243095142
 31
0.0
  0
LINE
  5
AF
  8
図形
 10
342.24565661764439
 20
150.01368623262061
 30
0.0
 11
344.8437328289977
 21
148.51368623262061
 31
0.0
  0
LINE
  5
B0
  8
図形
 10
343.7956566176444
 20
152.69836498435239
 30
0.0
 11
346.39373282899771
 21
151.19836498435231
 31
0.0
  0
LINE
  5
B1
  8
図形
 10
344.28299036124838
 20
153.45623320083871
 30
0.0
 11
346.8810665726017
 21
151.95623320083871
 31
0.0
  0
LINE
  5
B2
  8
図形
 10
344.0079903612484
 20
152.9799192287573
 30
0.0
 11
341.9268691364091
 21
149.47027693154709
 31
0.0
  0
LINE
  5
B3
  8
図形
 10
343.48837511897779
 20
153.27991922875731
 30
0.0
 11
344.0079903612484
 21
152.9799192287573
 31
0.0
  0
LINE
  5
B4
  8
図形
 10
344.10799036124848
 20
153.1531243095142
 30
0.0
 11
343.58837511897769
 21
153.45312430951421
 31
0.0
  0
LINE
  5
B5
  8
図形
 10
348.72960499449499
 20
157.17819301965861
 30
0.0
 11
346.72960499449499
 21
157.17819301965861
 31
0.0
1001
ACAD
1000
ASC_BOUNDS
1002
{
1070
    19
1005
28
1002
}
  0
LINE
  5
B6
  8
図形
 10
345.83299036124839
 20
156.14091195257041
 30
0.0
 11
348.43106657260182
 21
154.64091195257049
 31
0.0
  0
LINE
  5
B7
  8
図形
 10
346.01902223035131
 20
158.67819301965861
 30
0.0
 11
346.45203493224352
 21
158.42819301965861
 31
0.0
  0
LINE
  5
B8
  8
図形
 10
346.72960499449499
 20
157.17819301965861
 30
0.0
 11
346.72960499449499
 21
158.67819301965861
 31
0.0
1001
ACAD
1000
ASC_BOUNDS
1002
{
1070
    19
1005
28
1002
}
  0
LINE
  5
B9
  8
図形
 10
345.48837511897779
 20
156.74402084389499
 30
0.0
 11
346.0079903612484
 21
156.444020843895
 31
0.0
  0
LINE
  5
BA
  8
図形
 10
347.72960499449499
 20
160.3781930196586
 30
0.0
 11
348.72960499449499
 21
160.3781930196586
 31
0.0
1001
ACAD
1000
ASC_BOUNDS
1002
{
1070
    19
1005
28
1002
}
  0
LINE
  5
BB
  8
図形
 10
348.72960499449499
 20
162.97819301965859
 30
0.0
 11
347.72960499449499
 21
162.97819301965859
 31
0.0
1001
ACAD
1000
ASC_BOUNDS
1002
{
1070
    19
1005
28
1002
}
  0
LINE
  5
BC
  8
図形
 10
347.72960499449499
 20
160.3781930196586
 30
0.0
 11
347.72960499449499
 21
162.97819301965859
 31
0.0
1001
ACAD
1000
ASC_BOUNDS
1002
{
1070
    19
1005
28
1002
}
  0
LINE
  5
BD
  8
図形
 10
348.72960499449499
 20
162.97819301965859
 30
0.0
 11
348.72960499449499
 21
165.67819301965861
 31
0.0
1001
ACAD
1000
ASC_BOUNDS
1002
{
1070
    19
1005
28
1002
}
  0
LINE
  5
BE
  8
図形
 10
405.529604994495
 20
149.67819301965861
 30
0.0
 11
408.22960499449499
 21
149.67819301965861
 31
0.0
1001
ACAD
1000
ASC_BOUNDS
1002
{
1070
    19
1005
2A
1002
}
  0
LINE
  5
BF
  8
図形
 10
408.22960499449499
 20
158.67819301965861
 30
0.0
 11
398.72960499449499
 21
158.67819301965861
 31
0.0
1001
ACAD
1000
ASC_BOUNDS
1002
{
1070
    19
1005
2A
1005
2A
1002
}
  0
LINE
  5
C0
  8
図形
 10
372.72960499449499
 20
165.67819301965861
 30
0.0
 11
409.72960499449499
 21
165.67819301965861
 31
0.0
1001
ACAD
1000
ASC_BOUNDS
1002
{
1070
    19
1005
2A
1005
2A
1002
}
  0
LINE
  5
C1
  8
図形
 10
396.72960499449499
 20
157.17819301965861
 30
0.0
 11
396.72960499449499
 21
160.3781930196586
 31
0.0
1001
ACAD
1000
ASC_BOUNDS
1002
{
1070
    19
1005
2A
1002
}
  0
LINE
  5
C2
  8
図形
 10
403.92960499449498
 20
165.67819301965861
 30
0.0
 11
403.92960499449492
 21
158.67819301965861
 31
0.0
  0
LINE
  5
C3
  8
図形
 10
401.529604994495
 20
165.67819301965861
 30
0.0
 11
401.52960499449489
 21
158.67819301965861
 31
0.0
  0
LINE
  5
C4
  8
基準線
 10
402.72960499449499
 20
167.67819301965861
 30
0.0
 11
402.72960499449499
 21
156.67819301965861
 31
0.0
  0
LINE
  5
C5
  8
図形
 10
404.22960499449499
 20
165.67819301965861
 30
0.0
 11
404.22960499449499
 21
158.67819301965861
 31
0.0
1001
ACAD
1000
ASC_BOUNDS
1002
{
1070
    19
1005
2A
1002
}
  0
LINE
  5
C6
  8
図形
 10
401.22960499449499
 20
165.67819301965861
 30
0.0
 11
401.22960499449499
 21
158.67819301965861
 31
0.0
1001
ACAD
1000
ASC_BOUNDS
1002
{
1070
    19
1005
2A
1002
}
  0
ARC
  5
C7
  8
図形
 10
397.61477067504831
 20
153.15780885730771
 30
0.0
 40
1.55
 50
119.9999999999997
 51
299.99999999999972
  0
LINE
  5
C8
  8
図形
 10
399.26284688640158
 20
156.303257124498
 30
0.0
 11
401.16284688640161
 21
153.01236059011731
 31
0.0
  0
LINE
  5
C9
  8
図形
 10
401.16284688640161
 20
153.01236059011731
 30
0.0
 11
401.68246212867228
 21
153.31236059011729
 31
0.0
  0
LINE
  5
CA
  8
図形
 10
401.43784688640159
 20
152.53604661803581
 30
0.0
 11
398.83977067504833
 21
151.03604661803581
 31
0.0
  0
LINE
  5
CB
  8
図形
 10
400.98784688640171
 20
153.31546948144171
 30
0.0
 11
398.38977067504828
 21
151.81546948144171
 31
0.0
  0
LINE
  5
CC
  8
図形
 10
401.26284688640169
 20
152.8391555093603
 30
0.0
 11
403.16284688640161
 21
149.5482589749794
 31
0.0
  0
LINE
  5
CD
  8
図形
 10
401.78246212867231
 20
153.13915550936031
 30
0.0
 11
401.26284688640169
 21
152.8391555093603
 31
0.0
  0
LINE
  5
CE
  8
図形
 10
403.16284688640161
 20
149.5482589749794
 30
0.0
 11
403.68246212867228
 21
149.8482589749795
 31
0.0
  0
LINE
  5
CF
  8
図形
 10
398.72960499449499
 20
157.17819301965861
 30
0.0
 11
398.72960499449499
 21
158.67819301965861
 31
0.0
1001
ACAD
1000
ASC_BOUNDS
1002
{
1070
    19
1005
2A
1002
}
  0
LINE
  5
D0
  8
図形
 10
396.72960499449499
 20
157.17819301965861
 30
0.0
 11
398.72960499449499
 21
157.17819301965861
 31
0.0
1001
ACAD
1000
ASC_BOUNDS
1002
{
1070
    19
1005
2A
1002
}
  0
LINE
  5
D1
  8
図形
 10
399.17940156096063
 20
158.64778866781609
 30
0.0
 11
398.7463888590683
 21
158.39778866781609
 31
0.0
  0
LINE
  5
D2
  8
図形
 10
399.43784688640159
 20
156.00014823317349
 30
0.0
 11
396.83977067504833
 21
154.50014823317349
 31
0.0
  0
LINE
  5
D3
  8
図形
 10
399.78246212867231
 20
156.60325712449799
 30
0.0
 11
399.26284688640158
 21
156.303257124498
 31
0.0
  0
LINE
  5
D4
  8
図形
 10
397.72960499449499
 20
162.97819301965859
 30
0.0
 11
397.72960499449499
 21
160.3781930196586
 31
0.0
1001
ACAD
1000
ASC_BOUNDS
1002
{
1070
    19
1005
2A
1002
}
  0
LINE
  5
D5
  8
図形
 10
396.72960499449499
 20
160.3781930196586
 30
0.0
 11
397.72960499449499
 21
160.3781930196586
 31
0.0
1001
ACAD
1000
ASC_BOUNDS
1002
{
1070
    19
1005
2A
1002
}
  0
LINE
  5
D6
  8
図形
 10
396.72960499449499
 20
162.97819301965859
 30
0.0
 11
397.72960499449499
 21
162.97819301965859
 31
0.0
1001
ACAD
1000
ASC_BOUNDS
1002
{
1070
    19
1005
2A
1002
}
  0
LINE
  5
D7
  8
図形
 10
396.72960499449499
 20
165.67819301965861
 30
0.0
 11
396.72960499449499
 21
162.97819301965859
 31
0.0
1001
ACAD
1000
ASC_BOUNDS
1002
{
1070
    19
1005
2A
1002
}
  0
LINE
  5
D8
  8
図形
 10
427.07413499449569
 20
175.8598979354139
 30
0.0
 11
427.07413499449569
 21
166.68230301965849
 31
0.0
  0
LINE
  5
D9
  8
図形
 10
423.48157499449519
 20
175.4598881039031
 30
0.0
 11
423.48157499449519
 21
166.2781930196586
 31
0.0
  0
ARC
  5
DA
  8
図形
 10
416.47413499449573
 20
166.68230301965849
 30
0.0
 40
10.6
 50
270.0
 51
0.0
  0
ARC
  5
DB
  8
図形
 10
416.48157499449519
 20
166.2781930196586
 30
0.0
 40
6.9999999999999973
 50
270.0
 51
0.0
  0
LINE
  5
DC
  8
図形
 10
408.22960499449499
 20
149.67819301965861
 30
0.0
 11
408.22960499449499
 21
158.67819301965861
 31
0.0
1001
ACAD
1000
ASC_BOUNDS
1002
{
1070
    19
1005
2A
1002
}
  0
LINE
  5
DD
  8
図形
 10
409.72960499449499
 20
156.0823030196585
 30
0.0
 11
416.47413499449573
 21
156.0823030196585
 31
0.0
  0
LINE
  5
DE
  8
図形
 10
409.72960499449499
 20
159.2781930196586
 30
0.0
 11
416.48157499449519
 21
159.2781930196586
 31
0.0
  0
ARC
  5
DF
  8
図形
 10
434.07413499449569
 20
175.8598979354139
 30
0.0
 40
7.0
 50
90.0
 51
180.0
  0
ARC
  5
E0
  8
図形
 10
434.08157499449521
 20
175.4598881039031
 30
0.0
 40
10.6
 50
90.0
 51
180.0
  0
ARC
  5
E1
  8
図形
 10
438.26803254655749
 20
183.65992833134209
 30
0.0
 40
1.1999075525789289
 50
138.18831386179249
 51
221.8162107794773
  0
ARC
  5
E2
  8
図形
 10
436.47932499449507
 20
183.6598930196586
 30
0.0
 40
1.199999999999978
 50
318.18999999999988
 51
41.809997000001331
  0
ARC
  5
E3
  8
図形
 10
434.17930499449523
 20
183.6598930196586
 30
0.0
 40
1.199999999999978
 50
318.18999999999988
 51
41.809997000001331
  0
LINE
  5
E4
  8
図形
 10
445.29078499449503
 20
186.95519801965861
 30
0.0
 11
445.29078499449503
 21
181.95519801965861
 31
0.0
  0
TEXT
  5
E5
  8
0
 10
431.024939233694
 20
173.9000695848404
 30
0.0
 40
5.0
  1
L=500
  7
NISSIN5
  0
LINE
  5
E6
  8
図形
 10
437.37375658225602
 20
182.8598979354141
 30
0.0
 11
445.29078499449503
 21
182.85518301965851
 31
0.0
  0
LINE
  5
E7
  8
図形
 10
435.07373658225617
 20
182.85989793541401
 30
0.0
 11
434.07413499449569
 21
182.85989793541401
 31
0.0
  0
LINE
  5
E8
  8
図形
 10
437.37046785965629
 20
186.05626709524941
 30
0.0
 11
445.29078499449503
 21
186.05521301965871
 31
0.0
  0
LINE
  5
E9
  8
図形
 10
435.07367340673431
 20
186.05988810390321
 30
0.0
 11
434.08157499449521
 21
186.05988810390321
 31
0.0
  0
ARC
  5
EA
  8
図形
 10
435.96810499449509
 20
185.25989301965851
 30
0.0
 40
1.200000000000039
 50
138.18999999999991
 51
221.8099900000004
  0
ARC
  5
EB
  8
図形
 10
434.17930499449523
 20
185.25989301965851
 30
0.0
 40
1.199999999999978
 50
318.18999999999988
 51
41.809997000001331
  0
ARC
  5
EC
  8
図形
 10
438.26812499449522
 20
185.25989301965851
 30
0.0
 40
1.2000000000002089
 50
138.19000000000909
 51
221.80998999999531
  0
ARC
  5
ED
  8
図形
 10
409.6449975087009
 20
227.9399920492493
 30
0.0
 40
6.9999999999999973
 50
225.0
 51
315.0
  0
ARC
  5
EE
  8
図形
 10
409.92548555559438
 20
228.23100184504619
 30
0.0
 40
10.6
 50
225.0
 51
315.0
  0
CIRCLE
  5
EF
  8
図形
 10
372.72960499449511
 20
222.67819301965861
 30
0.0
 40
1.5
  0
LINE
  5
F0
  8
基準線
 10
370.22960499449499
 20
222.67819301965861
 30
0.0
 11
375.22960499449499
 21
222.67819301965861
 31
0.0
  0
LINE
  5
F1
  8
基準線
 10
372.72960499449499
 20
225.17819301965861
 30
0.0
 11
372.72960499449499
 21
220.17819301965861
 31
0.0
  0
CIRCLE
  5
F2
  8
図形
 10
372.72960499449511
 20
222.67819301965861
 30
0.0
 40
1.1999999999999991
  0
LINE
  5
F3
  8
図形
 10
399.93596025939632
 20
227.74953436194221
 30
0.0
 11
404.69525004039508
 21
222.99024458094351
 31
0.0
  0
LINE
  5
F4
  8
図形
 10
397.67127523561101
 20
225.49454840387489
 30
0.0
 11
402.43015367501698
 21
220.7356699644688
 31
0.0
  0
LINE
  5
F5
  8
図形
 10
444.36453443465638
 20
216.09103200117741
 30
0.0
 11
447.19295448833498
 21
218.91945205485581
 31
0.0
  0
LINE
  5
F6
  8
図形
 10
443.6573922981309
 20
216.79817413770311
 30
0.0
 11
446.4858123518091
 21
219.62659419138151
 31
0.0
  0
LINE
  5
F7
  8
図形
 10
446.66262440244498
 20
212.73228186160929
 30
0.0
 11
439.45014230540988
 21
219.9447639586443
 31
0.0
  0
ARC
  5
F8
  8
図形
 10
447.19295448833492
 20
211.84842666939741
 30
0.0
 40
1.0
 50
135.0
 51
225.0
  0
LINE
  5
F9
  8
図形
 10
446.48586184928388
 20
212.5555193084482
 30
0.0
 11
446.66262440244498
 21
212.73228186160929
 31
0.0
  0
LINE
  5
FA
  8
図形
 10
446.66262440244498
 20
212.73228186160929
 30
0.0
 11
447.19295448833481
 21
213.26261194749921
 31
0.0
  0
ARC
  5
FB
  8
図形
 10
428.58251571444049
 20
221.98735155722261
 30
0.0
 40
10.6
 50
44.999999999999993
 51
135.0
  0
ARC
  5
FC
  8
図形
 10
428.86010450439159
 20
222.27546209607669
 30
0.0
 40
7.0
 50
44.999999999999993
 51
135.0
  0
LINE
  5
FD
  8
図形
 10
421.08718383386321
 20
229.48268343779989
 30
0.0
 11
414.59474497700671
 21
222.9902445809434
 31
0.0
  0
LINE
  5
FE
  8
図形
 10
423.91035703608571
 20
227.22520956438251
 30
0.0
 11
417.42081743617177
 21
220.73566996446871
 31
0.0
  0
LINE
  5
FF
  8
図形
 10
438.41223682984872
 20
227.1611987825859
 30
0.0
 11
442.52607801677482
 21
223.02069967000921
 31
0.0
  0
LINE
  5
100
  8
図形
 10
436.14371806764939
 20
224.90414929237761
 30
0.0
 11
440.27029424770473
 21
220.764915900939
 31
0.0
  0
ARC
  5
101
  8
図形
 10
436.84614380194438
 20
227.58302333290291
 30
0.0
 40
1.200000000000031
 50
93.189999999997752
 51
176.8099900000023
  0
LINE
  5
102
  8
図形
 10
436.77936710991668
 20
228.78116392290119
 30
0.0
 11
436.077847595018
 21
229.48268343779989
 31
0.0
  0
ARC
  5
103
  8
図形
 10
435.58127119175799
 20
228.84789594308941
 30
0.0
 40
1.1999999999999811
 50
273.18999999999772
 51
356.80999700000018
  0
ARC
  5
104
  8
図形
 10
436.0762600807243
 20
226.0901653543263
 30
0.0
 40
1.1999999999999891
 50
273.18999999999772
 51
356.80999700000018
  0
ARC
  5
105
  8
図形
 10
437.34113269091068
 20
224.82529274413989
 30
0.0
 40
1.199999999999978
 50
93.189999999999429
 51
176.8099900000056
  0
ARC
  5
106
  8
図形
 10
434.44990034185969
 20
227.716525093191
 30
0.0
 40
1.1999999999999891
 50
273.18999999999772
 51
356.80999700000018
  0
LINE
  5
107
  8
図形
 10
434.51667703388762
 20
226.51838450319229
 30
0.0
 11
433.8098519726974
 21
227.2252095643826
 31
0.0
  0
ARC
  5
108
  8
図形
 10
438.4725035408091
 20
225.95666359403819
 30
0.0
 40
1.200000000000021
 50
93.189999999997752
 51
176.8099900000056
  0
LINE
  5
109
  8
図形
 10
439.45014230540988
 20
219.9447639586443
 30
0.0
 11
443.33922253086808
 21
223.83384418410239
 31
0.0
  0
LINE
  5
10A
  8
基準線
 10
414.72960499449499
 20
252.67819301965861
 30
0.0
 11
330.72960499449499
 21
252.67819301965861
 31
0.0
  0
LINE
  5
10B
  8
基準線
 10
340.22960499449499
 20
252.67819301965861
 30
0.0
 11
345.22960499449499
 21
252.67819301965861
 31
0.0
  0
CIRCLE
  5
10C
  8
図形
 10
342.72960499449499
 20
252.67819301965869
 30
0.0
 40
1.1999999999999991
  0
CIRCLE
  5
10D
  8
図形
 10
342.72960499449499
 20
252.67819301965869
 30
0.0
 40
1.5
  0
LINE
  5
10E
  8
基準線
 10
342.72960499449499
 20
255.17819301965861
 30
0.0
 11
342.72960499449499
 21
250.17819301965861
 31
0.0
  0
LINE
  5
10F
  8
基準線
 10
402.72960499449499
 20
255.17819301965861
 30
0.0
 11
402.72960499449499
 21
250.17819301965861
 31
0.0
  0
CIRCLE
  5
110
  8
図形
 10
402.72960499449511
 20
252.67819301965861
 30
0.0
 40
1.5
  0
CIRCLE
  5
111
  8
図形
 10
402.72960499449511
 20
252.67819301965861
 30
0.0
 40
1.1999999999999991
  0
LINE
  5
112
  8
基準線
 10
400.22960499449499
 20
252.67819301965861
 30
0.0
 11
405.22960499449499
 21
252.67819301965861
 31
0.0
  0
LINE
  5
113
  8
基準線
 10
370.22960499449499
 20
282.67819301965858
 30
0.0
 11
375.22960499449499
 21
282.67819301965858
 31
0.0
  0
CIRCLE
  5
114
  8
図形
 10
372.72960499449511
 20
282.67819301965858
 30
0.0
 40
1.5
  0
LINE
  5
115
  8
基準線
 10
372.72960499449499
 20
285.17819301965858
 30
0.0
 11
372.72960499449499
 21
280.17819301965858
 31
0.0
  0
CIRCLE
  5
116
  8
図形
 10
372.72960499449511
 20
282.67819301965858
 30
0.0
 40
1.1999999999999991
  0
LINE
  5
117
  8
図形
 10
460.49075499449509
 20
186.45519801965861
 30
0.0
 11
460.49075499449509
 21
182.4551980196585
 31
0.0
  0
LINE
  5
118
  8
図形
 10
455.49075499449509
 20
187.95519801965861
 30
0.0
 11
455.49075499449509
 21
180.95519801965861
 31
0.0
  0
LINE
  5
119
  8
図形
 10
460.49075499449498
 20
182.4551980196585
 30
0.0
 11
463.49075499449509
 21
182.45519801965861
 31
0.0
  0
LINE
  5
11A
  8
図形
 10
455.49075499449509
 20
180.95519801965861
 30
0.0
 11
463.49075499449509
 21
180.95519801965861
 31
0.0
  0
LINE
  5
11B
  8
図形
 10
463.49075499449509
 20
182.45519801965861
 30
0.0
 11
463.49075499449509
 21
180.95519801965861
 31
0.0
  0
LINE
  5
11C
  8
図形
 10
460.49075499449509
 20
186.45519801965861
 30
0.0
 11
463.49075499449509
 21
186.45519801965861
 31
0.0
  0
LINE
  5
11D
  8
図形
 10
455.49075499449509
 20
187.95519801965861
 30
0.0
 11
463.49075499449509
 21
187.9551980196585
 31
0.0
  0
LINE
  5
11E
  8
図形
 10
459.99075499449509
 20
188.95519801965861
 30
0.0
 11
459.99075499449509
 21
189.95519801965861
 31
0.0
  0
LINE
  5
11F
  8
図形
 10
449.99075499449509
 20
189.95519801965861
 30
0.0
 11
449.99075499449509
 21
188.95519801965861
 31
0.0
  0
LINE
  5
120
  8
図形
 10
459.99075499449509
 20
188.95519801965861
 30
0.0
 11
449.99075499449509
 21
188.95519801965861
 31
0.0
  0
LINE
  5
121
  8
図形
 10
454.99075499449509
 20
188.95519801965861
 30
0.0
 11
454.99075499449509
 21
186.9551980196585
 31
0.0
  0
LINE
  5
122
  8
図形
 10
453.99075499449509
 20
188.95519801965861
 30
0.0
 11
453.99075499449509
 21
186.9551980196585
 31
0.0
  0
LINE
  5
123
  8
図形
 10
459.99075499449509
 20
189.95519801965861
 30
0.0
 11
449.99075499449509
 21
189.95519801965861
 31
0.0
  0
LINE
  5
124
  8
図形
 10
463.49075499449509
 20
187.9551980196585
 30
0.0
 11
463.49075499449509
 21
186.45519801965861
 31
0.0
  0
LINE
  5
125
  8
図形
 10
457.09242114067541
 20
211.84839838512599
 30
0.0
 11
451.43558810438628
 21
206.19156534883709
 31
0.0
  0
LINE
  5
126
  8
図形
 10
452.14267367236948
 20
216.79814585343169
 30
0.0
 11
457.09242114067541
 21
211.84839838512599
 31
0.0
  0
LINE
  5
127
  8
図形
 10
453.55688723474248
 20
212.5555193084482
 30
0.0
 11
450.72846718106422
 21
209.7270992547698
 31
0.0
  0
LINE
  5
128
  8
図形
 10
454.97110786818359
 20
211.14129867500719
 30
0.0
 11
452.14268781450511
 21
208.31287862132891
 31
0.0
  0
ARC
  5
129
  8
図形
 10
451.43555982011497
 20
216.09103200117761
 30
0.0
 40
1.0
 50
45.000000000001123
 51
135.0
  0
LINE
  5
12A
  8
図形
 10
450.55170462790312
 20
216.62136208706741
 30
0.0
 11
450.02137454201318
 21
216.0910320011775
 31
0.0
  0
LINE
  5
12B
  8
図形
 10
450.72846718106422
 20
216.79812464022851
 30
0.0
 11
450.55170462790312
 21
216.62136208706741
 31
0.0
  0
LINE
  5
12C
  8
図形
 10
450.72846718106399
 20
216.79812464022839
 30
0.0
 11
450.55170462790301
 21
216.62136208706741
 31
0.0
  0
ENDSEC
  0
EOF
